<?xml version="1.0" standalone="no"?>
<!DOCTYPE svg PUBLIC "-//W3C//DTD SVG 1.1//EN" "http://www.w3.org/Graphics/SVG/1.1/DTD/svg11.dtd" >
<svg xmlns="http://www.w3.org/2000/svg" xmlns:xlink="http://www.w3.org/1999/xlink" version="1.1">
<metadata>
Created by FontForge 20161003 at Tue Jan 30 22:34:18 2018
 By www-data
Design and data by The Monotype Corporation. (c) 1993. Microsoft Corporation. All rights reserved.
</metadata>
<defs>
<font id="BERNHC" horiz-adv-x="981" >
  <font-face 
    font-family="BERNHC"
    font-weight="400"
    font-stretch="condensed"
    units-per-em="2048"
    panose-1="2 5 8 6 6 9 5 2 4 4"
    ascent="1638"
    descent="-410"
    x-height="1366"
    cap-height="1614"
    bbox="-364 -462 2234 1976"
    underline-thickness="130"
    underline-position="-355"
    unicode-range="U+0020-F002"
  />
<missing-glyph horiz-adv-x="1536" 
d="M256 0v1280h1024v-1280h-1024zM288 32h960v1216h-960v-1216z" />
    <glyph glyph-name=".notdef" horiz-adv-x="1536" 
d="M256 0v1280h1024v-1280h-1024zM288 32h960v1216h-960v-1216z" />
    <glyph glyph-name="glyph1" horiz-adv-x="0" 
 />
    <glyph glyph-name="glyph2" horiz-adv-x="501" 
 />
    <glyph glyph-name="space" unicode=" " horiz-adv-x="501" 
 />
    <glyph glyph-name="exclam" unicode="!" horiz-adv-x="533" 
d="M298 508h-65q-20 0 -24.5 6t-4.5 43q0 55 -68 511q-52 360 -52 390q0 74 49.5 126.5t139.5 52.5q86 0 131.5 -56.5t45.5 -131.5q0 -52 -73 -527q-48 -311 -49 -358q0 -43 -5 -49.5t-25 -6.5zM256 395q75 0 123 -58.5t48 -142.5q0 -79 -49 -143.5t-122 -64.5
q-70 0 -115 56.5t-45 141.5q0 84 43 147.5t117 63.5z" />
    <glyph glyph-name="quotedbl" unicode="&#x22;" horiz-adv-x="971" 
d="M160 1100l-53 273v248h306v-248l-46 -273h-207zM611 1100l-53 273v248h306v-248l-46 -273h-207z" />
    <glyph glyph-name="numbersign" unicode="#" horiz-adv-x="1365" 
d="M77 1017h308l84 383h189l-84 -383h355l82 383h189l-82 -383h170v-189h-206l-63 -303h269v-189h-305l-82 -380h-190l83 380h-359l-78 -380h-191l81 380h-170v189h209l63 303h-272v189zM538 828l-63 -302h356l62 302h-355z" />
    <glyph glyph-name="dollar" unicode="$" horiz-adv-x="1045" 
d="M440 1641h170v-109q29 -7 131 -55q15 13 24 31q16 30 40 30h50l18 1q15 -2 19 -28q0 -2 6 -29l46 -244q1 -6 4 -20q17 -76 17 -94q0 -23 -57 -23q-56 0 -66 3.5t-33 50.5q-92 183 -199 235v-394q251 -158 330.5 -283t79.5 -287q0 -145 -58 -234t-136.5 -133t-214.5 -54
v-164h-170v181q-82 34 -109 52q-24 16 -37 16q-22 0 -39 -43q-11 -26 -23 -31.5t-74 -5.5q-19 0 -27 48l-61 354q-5 28 -5 33q0 35 67 35q53 0 67.5 -13t55.5 -87q100 -180 185 -219v463q-406 227 -406 542q0 108 33 180.5t119 133.5t253 65v96zM439 1091v346
q-69 0 -110 -42.5t-41 -90.5q0 -110 151 -213zM611 515v-389q150 23 150 162q0 124 -150 227z" />
    <glyph glyph-name="percent" unicode="%" horiz-adv-x="1536" 
d="M366 1650q129 0 225.5 -109t96.5 -303t-94 -311t-224 -117q-136 0 -230 117t-94 297q0 193 99.5 309.5t220.5 116.5zM432 1477q0 35 -18 57.5t-45 22.5q-69 0 -69 -100v-479q0 -33 19 -56.5t46 -23.5q29 0 48 27.5t19 66.5v485zM993 1650h181l-636 -1705h-179zM1168 788
q130 0 226.5 -109.5t96.5 -303.5q0 -181 -89 -304t-229 -123q-136 0 -230 116.5t-94 297.5q0 192 99.5 309t219.5 117zM1235 614q0 34 -17.5 57t-45.5 23q-69 0 -69 -99v-480q0 -32 19 -56t46 -24t47 26.5t20 67.5v485z" />
    <glyph glyph-name="ampersand" unicode="&#x26;" horiz-adv-x="1323" 
d="M395 1022q-51 178 -51 255q0 157 100 268.5t242 111.5q128 0 208.5 -83.5t80.5 -196.5q0 -96 -65 -188t-174 -150l197 -479q85 113 85 204q0 37 -39 51q-21 7 -21 17v58q0 39 36 39h254q32 0 32 -42v-55q0 -20 -22 -29q-75 -31 -172 -217q-50 -98 -87 -149
q41 -121 103 -121q31 0 63 22q13 9 19 9q7 0 44.5 -33t37.5 -48q0 -14 -30 -40q-134 -116 -228 -224q-72 0 -124.5 28.5t-119.5 115.5q-139 -146 -297 -146q-197 0 -305.5 167.5t-108.5 367.5q0 162 82.5 281t259.5 206zM687 1182q107 59 107 176q0 65 -28.5 112t-71.5 47
q-30 0 -51 -27.5t-21 -64.5q0 -90 65 -243zM683 273q-114 208 -236 596q-85 -27 -85 -127q0 -96 81 -294t170 -198q31 0 70 23z" />
    <glyph glyph-name="quotesingle" unicode="'" horiz-adv-x="487" 
d="M144 1100l-53 273v248h306v-248l-46 -273h-207z" />
    <glyph glyph-name="parenleft" unicode="(" horiz-adv-x="576" 
d="M554 -150v-58q0 -39 -20 -39q-26 0 -125 68t-194.5 193t-151 298t-55.5 372q0 196 46 357.5t136 293.5t205 215.5t144 83.5q15 0 15 -32v-85q0 -21 -16 -34q-40 -35 -58.5 -75t-39.5 -134t-21 -217v-698q0 -53 25 -294q29 -112 91 -167q19 -17 19 -48z" />
    <glyph glyph-name="parenright" unicode=")" horiz-adv-x="576" 
d="M23 1536v59q0 39 19 39q23 0 126.5 -67.5t203.5 -206t148.5 -307.5t48.5 -350q0 -196 -46 -357.5t-136.5 -293.5t-205.5 -215.5t-143 -83.5q-15 0 -15 32v85q0 20 16 34q39 34 58 74.5t40 134t21 217.5v698q0 52 -25 294q-30 112 -91 167q-19 17 -19 47z" />
    <glyph glyph-name="asterisk" unicode="*" horiz-adv-x="1024" 
d="M396 1366q32 72 56 159q21 74 33.5 92.5t32.5 18.5q19 0 29.5 -16t26.5 -72q29 -106 64 -182q48 0 164 23q63 13 83 13q39 0 39 -31q0 -27 -55 -85q-66 -69 -111 -138q49 -73 104 -133q59 -65 59 -91q0 -32 -42 -32q-25 0 -77 14q-89 25 -164 28q-36 -70 -69 -191
q-16 -59 -25 -73t-29 -14q-24 0 -36.5 20t-28.5 86q-24 99 -63 172q-71 0 -188 -30q-45 -11 -64 -11q-35 0 -35 30q0 22 64 90q71 76 105 135q-68 98 -121 150q-47 45 -47 68q0 39 44 39q21 0 62 -12q89 -25 189 -27z" />
    <glyph glyph-name="plus" unicode="+" horiz-adv-x="1365" 
d="M125 908h449v451h215v-451h451v-215h-451v-447h-215v447h-449v215z" />
    <glyph glyph-name="comma" unicode="," horiz-adv-x="533" 
d="M95 238q0 60 38 108.5t109 48.5q83 0 139.5 -65.5t56.5 -174.5q0 -157 -105 -279.5t-147 -122.5q-20 0 -45 25t-25 35q0 13 20 33q92 86 92 171q0 22 -9.5 41t-47.5 50t-57 60.5t-19 69.5z" />
    <glyph glyph-name="hyphen" unicode="-" horiz-adv-x="619" 
d="M484 880h55q47 0 47 -30q0 -28 -36.5 -156t-55 -153t-54.5 -25q-17 0 -65 3q-91 7 -140 7q-46 0 -68 -32q-11 -14 -18.5 -17.5t-38.5 -3.5q-50 0 -63 6.5t-13 30.5q0 32 34 163.5t49.5 146t73.5 14.5q27 0 75 -4q49 -3 86 -3q42 0 58 6t39 30q15 17 35 17z" />
    <glyph glyph-name="period" unicode="." horiz-adv-x="533" 
d="M261 395q74 0 122.5 -58t48.5 -143q0 -81 -50 -144.5t-121 -63.5q-69 0 -114.5 56.5t-45.5 141.5q0 84 43 147.5t117 63.5z" />
    <glyph glyph-name="slash" unicode="/" horiz-adv-x="1045" 
d="M779 1641h232l-744 -1659h-232z" />
    <glyph glyph-name="zero" unicode="0" horiz-adv-x="1003" 
d="M507 1621q128 0 236 -104t162 -282.5t54 -423.5q0 -408 -135.5 -618t-329.5 -210q-184 0 -317 200t-133 612q0 410 131.5 618t331.5 208zM570 1365q0 71 -16.5 98.5t-54.5 27.5q-74 0 -74 -126v-1158q0 -98 70 -98q34 0 54.5 29t20.5 69v1158z" />
    <glyph glyph-name="one" unicode="1" horiz-adv-x="768" 
d="M209 1184q-90 -31 -153 -31q-31 0 -31 34v40q0 23 9 34.5t45 25.5q48 20 131 81t162 163q61 79 72 85.5t38 6.5h83v-1447q0 -22 34 -39q29 -14 35.5 -29.5t6.5 -81.5q0 -26 -35 -26h-458q-29 0 -35.5 9t-6.5 44q0 50 5.5 62t41.5 23q56 17 56 49v997z" />
    <glyph glyph-name="two" unicode="2" horiz-adv-x="1003" 
d="M243 300h501q34 0 53.5 25.5t33.5 95.5q6 29 19 38.5t55 9.5q62 0 62 -27q0 -9 -3 -21q-5 -27 -21 -129q-18 -111 -35.5 -193.5t-26 -90.5t-46.5 -8h-789v234q0 49 84 124q42 38 194.5 229t197.5 312t45 323q0 169 -32.5 217.5t-93.5 48.5q-46 0 -72 -26t-26 -68
q0 -24 5 -58q6 -45 6 -87q0 -91 -41.5 -141t-105.5 -50q-68 0 -108 54t-40 130q0 158 118 268.5t316 110.5q201 0 330.5 -127t129.5 -329q0 -112 -46 -214.5t-125.5 -182t-232.5 -199.5q-210 -163 -306 -269z" />
    <glyph glyph-name="three" unicode="3" horiz-adv-x="1003" 
d="M593 867q358 -93 358 -420q0 -139 -66 -244t-181.5 -162.5t-245.5 -57.5q-175 0 -280.5 107.5t-105.5 250.5q0 72 37 123t105 51q66 0 102 -45t36 -111q0 -27 -11 -91q-6 -28 -6 -51q0 -43 27 -73.5t75 -30.5q63 0 93.5 52.5t30.5 168.5q0 30 -2 60l-12 247
q-15 73 -49 107t-71.5 41.5t-119.5 7.5l-29 -1q-30 0 -32 29l-2 44q-1 7 -1 14q0 45 45 45q114 0 163.5 19.5t66.5 59.5t17 175q0 191 -20 254t-82 63q-38 0 -66.5 -25t-28.5 -64q0 -26 9 -75q13 -69 13 -104q0 -58 -39 -92t-93 -34q-67 0 -104.5 53t-37.5 132
q0 138 107 242t289 104q210 0 320 -128t110 -282q0 -120 -74 -214.5t-215 -135.5z" />
    <glyph glyph-name="four" unicode="4" horiz-adv-x="1003" 
d="M831 578h85q32 0 42 -11t10 -44v-59q0 -26 -8 -35t-38 -9h-91v-188q0 -67 57 -97q31 -16 31 -56v-45q0 -22 -8 -28t-37 -6h-421q-30 0 -37 10.5t-7 70.5q0 36 30 53q38 22 38 61v225h-396q-32 0 -38 7.5t-6 34.5v116q0 18 3 28.5t43 74.5l562 899q15 24 36.5 32.5
t78.5 8.5q55 0 63 -6.5t8 -35.5v-1001zM477 1068l-307 -490h307v490z" />
    <glyph glyph-name="five" unicode="5" horiz-adv-x="1003" 
d="M178 1597h480q31 0 45 15q17 18 25.5 21.5t35.5 3.5q41 0 52 -6.5t11 -25.5q0 -4 -3 -36l-18 -214q-3 -31 -10.5 -39t-36.5 -8h-470l-17 -308q98 66 219 66q198 0 324 -148t126 -378q0 -249 -145.5 -403t-361.5 -154q-179 0 -276 113t-97 236q0 70 37 122.5t106 52.5
q61 0 97 -41t36 -111q0 -32 -8 -67q-13 -59 -13 -77q0 -34 26.5 -66t80.5 -32q47 0 79 24.5t42 69.5t10 181l-2 179q0 205 -31 281t-107 76q-107 0 -150 -137q-10 -32 -20.5 -41t-36.5 -10l-45 -2q-36 0 -36 29q0 9 1 27z" />
    <glyph glyph-name="six" unicode="6" horiz-adv-x="1003" 
d="M422 1077q91 103 196 103q141 0 242.5 -141t101.5 -409q0 -281 -126.5 -464t-336.5 -183q-139 0 -238.5 75.5t-160.5 242t-61 432.5q0 322 91 519t261.5 283.5t363.5 86.5q52 0 71.5 -7t19.5 -27q0 -75 -7 -89.5t-49 -14.5q-93 0 -191.5 -43.5t-137.5 -123t-39 -240.5z
M575 933q0 33 -18 55.5t-49 22.5q-77 0 -77 -115v-714q0 -30 21 -50t50 -20q35 0 54 30t19 125v666z" />
    <glyph glyph-name="seven" unicode="7" horiz-adv-x="1003" 
d="M712 1293h-418q-49 0 -76 -66q-14 -33 -24 -48.5t-98 -15.5q-31 0 -31 23v11l29 339q4 42 15 51.5t55 9.5h767q22 0 26.5 -3t4.5 -20v-43q0 -28 -28 -82q-68 -136 -162 -441t-94 -663q0 -148 11 -175t43 -45q21 -11 21 -55q0 -54 -4.5 -62t-31.5 -8h-425q-26 0 -33 8
t-7 50q0 44 5.5 55.5t32.5 24.5q18 9 23 26.5t5 59.5q0 129 61 350.5t174 426.5z" />
    <glyph glyph-name="eight" unicode="8" horiz-adv-x="1003" 
d="M263 815q-190 158 -190 393q0 188 116.5 301t310.5 113q198 0 311 -108.5t113 -257.5q0 -198 -202 -323q125 -99 177 -200t52 -235q0 -237 -138.5 -376t-335.5 -139q-190 0 -314.5 128.5t-124.5 316.5q0 246 225 387zM616 1013q84 77 84 240q0 238 -176 238
q-79 0 -127 -53.5t-48 -119.5q0 -69 58 -138t209 -167zM361 731q-48 -41 -67.5 -100.5t-19.5 -176.5q0 -168 49.5 -246.5t162.5 -78.5q87 0 145 53.5t58 148.5q0 88 -42 148.5t-147 141.5z" />
    <glyph glyph-name="nine" unicode="9" horiz-adv-x="1003" 
d="M569 532q-90 -100 -199 -100q-134 0 -232.5 142.5t-98.5 398.5q0 148 45 296t146.5 250t269.5 102q213 0 336.5 -173t123.5 -588q0 -472 -200 -674.5t-525 -202.5q-59 0 -71 7.5t-12 42.5q0 55 6.5 69t22.5 16q149 17 226.5 50t121 106t43.5 192q0 22 -3 66zM569 1411
q0 87 -72 87q-71 0 -71 -96v-717q0 -39 19 -64.5t49 -25.5q35 0 55 33t20 75v708z" />
    <glyph glyph-name="colon" unicode=":" horiz-adv-x="533" 
d="M261 1174q75 0 123 -58.5t48 -142.5q0 -79 -49 -143.5t-122 -64.5q-69 0 -114.5 56.5t-45.5 141.5t43.5 148t116.5 63zM261 395q74 0 122.5 -58t48.5 -143q0 -81 -50 -144.5t-121 -63.5q-69 0 -114.5 56.5t-45.5 141.5q0 84 43 147.5t117 63.5z" />
    <glyph glyph-name="semicolon" unicode=";" horiz-adv-x="533" 
d="M263 1174q75 0 123 -58.5t48 -142.5q0 -81 -50 -144.5t-121 -63.5q-70 0 -115 56.5t-45 141.5q0 84 43 147.5t117 63.5zM95 238q0 60 38 108.5t109 48.5q83 0 139.5 -65.5t56.5 -174.5q0 -157 -105 -279.5t-147 -122.5q-20 0 -45 25t-25 35q0 13 20 33q92 86 92 171
q0 22 -9.5 41t-47.5 50t-57 60.5t-19 69.5z" />
    <glyph glyph-name="less" unicode="&#x3c;" horiz-adv-x="1365" 
d="M1238 240l-1112 464v194l1112 465v-233l-819 -328l819 -329v-233z" />
    <glyph glyph-name="equal" unicode="=" horiz-adv-x="1365" 
d="M126 1149h1112v-215h-1112v215zM126 671h1112v-215h-1112v215z" />
    <glyph glyph-name="greater" unicode="&#x3e;" horiz-adv-x="1365" 
d="M126 1363l1112 -464v-194l-1112 -465v233l819 328l-819 329v233z" />
    <glyph glyph-name="question" unicode="?" horiz-adv-x="853" 
d="M440 509h-70q-24 0 -32.5 10.5t-8.5 66.5q0 187 52 323q33 85 47.5 131.5t14.5 150.5l-1 99v58q0 105 -20 131t-53 26q-38 0 -58.5 -31.5t-20.5 -73.5q0 -21 9 -75q6 -36 6 -56q0 -123 -134 -123q-133 0 -133 159q0 144 99 239.5t270 95.5q179 0 292.5 -111t113.5 -277
q0 -85 -32 -163t-162 -203q-86 -83 -105.5 -127.5t-22.5 -132.5t-11 -102.5t-40 -14.5zM406 395q75 0 123 -58.5t48 -142.5q0 -81 -50 -144.5t-121 -63.5q-69 0 -114.5 56.5t-45.5 141.5t43.5 148t116.5 63z" />
    <glyph glyph-name="at" unicode="@" horiz-adv-x="1905" 
d="M1182 1178l244 10l-183 -628q-31 -103 -31 -154q0 -33 23.5 -56.5t58.5 -23.5q71 0 179 81t179.5 225.5t71.5 314.5q0 268 -174 449t-471 181q-230 0 -433.5 -110t-324.5 -335t-121 -477q0 -352 223 -570t563 -218q270 0 498 151t318 401h61q-115 -293 -348 -450
t-534 -157q-381 0 -633.5 246.5t-252.5 630.5q0 405 272 678.5t695 273.5q335 0 527 -192t192 -487q0 -288 -170 -498.5t-430 -210.5q-108 0 -155.5 54t-47.5 125q0 50 24 137q-183 -316 -345 -316q-80 0 -124 63t-44 164q0 153 69.5 317t205 291.5t241.5 127.5
q120 0 143 -156zM1102 1009q0 62 -20 98.5t-51 36.5q-85 0 -184.5 -235t-99.5 -378q0 -39 16 -67t42 -28q40 0 109.5 80.5t128.5 224.5t59 268z" />
    <glyph glyph-name="A" unicode="A" 
d="M508 345h-250l-11 -92q0 -3 -2 -9q-8 -29 -8 -52q0 -36 47 -61q25 -13 31 -27t6 -46q0 -41 -4.5 -49.5t-21.5 -8.5h-264q-22 0 -22 46q0 55 35 89q33 31 38 66l185 1177q5 27 5 47q0 31 -43 55q-20 12 -20 53q0 55 6 68t32 13h382q35 0 49 -33t28 -144q6 -43 12 -85
l164 -1099q12 -80 59 -122q13 -11 17 -17.5t4 -39.5q0 -51 -7 -62.5t-30 -11.5h-445q-20 0 -20 38q0 48 5 60t29 28q35 22 35 56q0 35 -21 163zM388 1237l-111 -777h220z" />
    <glyph glyph-name="B" unicode="B" horiz-adv-x="1110" 
d="M740 920q183 -64 252 -158.5t69 -260.5q0 -253 -127 -377t-393 -124h-489q-30 0 -30 31v60q0 25 27 37q57 27 57 79v1207q0 25 -8 34t-48 28q-20 9 -23.5 20t-3.5 54q0 38 10.5 51t36.5 13h548q198 0 304 -101t106 -257q0 -130 -83.5 -218t-204.5 -118zM478 1501v-525h53
q50 0 78.5 29t33 96.5t4.5 170.5q0 144 -27.5 186.5t-88.5 42.5h-53zM478 862v-747q92 0 123.5 25t37 99t5.5 250q0 36 -3 163.5t-12 153.5t-31.5 41t-66.5 15h-53z" />
    <glyph glyph-name="C" unicode="C" horiz-adv-x="832" 
d="M696 1641h52q18 0 27 -13.5t13 -72.5l23 -322q1 -10 1 -19q0 -35 -12 -49t-48 -14q-44 0 -61 23t-33 109q-41 218 -117 218q-63 0 -63 -157v-1125q0 -112 66 -112q84 0 94 187q3 54 21 75t74 21q42 0 58.5 -15.5t16.5 -60.5q0 -143 -86 -237.5t-214 -94.5q-124 0 -218 79
t-162.5 272.5t-68.5 495.5q0 285 57.5 455.5t147 263.5t208.5 93q72 0 125 -39q20 -14 30 -14q12 0 34 28q19 25 35 25z" />
    <glyph glyph-name="D" unicode="D" horiz-adv-x="1109" 
d="M106 222v1211q-3 20 -36 30q-26 8 -35 23.5t-9 66.5q0 37 13 49t67 12h479q205 0 339.5 -189t134.5 -628q0 -400 -130 -598.5t-344 -198.5h-528q-22 0 -30.5 10.5t-8.5 46.5q0 43 3 54t29 25q56 29 56 86zM478 1495v-1385h53q56 0 82 46.5t26 165.5v1022q0 67 -32 109
t-91 42h-38z" />
    <glyph glyph-name="E" unicode="E" horiz-adv-x="853" 
d="M488 1491v-571h68q28 0 41 12t20 52q12 71 19.5 85t23.5 14q79 0 89.5 -6.5t10.5 -50.5v-333q0 -31 -10 -40.5t-62 -9.5q-34 0 -45.5 12.5t-22.5 70.5q-11 53 -21.5 65t-32.5 12h-78v-689h53q49 0 67.5 27.5t59.5 158.5q17 55 35 72t63 17q62 0 62 -40q0 -12 -4 -35
l-37 -227q-10 -62 -16.5 -74.5t-40.5 -12.5h-667q-25 0 -32 11.5t-7 66.5q0 35 36 51q55 23 55 63v1247q-1 19 -45 38q-30 13 -35.5 25t-5.5 58q0 39 6 46.5t35 7.5h638q24 0 35 -8t17 -38l51 -258q4 -20 4 -27q0 -27 -48 -27q-54 0 -72 12.5t-35 62.5q-31 90 -53.5 125
t-50.5 35h-68z" />
    <glyph glyph-name="F" unicode="F" horiz-adv-x="832" 
d="M480 812v-607q0 -47 58 -64q29 -8 36.5 -18.5t7.5 -46.5q0 -56 -8.5 -66t-41.5 -10h-457q-38 0 -49.5 15.5t-11.5 63.5q0 32 5.5 40.5t32.5 20.5q37 16 46 27.5t9 34.5v1208q0 26 -10.5 40t-45.5 29q-25 11 -25 49q0 4 1 44q6 42 48 42h624q28 0 39 -9t17 -44q1 -6 3 -17
l45 -222q4 -21 4 -36q0 -32 -48 -32q-64 0 -80 24t-50 119q-21 58 -41.5 78t-63.5 20q-12 0 -44 -3v-571h51q40 0 55.5 18.5t22.5 63.5q9 51 17 65.5t66 14.5q40 0 48.5 -8t8.5 -31v-362q0 -23 -8 -30t-51 -7q-52 0 -65.5 17t-20.5 83q-8 67 -73 67h-51z" />
    <glyph glyph-name="G" unicode="G" horiz-adv-x="1109" 
d="M745 98q-90 -116 -222 -116q-206 0 -337 242t-131 574q0 376 148 609.5t350 233.5q97 0 172 -50q24 -15 37 -15q18 0 31 34q12 31 42 31h12l32 -2q32 -5 40 -45l64 -318q10 -49 10 -66q0 -35 -53 -35q-52 0 -67 15t-60 105q-60 122 -105.5 169.5t-97.5 47.5
q-137 0 -137 -218v-1074q0 -118 75 -118q82 0 82 118v523q0 51 -35 66q-38 16 -38 65q0 53 10 63.5t43 10.5h423q31 0 41.5 -11t10.5 -50q0 -41 -6.5 -55t-31.5 -23q-36 -13 -36 -55v-680q0 -61 -8 -76.5t-42 -15.5q-31 0 -44.5 4.5t-37.5 27.5q-67 65 -134 84z" />
    <glyph glyph-name="H" unicode="H" horiz-adv-x="1131" 
d="M486 922h160v503q0 24 -4.5 32t-24.5 20q-22 12 -22 56q0 56 5 68.5t28 12.5h434q29 0 35 -10.5t6 -68.5q0 -35 -6.5 -41.5t-40.5 -23.5q-37 -20 -37 -62v-1197q0 -47 43 -75q35 -22 35 -40v-63q0 -20 -6 -26.5t-35 -6.5h-436q-22 0 -27 8t-5 74q0 33 27 52q31 22 31 51
v624h-160v-630q0 -32 26 -51q26 -21 26 -59q0 -53 -6 -61t-24 -8h-439q-21 0 -26 9t-5 71q0 29 5 38t28 22q42 22 42 59v1209q0 29 -37 55q-37 27 -37 77q0 53 8.5 63.5t37.5 10.5h410q27 0 37 -9.5t10 -44.5v-47q-2 -18 -25 -32q-31 -17 -31 -56v-503z" />
    <glyph glyph-name="I" unicode="I" horiz-adv-x="598" 
d="M30 1530v53q0 31 33 31h479q27 0 35 -7t8 -42q0 -53 -5.5 -66t-24.5 -16q-62 -11 -62 -79v-1202q0 -38 45 -60q29 -14 35 -25t6 -38v-39q0 -32 -6 -36t-31 -4h-488q-28 0 -28 22q0 72 5 88t35 25q54 15 54 57v1187q0 42 -10 63.5t-44 35.5q-25 11 -30.5 19.5t-5.5 32.5z
" />
    <glyph glyph-name="J" unicode="J" horiz-adv-x="619" 
d="M74 1614h477q28 0 36.5 -8t8.5 -45q0 -48 -7.5 -60.5t-33.5 -20.5q-30 -9 -36.5 -21t-6.5 -52v-1101q0 -230 -124 -393.5t-383 -163.5q-49 0 -59 7.5t-10 32.5v38q0 23 4.5 30t28.5 9q170 15 170 272v1223q0 73 -13.5 93.5t-49.5 31.5t-36 48q0 62 4.5 71t29.5 9z" />
    <glyph glyph-name="K" unicode="K" horiz-adv-x="1089" 
d="M742 1160l259 -955q13 -49 50 -67q24 -12 24 -54q0 -5 -3 -60q-3 -24 -42 -24h-398q-22 0 -29 8t-7 44q0 6 2 52q3 18 24 26q32 11 32 37q0 7 -2 17l-140 504l-34 -75v-408q0 -51 45 -78q19 -11 19 -50q0 -46 -8 -61.5t-39 -15.5h-419q-23 0 -32 9.5t-9 53.5t7 55.5
t27 20.5q37 15 37 54v1201q0 45 -36 67q-24 15 -29 24.5t-5 39.5q0 68 5 78.5t29 10.5h456q32 0 32 -26q0 -81 -3 -93.5t-29 -27.5q-48 -25 -48 -64v-513l218 495q18 41 18 62q0 13 -24 31q-26 18 -31.5 31t-5.5 66q0 39 29 39h265q23 0 28 -9t5 -52q0 -46 -6.5 -56
t-40.5 -24q-26 -10 -33 -16t-17 -26z" />
    <glyph glyph-name="L" unicode="L" horiz-adv-x="832" 
d="M484 113h57q44 0 65 35t55 162q12 49 29 59.5t58 10.5q45 0 58 -7.5t13 -27.5q0 -14 -5 -45l-35 -239q-6 -37 -15.5 -49t-38.5 -12h-658q-42 0 -42 52q0 40 5.5 51.5t23.5 17.5q57 18 57 105v1188q0 37 -36 53q-31 13 -38 29t-7 53q0 44 6 54.5t32 10.5h461
q26 0 35.5 -12.5t9.5 -67.5q0 -33 -6.5 -44.5t-33.5 -20.5q-50 -17 -50 -66v-1290z" />
    <glyph glyph-name="M" unicode="M" horiz-adv-x="1195" 
d="M766 1614h354q36 0 47 -10.5t11 -53.5q0 -39 -7.5 -54.5t-36.5 -29.5q-26 -12 -33 -26t-7 -46v-1187q0 -26 6 -38t33 -25q37 -18 37 -49q0 -78 -5 -86.5t-35 -8.5h-446q-29 0 -29 49q0 42 3 62.5t37 33.5q38 15 38 53v842l-180 -680h-110l-177 659v-818q0 -40 36 -59
q44 -22 44 -78q0 -64 -44 -64h-217q-37 0 -37 61q0 43 31 66q23 19 29 30.5t6 40.5v1155q0 48 -8.5 73.5t-36.5 41.5q-30 16 -30 33l1 43q1 47 6.5 58.5t26.5 11.5h370l160 -618z" />
    <glyph glyph-name="N" unicode="N" horiz-adv-x="939" 
d="M278 915v-706q0 -44 50 -66q42 -19 42 -54q0 -73 -3.5 -81t-29.5 -8h-266q-20 0 -25 15.5t-5 76.5q0 28 27 39q52 23 52 52v1182q0 43 -8 64.5t-36 35.5q-25 12 -33.5 26t-8.5 53q0 70 37 70h278l336 -779v574q0 48 -49 68q-29 13 -37.5 29.5t-8.5 64.5q0 30 6 36.5
t23 6.5h276q23 -3 23 -66q0 -37 -4.5 -47t-20.5 -17q-35 -14 -44 -27t-9 -36v-1421h-170z" />
    <glyph glyph-name="O" unicode="O" horiz-adv-x="1109" 
d="M556 1641q147 0 254.5 -98.5t175.5 -280.5t68 -467q0 -342 -132.5 -577.5t-373.5 -235.5q-229 0 -361 230t-132 594q0 373 135.5 604t365.5 231zM635 1404q0 125 -81 125q-34 0 -58 -31t-24 -76v-1207q0 -61 24 -92.5t57 -31.5q37 0 59.5 35t22.5 78v1200z" />
    <glyph glyph-name="P" unicode="P" horiz-adv-x="1109" 
d="M489 550v-333q0 -58 50 -76q24 -9 33.5 -24.5t9.5 -57.5q0 -40 -11 -49.5t-44 -9.5h-453q-36 0 -36 63q0 50 5 61.5t34 20.5q26 8 32.5 17.5t6.5 32.5v1208q0 43 -53 69q-28 15 -29 46l-1 47q0 30 7.5 39.5t33.5 9.5h512q221 0 352.5 -141.5t131.5 -391.5
q0 -141 -40.5 -251t-102 -162t-142 -85t-171.5 -33h-125zM489 1503v-838h70q36 0 64.5 39.5t28.5 131.5v499q0 168 -112 168h-51z" />
    <glyph glyph-name="Q" unicode="Q" horiz-adv-x="1109" 
d="M733 23q-89 -41 -181 -41q-227 0 -362.5 232t-135.5 589q0 370 135 604t370 234q219 0 358 -225t139 -627q0 -349 -142 -587q57 -67 125 -89q27 -9 31.5 -21.5t4.5 -136.5q0 -47 1 -59q1 -15 1 -29q0 -91 -84 -91q-46 0 -103.5 38.5t-156.5 208.5zM633 378v1042
q0 45 -23 76t-57 31q-38 0 -58.5 -32t-20.5 -75v-1219q0 -44 23 -76t54 -32q32 0 55.5 29.5t23.5 55.5q0 46 -82 108q-23 17 -23 50l-1 27q0 41 30 41q14 0 79 -26z" />
    <glyph glyph-name="R" unicode="R" horiz-adv-x="1109" 
d="M492 710v-496q0 -35 4.5 -47t25.5 -25q27 -17 27 -57q0 -58 -10.5 -71.5t-38.5 -13.5h-423q-36 0 -36 52q0 50 3 64.5t20 20.5q55 22 55 86v1171q0 65 -48 79q-24 8 -30 16t-6 47q0 78 42 78h553q165 0 294.5 -124t129.5 -333q0 -297 -303 -388q277 -61 277 -351v-238
q0 -30 23 -45q27 -18 27 -55q0 -58 -7 -69t-37 -11h-268q-48 0 -79 54.5t-31 134.5v403q0 118 -119 118h-45zM492 1500v-674h65q99 0 99 199v322q0 84 -31.5 118.5t-98.5 34.5h-34z" />
    <glyph glyph-name="S" unicode="S" horiz-adv-x="768" 
d="M498 1571q6 5 34 45q18 26 48 26q7 0 56 -7q10 -10 15 -42l54 -339q4 -27 4 -32q0 -19 -10.5 -25t-55.5 -6q-51 0 -66 13t-57 108q-89 201 -159 201q-50 0 -50 -70q0 -87 151 -342q173 -294 225.5 -425.5t52.5 -294.5q0 -193 -91 -296t-205 -103q-72 0 -139 41
q-26 16 -41 16q-13 0 -21 -19q-16 -38 -78 -38q-24 0 -32.5 7.5t-12.5 39.5l-50 333q-10 64 -10 68q0 29 53 29q72 0 85 -19t37 -87q88 -243 177 -243q33 0 53.5 24t20.5 60q0 63 -45.5 149.5t-111.5 192.5q-158 254 -223.5 405.5t-65.5 309.5q0 178 78 284t191 106
q78 0 189 -70z" />
    <glyph glyph-name="T" unicode="T" horiz-adv-x="960" 
d="M297 1502h-45q-22 0 -36 -29.5t-29 -159.5q-7 -57 -22 -71.5t-60 -14.5q-43 0 -55.5 10.5t-12.5 41.5q0 18 1 36l12 233q2 41 14 53.5t60 12.5h733q32 0 39 -8t11 -58l17 -206q2 -24 2 -49q0 -30 -7.5 -46t-47.5 -16q-51 0 -65.5 10t-23.5 63q-16 87 -35 142.5t-47 55.5
h-30v-1284q0 -55 48 -76q20 -9 26.5 -21.5t6.5 -52.5q0 -51 -9 -59.5t-41 -8.5h-440q-26 0 -33.5 10t-7.5 57q0 56 31 68q30 12 38 23.5t8 39.5v1304z" />
    <glyph glyph-name="U" unicode="U" horiz-adv-x="896" 
d="M71 1614h433q22 0 28 -9.5t6 -58.5t-29 -65q-22 -12 -29.5 -25t-7.5 -50v-1120q0 -46 26 -74.5t66 -28.5q37 0 63 32t26 71v1120q0 29 -5.5 40.5t-27.5 28.5q-34 26 -34 80q0 42 9.5 50.5t27.5 8.5h216q36 0 36 -36v-48q0 -32 -4 -40.5t-23 -15.5q-47 -16 -47 -65v-1091
q0 -155 -89 -245.5t-248 -90.5q-178 0 -271.5 96t-93.5 277v1054q0 42 -44 62q-22 10 -26.5 18.5t-4.5 36.5q0 58 7 73t40 15z" />
    <glyph glyph-name="V" unicode="V" 
d="M597 629l153 771q2 10 2 21q0 40 -51 64q-32 16 -32 31q0 7 1 14v16q0 45 4.5 56.5t24.5 11.5h248q17 0 20.5 -9.5t3.5 -49.5q0 -47 -2 -58t-14 -18q-30 -20 -38 -34.5t-20 -73.5l-260 -1299l-16 -79q-2 -11 -21 -11h-201q-13 0 -20 12t-20 78l-261 1328q-9 50 -48 73
q-20 12 -24.5 18.5t-4.5 27.5q0 7 1 14q1 11 1 21q0 7 -1 13v14q0 33 24 33h454q23 0 23 -42q0 -1 -2 -58q-2 -13 -21 -22q-44 -21 -44 -67q0 -11 3 -25z" />
    <glyph glyph-name="W" unicode="W" horiz-adv-x="1451" 
d="M664 1141l-46 260q-6 37 -39 71q-22 22 -22 42v70q0 30 29 30h410q20 0 25.5 -10t5.5 -45q0 -53 -5.5 -63.5t-25.5 -21.5q-30 -16 -30 -32q0 -21 8 -62l114 -640l119 661q1 10 1 21q0 46 -51 70q-26 12 -27 68q0 15 -1 21v9q0 24 36 24h230q24 0 31 -8.5t7 -36.5
q0 -9 -1 -18l-3 -39q-4 -23 -32 -41t-36 -61l-241 -1320q-14 -78 -23 -93t-33 -15h-168q-27 0 -34 57q-1 11 -2 17l-127 705l-126 -717q-7 -43 -15 -52.5t-26 -9.5h-175q-30 0 -43 105q-2 19 -4 29l-239 1294q-8 41 -42 60q-28 15 -28 44v77q0 23 28 23h396q20 0 28 -10.5
t8 -48.5q0 -43 -3 -54t-19 -25q-20 -19 -20 -39q0 -23 6 -57l127 -677z" />
    <glyph glyph-name="X" unicode="X" 
d="M546 1138l81 170q59 121 59 145q0 21 -30 33q-26 11 -26 54q0 48 4.5 61t25.5 13h232q25 0 25 -27v-71q0 -20 -28 -38t-35 -33l-240 -506l255 -728q12 -32 17.5 -41t25.5 -20q24 -13 31 -24.5t7 -42.5q0 -45 -7.5 -64t-31.5 -19h-423q-32 0 -32 28v64q0 30 28 46
q32 19 32 42q0 29 -13 65l-93 254l-121 -254q-25 -51 -25 -74q0 -19 37 -42q8 -5 13.5 -11.5t5.5 -57.5q0 -44 -4.5 -52t-23.5 -8h-241q-31 0 -31 28v74q0 17 33 35q27 14 40.5 33t39.5 75l209 451l-253 727q-13 39 -51 70q-18 14 -18 29v61q0 31 39 31h419q25 0 25 -29v-69
q0 -27 -29 -38q-31 -12 -31 -31q0 -25 16 -68z" />
    <glyph glyph-name="Y" unicode="Y" 
d="M683 723v-524q0 -40 51 -58q22 -8 30.5 -16.5t8.5 -70.5q0 -38 -8 -46t-32 -8h-474q-35 0 -35 31v59q0 37 46 52q24 8 32 19.5t8 43.5v492l-201 711q-15 53 -56 70q-22 10 -22 33v76q0 27 29 27h424q18 0 24 -10t6 -53t-3.5 -54.5t-19.5 -20.5q-23 -15 -23 -38
q0 -13 5 -30l131 -446l135 446q1 6 1 19q0 32 -39 66q-18 16 -18 29v59q0 33 29 33h219q30 0 30 -33v-63q0 -17 -22 -33q-38 -27 -53 -77z" />
    <glyph glyph-name="Z" unicode="Z" horiz-adv-x="789" 
d="M110 1614h629q21 0 21 -13q0 -5 -1 -11q-1 -3 -5 -18l-325 -1455h61q51 0 75 36.5t44 132.5q10 52 25 66t55 14q52 0 61.5 -4.5t9.5 -19.5q0 -4 -6 -39l-46 -303h-650q-20 0 -20 10q0 15 8 45l342 1447h-69q-64 0 -101 -158q-14 -60 -32 -73.5t-65 -13.5q-38 0 -48.5 3.5
t-10.5 19.5q0 8 4 35z" />
    <glyph glyph-name="bracketleft" unicode="[" horiz-adv-x="533" 
d="M472 -230h-339q-29 0 -37 10t-8 42v1730q0 41 9.5 51.5t35.5 10.5h327q35 0 43 -10.5t8 -62.5q0 -31 -7 -38t-35 -10q-26 -4 -33 -12t-7 -41v-1501q0 -25 6.5 -33.5t31.5 -12.5q39 -7 39 -34q0 -70 -4.5 -79.5t-29.5 -9.5z" />
    <glyph glyph-name="backslash" unicode="\" horiz-adv-x="1045" 
d="M31 1641h232l752 -1659h-232z" />
    <glyph glyph-name="bracketright" unicode="]" horiz-adv-x="533" 
d="M61 1614h340q29 0 37 -10t8 -42v-1731q0 -40 -9.5 -50.5t-35.5 -10.5h-328q-35 0 -42.5 10.5t-7.5 62.5q0 31 6.5 37.5t34.5 10.5q27 4 34 12t7 41v1500q0 26 -6.5 34.5t-32.5 12.5q-38 6 -38 34q0 70 4 79.5t29 9.5z" />
    <glyph glyph-name="asciicircum" unicode="^" horiz-adv-x="1003" 
d="M260 813h-185l353 801h145l355 -801h-181l-247 597z" />
    <glyph glyph-name="underscore" unicode="_" horiz-adv-x="1024" 
d="M-12 -154h1048v-102h-1048v102z" />
    <glyph glyph-name="grave" unicode="`" horiz-adv-x="683" 
d="M417 1492l-287 164q-55 31 -55 53q0 25 94 25q15 0 31 -1h47q62 0 82.5 -6.5t40.5 -38.5l131 -196h-84z" />
    <glyph glyph-name="a" unicode="a" 
d="M563 969v193q0 80 -65 80q-89 0 -89 -121q0 -68 -15.5 -97t-70 -49.5t-116.5 -20.5q-127 0 -127 136q0 128 110.5 209t288.5 81q117 0 210.5 -32t149.5 -108t56 -167v-913q2 -7 30 -30q20 -15 20 -44q0 -40 -11 -56.5t-53.5 -30.5t-106.5 -14q-78 0 -130 28.5t-81 111.5
q-87 -90 -141 -115t-111 -25q-127 0 -196.5 99.5t-69.5 325.5t65 313.5t254 161.5q120 46 199 84zM563 839q-113 -50 -135 -112.5t-22 -281.5q0 -161 18 -203.5t62 -42.5q77 0 77 128v512z" />
    <glyph glyph-name="b" unicode="b" horiz-adv-x="1003" 
d="M439 92v-54q0 -38 -35 -38h-335q-23 0 -23 25v67q0 13 22 23q40 19 40 64v1262q0 51 -42 60q-20 4 -20 28v51q0 21 6 27.5t29 6.5h323q35 0 35 -34v-303q99 103 210 103q130 0 218.5 -143.5t88.5 -569.5q0 -403 -89 -542.5t-217 -139.5q-102 0 -211 107zM587 1065
q0 125 -67 125q-36 0 -58.5 -18t-22.5 -43v-900q0 -23 20.5 -39t49.5 -16q37 0 57.5 37.5t20.5 91.5v762z" />
    <glyph glyph-name="c" unicode="c" horiz-adv-x="789" 
d="M423 1184v-969q0 -35 20.5 -62.5t57.5 -27.5q50 0 77.5 61.5t27.5 159.5l-1 28q0 53 19.5 63t66.5 10q41 0 56 -15t15 -63q0 -155 -81 -269.5t-230 -114.5q-175 0 -287 176t-112 499q0 242 57 402.5t138.5 239t203.5 78.5q145 0 229.5 -96.5t84.5 -223.5q0 -66 -28 -112
t-85 -46q-59 0 -90.5 44t-31.5 110q0 28 6 65q8 43 8 68q0 26 -19 44t-44 18q-24 0 -41 -21t-17 -46z" />
    <glyph glyph-name="d" unicode="d" horiz-adv-x="1003" 
d="M572 1275v175q0 44 -36 47q-19 1 -25 9.5t-6 34.5v39q0 23 6.5 28.5t30.5 5.5h319q27 0 34.5 -9t7.5 -41v-1390q0 -44 46 -59q24 -7 24 -31v-51q0 -33 -29 -33h-349q-17 0 -20.5 6.5t-3.5 53.5q0 9 1 27q-109 -101 -203 -101q-317 0 -317 647q0 460 84.5 603.5
t220.5 143.5q104 0 215 -105zM572 1162q-46 28 -75 28q-33 0 -53.5 -31.5t-20.5 -70.5v-826q0 -37 19 -62.5t48 -25.5q27 0 54.5 23.5t27.5 44.5v920z" />
    <glyph glyph-name="e" unicode="e" horiz-adv-x="917" 
d="M421 703v-409q0 -81 31.5 -127t80.5 -46q76 0 121.5 64.5t48.5 176.5q1 60 11.5 72t72.5 12q54 0 68.5 -11t14.5 -55q0 -154 -100 -274t-265 -120q-189 0 -321 171.5t-132 516.5t122 525.5t320 180.5q170 0 273 -152t103 -432v-93h-449zM556 828v331q0 94 -67 94
q-68 0 -68 -94v-331h135z" />
    <glyph glyph-name="f" unicode="f" horiz-adv-x="555" 
d="M111 1366v64q0 91 65 155.5t187 64.5q165 0 165 -115q0 -56 -31 -79t-60 -23q-32 0 -79 30q-46 28 -66 28q-23 0 -38 -18.5t-15 -38.5q0 -28 22 -48t42 -20h170q34 0 34 -34v-59q0 -27 -23 -40q-41 -24 -41 -87v-980q0 -21 34 -39q16 -9 19 -18.5t3 -41.5
q0 -48 -2.5 -57.5t-23.5 -9.5h-395q-26 0 -26 27v67q0 29 24 38q35 13 35 71v962q0 38 -36 64q-23 16 -23 44v59q0 34 26 34h33z" />
    <glyph glyph-name="g" unicode="g" 
d="M617 1366q33 33 33 52q0 27 -40 50q-54 32 -54 78q0 93 128 93q78 0 114 -32t36 -78q0 -88 -130 -207q221 -157 221 -429q0 -233 -127.5 -369t-294.5 -136q-52 0 -114 17q-34 8 -51 8q-32 0 -67.5 -24t-35.5 -52q0 -49 109 -49h273q146 0 239 -60t93 -193
q0 -282 -480 -282q-185 0 -297.5 37t-112.5 117q0 43 23 67.5t81 53.5l24 12q-137 60 -137 199q0 157 196 235q-185 146 -185 396q0 223 125.5 367.5t304.5 144.5q51 0 126 -16zM566 1115q0 130 -72 130q-36 0 -57 -41.5t-21 -88.5v-497q0 -41 20.5 -68.5t52.5 -27.5
q34 0 55.5 29.5t21.5 75.5v488zM318 5q-65 -26 -65 -64t46.5 -57t192.5 -19q252 0 252 88q0 50 -85 50h-277q-33 0 -64 2z" />
    <glyph glyph-name="h" unicode="h" horiz-adv-x="1003" 
d="M438 1238q153 142 269 142q86 0 150 -64t64 -169v-954q0 -37 21 -53q30 -23 30 -66q0 -48 -7 -61t-32 -13h-255q-33 0 -61 48t-28 114v931q0 26 -17.5 47.5t-41.5 21.5q-38 0 -92 -46v-923q0 -33 27 -59q27 -27 27 -46q0 -69 -4 -78.5t-39 -9.5h-362q-23 0 -31 9.5
t-8 44.5q0 43 4.5 54.5t24.5 26.5q29 21 29 58v1227q0 67 -43 75q-23 5 -23 27v71q0 21 25 21h336q37 0 37 -36v-340z" />
    <glyph glyph-name="i" unicode="i" horiz-adv-x="533" 
d="M327 1650q113 0 113 -76q0 -60 -75.5 -101.5t-171.5 -41.5q-124 0 -124 83q0 66 87 101t171 35zM47 1267v66q0 33 40 33h319q34 0 34 -33v-1150q0 -24 3 -31t18 -13q36 -14 36 -62q0 -55 -5 -66t-32 -11h-388q-14 2 -18 12.5t-4 55.5q0 54 26 63q32 11 32 40v997
q0 58 -43 70q-18 5 -18 29z" />
    <glyph glyph-name="j" unicode="j" horiz-adv-x="533" 
d="M310 1650q58 0 102 -22t44 -60q0 -53 -71.5 -94t-158.5 -41q-150 0 -150 93q0 50 72 87t162 37zM-19 -247v87q0 16 4.5 22t26.5 12q61 17 79 63t18 75v1144q0 59 -33 80q-20 14 -23.5 21t-3.5 28v59q2 22 29 22h323q39 0 39 -41v-1108q0 -146 -56 -252t-156.5 -160.5
t-246.5 -51.5z" />
    <glyph glyph-name="k" unicode="k" horiz-adv-x="1024" 
d="M437 439v-268q0 -27 26 -42q20 -11 20 -39v-53q0 -37 -38 -37h-362q-36 0 -36 45v47q0 17 29 39q24 19 26.5 27t2.5 25v1197q0 64 -39 92q-13 10 -14.5 18t-1.5 39q0 65 2.5 75t30.5 10h317q25 0 31 -7.5t6 -36.5v-867l184 421q18 40 18 54q0 33 -47 52q-21 8 -28 20
t-7 49q0 46 9 56.5t34 10.5h276q23 -3 23 -53q0 -45 -8.5 -61t-37.5 -31q-45 -22 -63 -59l-70 -148l213 -822q9 -37 42 -59q22 -14 22 -43v-53q0 -37 -41 -37h-269q-51 0 -66 66l-114 512z" />
    <glyph glyph-name="l" unicode="l" horiz-adv-x="533" 
d="M45 1532v50q0 32 42 32h309q25 0 33 -4t8 -34v-1397q0 -46 30 -57q21 -8 21 -34v-57q0 -31 -45 -31h-367q-31 0 -31 31v57q0 35 31 52q20 10 25 18.5t5 32.5v1239q0 35 -27 47q-34 17 -34 55z" />
    <glyph glyph-name="m" unicode="m" horiz-adv-x="1493" 
d="M915 1224q143 156 269 156q55 0 104.5 -23t80.5 -84.5t31 -134.5v-947q0 -26 22 -51q25 -28 25 -56v-48q0 -36 -33 -36h-285q-60 47 -60 146v942q0 69 -67 69q-42 0 -64.5 -21.5t-22.5 -53.5v-903q0 -28 30 -52q18 -15 18 -31v-60q0 -36 -34 -36h-291q-55 54 -55 146v942
q0 66 -54 66q-22 0 -76 -29q-5 -3 -15 -8v-938q0 -27 31 -51q20 -15 20 -38v-54q0 -36 -36 -36h-376q-27 0 -27 24v66q0 15 27 43q29 29 29 46v1010q0 40 -35 55q-21 9 -21 39v51q0 32 39 32h314q35 0 35 -32v-101q132 147 266 147q135 0 211 -156z" />
    <glyph glyph-name="n" unicode="n" horiz-adv-x="1003" 
d="M431 1230q119 150 272 150q105 0 160 -67.5t55 -169.5v-958q0 -32 25 -49q23 -14 23 -72q0 -46 -7.5 -55t-31.5 -9h-281q-60 51 -60 133v951q0 78 -64 78q-42 0 -91 -44v-933q0 -36 35 -56q21 -12 21 -44v-51q0 -34 -49 -34h-355q-26 0 -33 7.5t-7 37.5v37q0 29 18 41
q24 17 31 32t7 66v978q0 35 -34 51q-19 9 -19 32v53q0 31 28 31h326q21 0 26 -6t5 -25v-105z" />
    <glyph glyph-name="o" unicode="o" 
d="M490 1380q188 0 314 -168.5t126 -500.5q0 -358 -128 -541.5t-319 -183.5q-132 0 -229 84t-149.5 224t-52.5 383q0 347 120.5 525t317.5 178zM562 1129q0 124 -72 124q-78 0 -78 -152v-831q0 -151 71 -151q79 0 79 151v859z" />
    <glyph glyph-name="p" unicode="p" horiz-adv-x="1003" 
d="M432 1268q59 56 108 84t116 28q154 0 225.5 -159.5t71.5 -510.5q0 -228 -23 -375t-103 -241t-184 -94q-125 0 -211 138v-223q0 -34 38 -47q37 -13 37 -49v-36q0 -21 -5 -25.5t-27 -4.5h-385q-40 0 -40 20v37q0 37 34 57q17 10 17 32v1294q0 37 -26 56q-18 13 -21.5 20
t-3.5 29v31q0 27 5.5 32t29.5 5h305q29 0 35.5 -7t6.5 -36v-55zM586 1079q0 62 -25 92.5t-55 30.5q-22 0 -48 -26t-26 -59v-840q0 -27 28 -57t65 -30q61 0 61 95v794z" />
    <glyph glyph-name="q" unicode="q" horiz-adv-x="1003" 
d="M571 111q-115 -111 -211 -111q-154 0 -231 151t-77 550q0 251 38.5 390.5t135.5 214t214 74.5q164 0 265 -139q33 22 74 86q27 42 40.5 47.5t66.5 5.5q15 0 17 -9v-1438q0 -30 6.5 -40t28.5 -26q25 -18 25 -38v-51q0 -15 -5.5 -20t-27.5 -5h-403q-21 0 -25 5.5t-4 25.5
v36q0 24 5 33t26 16q42 13 42 64v178zM571 1112q0 110 -76 110q-36 0 -55 -34.5t-19 -75.5v-807q0 -55 22 -87t54 -32q25 0 49.5 26t24.5 71v829z" />
    <glyph glyph-name="r" unicode="r" horiz-adv-x="725" 
d="M401 1100q12 24 29 84q38 130 74.5 163t80.5 33q60 0 90.5 -57t30.5 -143q0 -185 -104 -185q-52 0 -80 61q-17 35 -35 35q-45 0 -45 -99v-799q0 -38 35 -56q35 -17 35 -55v-45q0 -24 -5.5 -30.5t-31.5 -6.5h-377q-39 0 -39 37v55q0 28 17 37q34 17 34 52v1007
q0 34 -24 49q-26 15 -30 23.5t-4 51.5q0 36 10.5 45t35.5 9h270q19 0 26 -10.5t7 -50.5v-205z" />
    <glyph glyph-name="s" unicode="s" horiz-adv-x="683" 
d="M572 1343l55 -277q2 -13 2 -23q0 -28 -54 -28q-36 0 -52.5 9t-37.5 48q-24 46 -73 109t-88 63q-15 0 -26.5 -14t-11.5 -33q0 -51 146 -289q126 -207 171 -325t45 -266q0 -157 -68 -244.5t-160 -87.5q-58 0 -122 42q-35 23 -47 23q-14 0 -16 -23q-4 -27 -12 -34.5
t-52 -7.5q-34 0 -44 10t-14 35l-50 279q-3 20 -3 25q0 28 67 28q35 0 48.5 -9t34.5 -52q78 -163 148 -163q45 0 45 54q0 48 -33.5 119t-130.5 233q-102 172 -147.5 288t-45.5 233q0 159 68 237t165 78q51 0 116 -35q33 -18 45 -18q16 0 19 21q4 22 16 27t51 5
q25 0 32.5 -5.5t13.5 -31.5z" />
    <glyph glyph-name="t" unicode="t" horiz-adv-x="555" 
d="M96 1229h-39q-17 0 -21.5 4t-4.5 22v72q0 20 4.5 26t26.5 9q72 11 145 80t87 148q5 28 12.5 34.5t30.5 6.5h65q26 0 26 -35v-230h62q35 0 35 -33v-72q0 -32 -35 -32h-62v-1036q0 -53 47 -76q23 -11 30 -27t7 -58q0 -26 -3.5 -29t-24.5 -3h-316q-72 64 -72 193v1036z" />
    <glyph glyph-name="u" unicode="u" horiz-adv-x="1003" 
d="M96 1213q-13 6 -20 9q-25 11 -31.5 21.5t-6.5 43.5q0 18 -1 30q0 30 8.5 39.5t37.5 9.5h311q23 0 28 -7t5 -34v-985q0 -129 71 -129q54 0 82 46v925q0 36 -35 56q-17 10 -20.5 21.5t-3.5 77.5q0 29 34 29h327q21 0 25.5 -6t4.5 -32v-1146q0 -33 27 -46q33 -18 33 -60
q0 -60 -4.5 -68t-31.5 -8h-304q-29 0 -40 10.5t-11 45.5v25q0 40 -1 45q-159 -140 -269 -140q-95 0 -155 63t-60 243v921z" />
    <glyph glyph-name="v" unicode="v" horiz-adv-x="853" 
d="M519 600l112 549q3 17 3 33q0 42 -33 63q-20 12 -20 44v54q0 23 23 23h192q23 0 28.5 -5.5t5.5 -29.5v-48q0 -20 -1.5 -25t-24.5 -20q-32 -22 -45 -89l-209 -1058q-17 -89 -21.5 -97t-27.5 -8h-172q-14 2 -30 80l-220 1106q-10 48 -32 66q-27 23 -27 41q0 69 6 78t37 9
h351q29 0 38.5 -12.5t9.5 -60.5q0 -28 -4.5 -36t-26.5 -20q-27 -15 -27 -42q0 -19 6 -46z" />
    <glyph glyph-name="w" unicode="w" horiz-adv-x="1323" 
d="M520 576l70 381l-47 228q-7 37 -33 54q-25 17 -25 38v53q0 36 35 36h365q33 0 39 -9.5t6 -26.5v-53q0 -30 -31 -40q-32 -10 -32 -30q0 -5 4 -27l113 -587l105 578q2 9 2 18q0 31 -30 52q-31 22 -31 65q0 51 4 55.5t32 4.5h182q25 0 32.5 -6.5t7.5 -29.5v-43
q0 -28 -23 -44q-34 -24 -41 -58l-206 -1128q-11 -56 -16.5 -63.5t-29.5 -7.5h-156q-30 0 -38 8t-16 51l-109 580l-110 -568q0 -1 -3 -20q-6 -41 -12 -46t-38 -5h-149q-31 0 -35.5 11t-32.5 166l-198 1022q-6 33 -36 59q-15 13 -15 33v47q0 25 7 33.5t31 8.5h335
q28 0 36 -8.5t8 -33.5v-49q0 -20 -22 -35q-20 -14 -20 -31q0 -11 6 -41z" />
    <glyph glyph-name="x" unicode="x" horiz-adv-x="875" 
d="M510 979l60 131q1 2 10 19q38 71 38 97q0 14 -24 27q-13 7 -17 17t-4 56q0 29 5 34.5t31 5.5h195q15 -2 18 -10.5t3 -46.5q0 -43 -2.5 -50t-21.5 -15q-23 -11 -38 -42l-193 -397l209 -633q7 -20 34 -44q21 -18 21 -43v-52q0 -23 -5.5 -28t-31.5 -5h-359q-26 0 -34.5 8.5
t-8.5 44.5q0 40 5.5 53t27.5 24q18 8 18 24q0 11 -5 25l-75 212l-68 -131q-43 -82 -43 -106q0 -21 25 -29q22 -9 22 -35l1 -32q0 -44 -4.5 -51t-27.5 -7h-194q-19 0 -23.5 5t-4.5 28v61q2 15 21 27q35 20 50 51l188 394l-204 618q-11 34 -38 53q-16 12 -22 21t-6 75
q0 22 6 27.5t27 5.5h369q25 0 30 -5t5 -33v-37q0 -27 -18 -40q-24 -17 -24 -43q0 -6 2 -12z" />
    <glyph glyph-name="y" unicode="y" horiz-adv-x="853" 
d="M524 598l101 527q3 12 4 18q7 30 7 39q0 26 -36 54q-17 13 -21 30t-4 68q0 32 28 32h172q29 0 39.5 -12t10.5 -63q0 -30 -3.5 -35t-22.5 -19q-28 -19 -41 -88l-167 -880q-44 -230 -65.5 -295.5t-67 -117t-107 -77.5t-142.5 -26q-88 0 -135.5 41.5t-47.5 108.5q0 49 32 78
t79 29q70 0 99 -82q14 -40 41 -40q51 0 51 53q0 17 -20 112l-214 1037q-15 75 -25.5 103.5t-29.5 37.5q-18 9 -18 37v56q0 28 8 35t31 7h352q28 0 37 -6.5t9 -29.5q0 -49 -4 -64t-23 -23q-30 -12 -30 -50q0 -22 7 -57z" />
    <glyph glyph-name="z" unicode="z" horiz-adv-x="747" 
d="M406 130h38q51 0 70 22t43 107q17 63 32 85.5t86 22.5q31 0 31 -22q0 -6 -8 -60l-33 -216q-9 -60 -12.5 -64.5t-37.5 -4.5h-526l-29 -1q-13 0 -13 9q0 4 1 9l7 26l291 1190h-49q-30 0 -46.5 -18.5t-44.5 -101.5q-27 -82 -45 -99t-69 -17q-40 0 -40 22q0 7 2 21l44 281
q5 33 13.5 39t39.5 6h543q14 -1 14 -12q0 -5 -7 -31l-3 -15z" />
    <glyph glyph-name="braceleft" unicode="{" horiz-adv-x="797" 
d="M64 560v240q91 4 137 39t64 105t18 231q0 170 16.5 246t62.5 124.5t123.5 72t209.5 23.5h53v-240q-134 0 -169 -27t-35 -118q0 -279 -34 -391.5t-154 -184.5q92 -50 139.5 -149.5t47.5 -427.5q0 -78 23 -101t48.5 -33.5t133.5 -10.5v-239h-53q-202 0 -274 49.5
t-105 114.5t-33 301q0 160 -17 229t-63.5 105.5t-138.5 41.5z" />
    <glyph glyph-name="bar" unicode="|" horiz-adv-x="798" 
d="M291 1641h217v-1898h-217v1898z" />
    <glyph glyph-name="braceright" unicode="}" horiz-adv-x="797" 
d="M733 560q-91 -5 -137 -40t-64 -105t-18 -231q0 -233 -33.5 -303t-111 -116t-267.5 -46h-53v239q126 0 165.5 28.5t39.5 116.5q0 287 37 399.5t150 177.5q-123 73 -155.5 189t-32.5 387q0 94 -37 119.5t-167 25.5v240h53q174 0 262 -44.5t119 -130t31 -291.5
q0 -159 17 -228.5t63.5 -106t138.5 -40.5v-240z" />
    <glyph glyph-name="asciitilde" unicode="~" horiz-adv-x="1365" 
d="M1238 753q-167 -139 -301 -139q-65 0 -122 17.5t-186 80.5t-198 63q-144 0 -303 -147v223q159 137 317 137q96 0 270 -84q157 -76 230 -76q131 0 293 148v-223z" />
    <glyph glyph-name="nonbreakingspace" unicode="&#xa0;" horiz-adv-x="501" 
 />
    <glyph glyph-name="exclamdown" unicode="&#xa1;" horiz-adv-x="533" 
d="M279 995q-76 0 -124 58.5t-48 142.5q0 79 49 144t123 65q68 0 113.5 -57t45.5 -142q0 -84 -42.5 -147.5t-116.5 -63.5zM236 882h66q19 0 23.5 -6t4.5 -43q0 -55 68 -511q52 -360 52 -390q0 -76 -51 -127.5t-137 -51.5q-83 0 -130.5 54.5t-47.5 133.5q0 52 74 527
q48 311 48 358q1 43 5.5 49.5t24.5 6.5z" />
    <glyph glyph-name="cent" unicode="&#xa2;" horiz-adv-x="789" 
d="M405 1468h132v-96q100 -24 163 -114.5t63 -195.5q0 -70 -29 -114.5t-83 -44.5t-88.5 44t-34.5 109q0 31 8 73q6 35 6 55q0 25 -17.5 45.5t-44.5 20.5q-56 0 -56 -88v-949q0 -33 22.5 -60.5t55.5 -27.5q105 0 105 241q0 49 15 65t71 16q41 0 55.5 -15.5t14.5 -72.5
q0 -272 -228 -360v-128h-134v119q-180 47 -264.5 228.5t-84.5 438.5q0 152 24.5 286.5t79 236t116 146t133.5 52.5v90z" />
    <glyph glyph-name="sterling" unicode="&#xa3;" horiz-adv-x="1067" 
d="M165 862q-61 149 -61 287q0 201 124 336.5t353 135.5q136 0 220 -35t146 -117.5t62 -187.5q0 -88 -43 -145t-112 -57q-68 0 -113.5 48.5t-45.5 155.5v22q5 73 5 79q0 39 -26 75t-71 36q-118 0 -118 -205q0 -146 55 -428h225q33 0 33 -35v-113q0 -23 -6 -29.5t-33 -6.5
h-196q4 -45 4 -69q0 -123 -47 -260q143 -29 252 -29q113 0 125 77q5 29 11.5 32.5t53.5 4.5q11 0 20 1h12q43 0 43 -69q0 -116 -37 -201.5t-103 -133.5t-144 -48q-51 0 -104.5 19t-146.5 99q-35 31 -55 46q-101 -164 -227 -164q-81 0 -128.5 53t-47.5 143q0 105 63 156
t156 51q33 0 86 -8q-4 142 -97 300h-173q-25 0 -30 7t-5 32v106q0 24 6.5 31.5t28.5 7.5h86z" />
    <glyph glyph-name="currency" unicode="&#xa4;" horiz-adv-x="1365" 
d="M936 1196l132 133l140 -143l-131 -132q73 -117 73 -252q0 -133 -73 -251l131 -130l-140 -142l-132 130q-119 -74 -253 -74q-137 0 -252 74l-130 -130l-143 142l131 130q-73 116 -73 251q0 132 74 252l-132 132l140 143l133 -133q120 73 252 73q133 0 253 -73zM951 802
q0 111 -78.5 189.5t-189.5 78.5t-189 -78.5t-78 -189.5t78 -189t189 -78q110 0 189 78.5t79 188.5z" />
    <glyph glyph-name="yen" unicode="&#xa5;" 
d="M683 623v-175h278v-130h-278v-119q0 -40 51 -58q22 -8 30.5 -16.5t8.5 -70.5q0 -38 -8 -46t-32 -8h-474q-35 0 -35 31v59q0 37 46 52q24 8 32 19.5t8 43.5v113h-279v130h279v176h-279v130h263l-185 654q-15 53 -56 70q-22 10 -22 33v76q0 27 29 27h424q18 0 24 -10t6 -53
t-3.5 -54.5t-19.5 -20.5q-23 -15 -23 -38q0 -13 5 -30l131 -446l135 446q1 6 1 19q0 32 -39 66q-18 16 -18 29v59q0 33 29 33h219q30 0 30 -33v-63q0 -17 -22 -33q-38 -27 -53 -77l-194 -654h269v-131h-278z" />
    <glyph glyph-name="brokenbar" unicode="&#xa6;" horiz-adv-x="798" 
d="M291 1641h217v-731h-217v731zM291 474h217v-731h-217v731z" />
    <glyph glyph-name="section" unicode="&#xa7;" 
d="M222 1089q-96 111 -96 237q0 134 96 222.5t276 88.5q189 0 296 -76t107 -204q0 -62 -38.5 -98t-86.5 -36q-63 0 -96.5 47.5t-34.5 135.5q0 58 -27.5 90t-99.5 32q-61 0 -97 -28t-36 -69q0 -45 46.5 -100t199.5 -167q116 -85 179 -147.5t98.5 -144t35.5 -182.5
q0 -117 -51.5 -211t-135.5 -131q101 -119 101 -244q0 -138 -98.5 -244.5t-300.5 -106.5q-192 0 -288 84.5t-96 188.5q0 51 37.5 92.5t92.5 41.5q115 0 124 -144q6 -90 40.5 -118.5t88.5 -28.5q66 0 100.5 29.5t34.5 75.5q0 50 -38.5 103t-160.5 149q-205 162 -281 260
t-76 235q0 226 185 368zM321 998q-70 -37 -70 -111q0 -57 41.5 -114t202.5 -188q117 -95 184 -160q66 60 66 124q0 98 -132.5 210.5t-291.5 238.5z" />
    <glyph glyph-name="dieresis" unicode="&#xa8;" horiz-adv-x="683" 
d="M123 1696q74 0 119 -27.5t45 -77.5q0 -47 -46.5 -73t-117.5 -26q-73 0 -119 28t-46 79q0 97 165 97zM551 1693q174 0 174 -104q0 -95 -156 -95q-176 0 -176 101q0 98 158 98z" />
    <glyph glyph-name="copyright" unicode="&#xa9;" horiz-adv-x="1530" 
d="M765 1641q184 0 350 -92t263 -259.5t97 -358.5q0 -292 -208.5 -500.5t-501.5 -208.5q-294 0 -501.5 208t-207.5 501q0 295 208.5 502.5t500.5 207.5zM765 1551q-155 0 -302 -79t-232.5 -227t-85.5 -314q0 -255 182.5 -437.5t437.5 -182.5q257 0 438.5 182t181.5 438
q0 257 -182 438.5t-438 181.5zM1100 1359v-264h-38q-17 101 -86.5 158.5t-159.5 57.5q-117 0 -187.5 -91t-70.5 -273q0 -203 73 -288.5t180 -85.5q148 0 261 138v-70q-121 -127 -318 -127q-180 0 -300.5 110.5t-120.5 297.5q0 193 127 316t313 123q86 0 197 -41
q32 -11 46 -11q39 0 46 50h38z" />
    <glyph glyph-name="ordfeminine" unicode="&#xaa;" horiz-adv-x="576" 
d="M342 1400v102q0 57 -43 57q-48 0 -48 -81q0 -86 -115 -86q-77 0 -77 78q0 80 66.5 125t175.5 45q115 0 176.5 -53.5t61.5 -136.5v-499q0 -29 13 -39q13 -12 13 -31q0 -54 -90 -54q-108 0 -132 80q-77 -80 -149 -80q-156 0 -156 245q0 130 39 183.5t172 104.5q59 23 93 40
zM340 1325q-67 -29 -79 -67t-12 -195q0 -114 46 -114q45 0 45 88v288z" />
    <glyph glyph-name="guillemotleft" unicode="&#xab;" 
d="M273 1322h214l-172 -626l172 -630h-214l-286 630zM742 1322h215l-172 -626l172 -630h-215l-289 630z" />
    <glyph glyph-name="logicalnot" unicode="&#xac;" horiz-adv-x="1365" 
d="M125 1153h1114v-702h-214v487h-900v215z" />
    <glyph glyph-name="sfthyphen" unicode="&#xad;" horiz-adv-x="1217" 
d="M231 827h922l-131 -245h-924z" />
    <glyph glyph-name="registered" unicode="&#xae;" horiz-adv-x="1530" 
d="M765 1641q184 0 350 -92t263 -259.5t97 -358.5q0 -292 -208.5 -500.5t-501.5 -208.5q-294 0 -501.5 208t-207.5 501q0 295 208.5 502.5t500.5 207.5zM765 1551q-155 0 -302 -79t-232.5 -227t-85.5 -314q0 -255 182.5 -437.5t437.5 -182.5q257 0 438.5 182t181.5 438
q0 257 -182 438.5t-438 181.5zM386 1344h362q135 0 201 -20t110 -75t44 -125q0 -157 -179 -207l137 -249q52 -96 105 -100v-33h-242l-205 368h-46v-199q0 -84 22.5 -108.5t97.5 -27.5v-33h-423v33q57 0 81 22t24 114v472q0 82 -17.5 105t-71.5 28v35zM673 953q34 -4 56 -4
q64 0 111.5 48t47.5 131q0 172 -177 172h-38v-347z" />
    <glyph glyph-name="macron" unicode="&#xaf;" horiz-adv-x="1024" 
d="M-12 1870h1048v-102h-1048v102z" />
    <glyph glyph-name="degree" unicode="&#xb0;" horiz-adv-x="819" 
d="M90 1302q0 128 91 223.5t228 95.5q132 0 225.5 -93.5t93.5 -225.5q0 -131 -94 -225t-225 -94t-225 93.5t-94 225.5zM256 1302q0 -61 44 -106.5t109 -45.5q63 0 108 44.5t45 107.5q0 64 -45 108.5t-108 44.5t-108 -45t-45 -108z" />
    <glyph glyph-name="plusminus" unicode="&#xb1;" horiz-adv-x="1365" 
d="M125 1023h449v450h215v-450h451v-215h-451v-449h-215v449h-449v215zM125 215h1115v-215h-1115v215z" />
    <glyph glyph-name="twosuperior" unicode="&#xb2;" horiz-adv-x="725" 
d="M207 995h316q56 0 73 55q10 32 31 32h35q27 0 27 -13q0 -9 -6 -37l-33 -167q-6 -33 -12.5 -39.5t-35.5 -6.5h-533v137q0 12 5 18t49 43l208 191q52 49 71.5 102.5t19.5 113.5q0 71 -20.5 103t-72.5 32q-81 0 -81 -72q0 -4 2 -27q2 -22 2 -24q0 -29 -22 -53t-63 -24
q-84 0 -84 93q0 83 83 138t224 55q134 0 211.5 -62.5t77.5 -168.5q0 -80 -54.5 -153t-271.5 -182q-107 -53 -146 -84z" />
    <glyph glyph-name="threesuperior" unicode="&#xb3;" horiz-adv-x="725" 
d="M445 1251q224 -32 224 -207q0 -107 -87 -170.5t-231 -63.5q-123 0 -198.5 44.5t-75.5 126.5q0 43 24.5 72.5t65.5 29.5q36 0 56.5 -24t20.5 -47q0 -2 -2 -24q-3 -21 -3 -24q0 -26 21.5 -47t59.5 -21q90 0 90 154q0 88 -31.5 123.5t-116.5 35.5q-14 0 -43 -2q-28 0 -28 28
q0 38 3 46t18 8q1 0 19 -1q23 -1 29 -1q83 0 115.5 29t32.5 92q0 80 -15.5 110.5t-64.5 30.5q-87 0 -87 -57q0 -9 4 -25q5 -20 5 -33q0 -24 -18.5 -45t-55.5 -21q-39 0 -63.5 26t-24.5 68q0 83 79 133t210 50q111 0 189.5 -52.5t78.5 -144.5q0 -139 -200 -197z" />
    <glyph glyph-name="acute" unicode="&#xb4;" horiz-adv-x="683" 
d="M208 1492l116 179q30 46 52.5 54t131.5 8q89 0 107 -5t18 -21q0 -22 -27 -37l-320 -178h-78z" />
    <glyph glyph-name="mu" unicode="&#xb5;" horiz-adv-x="1180" 
d="M152 935h278v-694q1 -90 28 -111t56 -21q95 0 166 121v705h277v-625l1 -53q0 -90 24.5 -112t43.5 -22q62 0 76 144h43q-1 -146 -80 -220.5t-178 -74.5q-157 0 -200 157q-136 -157 -291 -157q-70 0 -149 56q0 -92 35 -219q24 -84 24 -117q0 -61 -32 -97t-86 -36
q-109 0 -109 117q0 44 24 138q32 125 40.5 198t8.5 247v676z" />
    <glyph glyph-name="paragraph" unicode="&#xb6;" horiz-adv-x="1139" 
d="M639 -255h-243v1047q-194 14 -294 125t-100 280q0 110 43 199.5t113 138t142 64t236 15.5h597v-260h-113v-1609h-237v1609h-144v-1609z" />
    <glyph glyph-name="cedilla" unicode="&#xb8;" horiz-adv-x="683" 
d="M347 -25q56 0 86.5 -30t30.5 -76q0 -58 -52 -96.5t-135 -38.5q-57 0 -57 26q0 20 36 27q62 10 62 50q0 16 -25 32q-30 18 -30 44q0 62 84 62z" />
    <glyph glyph-name="onesuperior" unicode="&#xb9;" horiz-adv-x="725" 
d="M250 1396q-58 -8 -66 -8q-22 0 -25.5 5t-3.5 26v22q0 19 5 26t32 16q75 23 168 110q43 39 52.5 45.5t26.5 6.5h31q17 0 20.5 -4t3.5 -20v-680q0 -27 19 -40q27 -19 27 -33v-25q0 -17 -5 -20.5t-25 -3.5h-281q-28 0 -28 24v25q0 15 26 30q17 10 20 15t3 28v455z" />
    <glyph glyph-name="ordmasculine" unicode="&#xba;" horiz-adv-x="576" 
d="M285 1640q116 0 187.5 -102t71.5 -291q0 -211 -77.5 -316.5t-186.5 -105.5q-116 0 -182.5 110t-66.5 286q0 214 71.5 316.5t182.5 102.5zM330 1496q0 71 -43 71q-46 0 -46 -93v-476q0 -95 42 -95q47 0 47 89v504z" />
    <glyph glyph-name="guillemotright" unicode="&#xbb;" 
d="M708 66h-214l172 626l-172 630h214l286 -630zM239 66h-215l172 626l-172 630h215l289 -630z" />
    <glyph glyph-name="onequarter" unicode="&#xbc;" horiz-adv-x="1536" 
d="M998 1645h181l-636 -1701h-181zM250 1394q-58 -6 -64 -6q-29 0 -29 15v57q0 12 37 24q60 21 117.5 64.5t78.5 70.5q19 24 49 24h49l6 -4v-715q0 -10 20 -26q26 -21 26 -37v-34l-8 -6h-324l-8 6v41q0 17 26 31q24 12 24 26v469zM846 270l403 482q26 30 60 30h86v-523h84
l6 -7v-90l-3 -9h-89v-82q0 -12 23 -31q25 -20 25 -36v-37l-5 -9h-308l-1 1q-3 11 -3 26q0 32 17 50q23 23 23 51v67h-305l-13 7v110zM1167 515l-214 -257h214v257z" />
    <glyph glyph-name="onehalf" unicode="&#xbd;" horiz-adv-x="1536" 
d="M993 1648h182l-626 -1704h-181zM248 1396q-5 -1 -18 -3q-37 -5 -47 -5q-30 0 -30 13v58q0 10 36 24q96 35 196 134q27 28 52 28h49l6 -6v-714q0 -8 19 -23q27 -22 27 -40v-37l-12 -6h-318l-9 5v44q0 17 26 29q23 11 23 25v474zM1106 329q69 70 87.5 119t18.5 115
q0 133 -92 133q-79 0 -79 -80v-21q1 -14 1 -18q0 -34 -22.5 -57.5t-61.5 -23.5q-84 0 -84 93q0 84 82.5 139.5t223.5 55.5q140 0 215 -65t75 -166q0 -77 -53.5 -151.5t-272.5 -184.5q-107 -54 -146 -84h315q65 0 77 67q3 13 12 15.5t43 2.5q8 0 14 1q21 0 21 -13
q0 -5 -4 -26l-43 -217h-573v146q88 74 246 220z" />
    <glyph glyph-name="threequarters" unicode="&#xbe;" horiz-adv-x="1536" 
d="M996 1646h181l-631 -1702h-179zM186 1288h92q69 0 95.5 32.5t26.5 101.5q0 126 -79 126q-38 0 -63 -18.5t-25 -39.5q0 -6 4 -19q7 -20 7 -36q0 -70 -76 -70q-40 0 -61.5 29t-21.5 68q0 80 73.5 130t207.5 50q119 0 194.5 -53.5t75.5 -144.5q0 -137 -202 -191
q225 -32 225 -211q0 -116 -91.5 -175.5t-222.5 -59.5q-130 0 -200.5 49.5t-70.5 124.5q0 39 23 69.5t68 30.5q75 0 75 -82q0 -54 14.5 -78.5t58.5 -24.5q94 0 94 149q0 94 -35 128t-84 34h-102v81zM848 269l404 482q26 31 60 31h86v-524h84l6 -6v-90l-3 -8h-89v-81
q0 -11 21 -28q28 -24 28 -46v-30l-4 -11h-311q-5 8 -5 30q0 33 14 44q3 3 5 4q2 3 7 7q14 12 15 43v67h-306l-12 7v109zM1168 515l-214 -257h214v257z" />
    <glyph glyph-name="questiondown" unicode="&#xbf;" horiz-adv-x="853" 
d="M447 997q-74 0 -122.5 58t-48.5 143q0 81 50 145t121 64q69 0 114.5 -57t45.5 -142q0 -83 -43 -147t-117 -64zM414 884h69q24 0 32.5 -11t8.5 -67q0 -187 -52 -322q-33 -86 -47 -132.5t-14 -150.5v-156q0 -89 15 -123t58 -34q36 0 57.5 30t21.5 74q0 22 -9 75
q-5 36 -5 56q0 123 133 123t133 -159q0 -144 -99 -239t-270 -95q-177 0 -291.5 110.5t-114.5 276.5q0 85 32 163t162 203q86 83 105.5 127.5t22.5 133.5q3 87 11.5 102t40.5 15z" />
    <glyph glyph-name="Agrave" unicode="&#xc0;" 
d="M508 345h-250l-11 -92q0 -3 -2 -9q-8 -29 -8 -52q0 -36 47 -61q25 -13 31 -27t6 -46q0 -41 -4.5 -49.5t-21.5 -8.5h-264q-22 0 -22 46q0 55 35 89q33 31 38 66l185 1177q5 27 5 47q0 31 -43 55q-20 12 -20 53q0 55 6 68t32 13h382q35 0 49 -33t28 -144q6 -43 12 -85
l164 -1099q12 -80 59 -122q13 -11 17 -17.5t4 -39.5q0 -51 -7 -62.5t-30 -11.5h-445q-20 0 -20 38q0 48 5 60t29 28q35 22 35 56q0 35 -21 163zM388 1237l-111 -777h220zM592 1716l-287 164q-55 31 -55 53q0 25 94 25q15 0 31 -1h47q62 0 82.5 -6.5t40.5 -38.5l131 -196h-84
z" />
    <glyph glyph-name="Aacute" unicode="&#xc1;" 
d="M508 345h-250l-11 -92q0 -3 -2 -9q-8 -29 -8 -52q0 -36 47 -61q25 -13 31 -27t6 -46q0 -41 -4.5 -49.5t-21.5 -8.5h-264q-22 0 -22 46q0 55 35 89q33 31 38 66l185 1177q5 27 5 47q0 31 -43 55q-20 12 -20 53q0 55 6 68t32 13h382q35 0 49 -33t28 -144q6 -43 12 -85
l164 -1099q12 -80 59 -122q13 -11 17 -17.5t4 -39.5q0 -51 -7 -62.5t-30 -11.5h-445q-20 0 -20 38q0 48 5 60t29 28q35 22 35 56q0 35 -21 163zM388 1237l-111 -777h220zM350 1716l116 179q30 46 52.5 54t131.5 8q89 0 107 -5t18 -21q0 -22 -27 -37l-320 -178h-78z" />
    <glyph glyph-name="Acircumflex" unicode="&#xc2;" 
d="M508 345h-250l-11 -92q0 -3 -2 -9q-8 -29 -8 -52q0 -36 47 -61q25 -13 31 -27t6 -46q0 -41 -4.5 -49.5t-21.5 -8.5h-264q-22 0 -22 46q0 55 35 89q33 31 38 66l185 1177q5 27 5 47q0 31 -43 55q-20 12 -20 53q0 55 6 68t32 13h382q35 0 49 -33t28 -144q6 -43 12 -85
l164 -1099q12 -80 59 -122q13 -11 17 -17.5t4 -39.5q0 -51 -7 -62.5t-30 -11.5h-445q-20 0 -20 38q0 48 5 60t29 28q35 22 35 56q0 35 -21 163zM388 1237l-111 -777h220zM324 1962h329l156 -186q28 -41 28 -47q0 -13 -24 -13h-50l-271 149l-278 -149h-50q-18 0 -18 16
q0 14 14 31z" />
    <glyph glyph-name="Atilde" unicode="&#xc3;" 
d="M508 345h-250l-11 -92q0 -3 -2 -9q-8 -29 -8 -52q0 -36 47 -61q25 -13 31 -27t6 -46q0 -41 -4.5 -49.5t-21.5 -8.5h-264q-22 0 -22 46q0 55 35 89q33 31 38 66l185 1177q5 27 5 47q0 31 -43 55q-20 12 -20 53q0 55 6 68t32 13h382q35 0 49 -33t28 -144q6 -43 12 -85
l164 -1099q12 -80 59 -122q13 -11 17 -17.5t4 -39.5q0 -51 -7 -62.5t-30 -11.5h-445q-20 0 -20 38q0 48 5 60t29 28q35 22 35 56q0 35 -21 163zM388 1237l-111 -777h220zM165 1721q0 113 56 184t126 71q63 0 177 -63q84 -46 120 -46q39 0 55.5 22t30.5 82h60
q-9 -127 -64 -191.5t-127 -64.5q-57 0 -170 62q-91 50 -127 50q-28 0 -49.5 -19t-32.5 -87h-55z" />
    <glyph glyph-name="Adieresis" unicode="&#xc4;" 
d="M508 345h-250l-11 -92q0 -3 -2 -9q-8 -29 -8 -52q0 -36 47 -61q25 -13 31 -27t6 -46q0 -41 -4.5 -49.5t-21.5 -8.5h-264q-22 0 -22 46q0 55 35 89q33 31 38 66l185 1177q5 27 5 47q0 31 -43 55q-20 12 -20 53q0 55 6 68t32 13h382q35 0 49 -33t28 -144q6 -43 12 -85
l164 -1099q12 -80 59 -122q13 -11 17 -17.5t4 -39.5q0 -51 -7 -62.5t-30 -11.5h-445q-20 0 -20 38q0 48 5 60t29 28q35 22 35 56q0 35 -21 163zM388 1237l-111 -777h220zM260 1920q74 0 119 -27.5t45 -77.5q0 -47 -46.5 -73t-117.5 -26q-73 0 -119 28t-46 79q0 97 165 97z
M688 1917q174 0 174 -104q0 -95 -156 -95q-176 0 -176 101q0 98 158 98z" />
    <glyph glyph-name="Aring" unicode="&#xc5;" 
d="M290 1614q-27 47 -27 99q0 80 56.5 136.5t136.5 56.5q79 0 136 -56t57 -137q0 -48 -27 -99q36 0 52 -25.5t32 -151.5q6 -43 12 -85l164 -1099q12 -80 59 -122q13 -11 17 -17.5t4 -39.5q0 -51 -7 -62.5t-30 -11.5h-445q-20 0 -20 38q0 48 5 60t29 28q35 22 35 56
q0 35 -21 163h-250l-11 -92q0 -3 -2 -9q-8 -29 -8 -52q0 -36 47 -61q25 -13 31 -27t6 -46q0 -41 -4.5 -49.5t-21.5 -8.5h-264q-22 0 -22 46q0 55 35 89q33 31 38 66l185 1177q5 27 5 47q0 31 -43 55q-20 12 -20 53q0 55 6 68t32 13h43zM456 1812q-40 0 -69.5 -29t-29.5 -70
q0 -42 29.5 -70.5t69.5 -28.5q41 0 70 29t29 70t-29 70t-70 29zM388 1237l-111 -777h220z" />
    <glyph glyph-name="AE" unicode="&#xc6;" horiz-adv-x="1216" 
d="M845 1499v-575h59q31 0 47 22t29 81q9 36 20.5 47.5t38.5 11.5q5 0 10 -1l38 -1q17 -5 17 -16q0 -1 -1 -14v-366q0 -30 -8 -37t-40 -7q-42 0 -52.5 7t-18.5 39q-31 124 -74 124h-65v-707h25q65 0 86.5 23t39.5 91q33 125 51 147.5t59 22.5q46 0 56.5 -5.5t10.5 -22.5
q0 -6 -3 -24l-41 -293q-4 -30 -10.5 -38t-33.5 -8h-662q-31 0 -31 31v44q0 46 29 58q51 22 51 58v148h-192l-21 -94q-1 -8 -4 -16q-9 -31 -9 -50q0 -21 30 -40q34 -23 34 -44v-81q0 -14 -20 -14h-241q-22 0 -22 29q0 4 2 76q5 19 33 34q23 12 32.5 30t19.5 66l229 1139
q5 23 5 44q0 37 -29 59q-31 24 -31 104q0 23 5.5 28t22.5 5h769q19 0 27 -43l46 -258q4 -19 4 -31q0 -22 -45 -22q-55 0 -68.5 11.5t-40.5 84.5q-35 94 -57.5 118.5t-46.5 24.5h-59zM472 1338l-172 -884h172v884z" />
    <glyph glyph-name="Ccedilla" unicode="&#xc7;" horiz-adv-x="832" 
d="M520 -18q76 -23 76 -101q0 -64 -55.5 -99.5t-131.5 -35.5q-57 0 -57 26q0 20 36 27q62 10 62 50q0 16 -24 32q-31 18 -31 44q0 47 64 60q-190 25 -295 255t-105 589q0 285 57.5 455.5t147 263.5t208.5 93q72 0 125 -39q20 -14 30 -14q12 0 34 28q19 25 35 25h52
q18 0 27 -13.5t13 -72.5l23 -322q1 -10 1 -19q0 -35 -12 -49t-48 -14q-44 0 -61 23t-33 109q-41 218 -117 218q-63 0 -63 -157v-1125q0 -112 66 -112q84 0 94 187q3 54 21 75t74 21q42 0 58.5 -15.5t16.5 -60.5q0 -133 -78 -229.5t-210 -102.5z" />
    <glyph glyph-name="Egrave" unicode="&#xc8;" horiz-adv-x="853" 
d="M488 1491v-571h68q28 0 41 12t20 52q12 71 19.5 85t23.5 14q79 0 89.5 -6.5t10.5 -50.5v-333q0 -31 -10 -40.5t-62 -9.5q-34 0 -45.5 12.5t-22.5 70.5q-11 53 -21.5 65t-32.5 12h-78v-689h53q49 0 67.5 27.5t59.5 158.5q17 55 35 72t63 17q62 0 62 -40q0 -12 -4 -35
l-37 -227q-10 -62 -16.5 -74.5t-40.5 -12.5h-667q-25 0 -32 11.5t-7 66.5q0 35 36 51q55 23 55 63v1247q-1 19 -45 38q-30 13 -35.5 25t-5.5 58q0 39 6 46.5t35 7.5h638q24 0 35 -8t17 -38l51 -258q4 -20 4 -27q0 -27 -48 -27q-54 0 -72 12.5t-35 62.5q-31 90 -53.5 125
t-50.5 35h-68zM493 1716l-287 164q-55 31 -55 53q0 25 94 25q15 0 31 -1h47q62 0 82.5 -6.5t40.5 -38.5l131 -196h-84z" />
    <glyph glyph-name="Eacute" unicode="&#xc9;" horiz-adv-x="853" 
d="M488 1491v-571h68q28 0 41 12t20 52q12 71 19.5 85t23.5 14q79 0 89.5 -6.5t10.5 -50.5v-333q0 -31 -10 -40.5t-62 -9.5q-34 0 -45.5 12.5t-22.5 70.5q-11 53 -21.5 65t-32.5 12h-78v-689h53q49 0 67.5 27.5t59.5 158.5q17 55 35 72t63 17q62 0 62 -40q0 -12 -4 -35
l-37 -227q-10 -62 -16.5 -74.5t-40.5 -12.5h-667q-25 0 -32 11.5t-7 66.5q0 35 36 51q55 23 55 63v1247q-1 19 -45 38q-30 13 -35.5 25t-5.5 58q0 39 6 46.5t35 7.5h638q24 0 35 -8t17 -38l51 -258q4 -20 4 -27q0 -27 -48 -27q-54 0 -72 12.5t-35 62.5q-31 90 -53.5 125
t-50.5 35h-68zM285 1716l116 179q30 46 52.5 54t131.5 8q89 0 107 -5t18 -21q0 -22 -27 -37l-320 -178h-78z" />
    <glyph glyph-name="Ecircumflex" unicode="&#xca;" horiz-adv-x="853" 
d="M488 1491v-571h68q28 0 41 12t20 52q12 71 19.5 85t23.5 14q79 0 89.5 -6.5t10.5 -50.5v-333q0 -31 -10 -40.5t-62 -9.5q-34 0 -45.5 12.5t-22.5 70.5q-11 53 -21.5 65t-32.5 12h-78v-689h53q49 0 67.5 27.5t59.5 158.5q17 55 35 72t63 17q62 0 62 -40q0 -12 -4 -35
l-37 -227q-10 -62 -16.5 -74.5t-40.5 -12.5h-667q-25 0 -32 11.5t-7 66.5q0 35 36 51q55 23 55 63v1247q-1 19 -45 38q-30 13 -35.5 25t-5.5 58q0 39 6 46.5t35 7.5h638q24 0 35 -8t17 -38l51 -258q4 -20 4 -27q0 -27 -48 -27q-54 0 -72 12.5t-35 62.5q-31 90 -53.5 125
t-50.5 35h-68zM259 1962h329l156 -186q28 -41 28 -47q0 -13 -24 -13h-50l-271 149l-278 -149h-50q-18 0 -18 16q0 14 14 31z" />
    <glyph glyph-name="Edieresis" unicode="&#xcb;" horiz-adv-x="853" 
d="M488 1491v-571h68q28 0 41 12t20 52q12 71 19.5 85t23.5 14q79 0 89.5 -6.5t10.5 -50.5v-333q0 -31 -10 -40.5t-62 -9.5q-34 0 -45.5 12.5t-22.5 70.5q-11 53 -21.5 65t-32.5 12h-78v-689h53q49 0 67.5 27.5t59.5 158.5q17 55 35 72t63 17q62 0 62 -40q0 -12 -4 -35
l-37 -227q-10 -62 -16.5 -74.5t-40.5 -12.5h-667q-25 0 -32 11.5t-7 66.5q0 35 36 51q55 23 55 63v1247q-1 19 -45 38q-30 13 -35.5 25t-5.5 58q0 39 6 46.5t35 7.5h638q24 0 35 -8t17 -38l51 -258q4 -20 4 -27q0 -27 -48 -27q-54 0 -72 12.5t-35 62.5q-31 90 -53.5 125
t-50.5 35h-68zM206 1920q74 0 119 -27.5t45 -77.5q0 -47 -46.5 -73t-117.5 -26q-73 0 -119 28t-46 79q0 97 165 97zM634 1917q174 0 174 -104q0 -95 -156 -95q-176 0 -176 101q0 98 158 98z" />
    <glyph glyph-name="Igrave" unicode="&#xcc;" horiz-adv-x="598" 
d="M30 1530v53q0 31 33 31h479q27 0 35 -7t8 -42q0 -53 -5.5 -66t-24.5 -16q-62 -11 -62 -79v-1202q0 -38 45 -60q29 -14 35 -25t6 -38v-39q0 -32 -6 -36t-31 -4h-488q-28 0 -28 22q0 72 5 88t35 25q54 15 54 57v1187q0 42 -10 63.5t-44 35.5q-25 11 -30.5 19.5t-5.5 32.5z
M366 1716l-287 164q-55 31 -55 53q0 25 94 25q15 0 31 -1h47q62 0 82.5 -6.5t40.5 -38.5l131 -196h-84z" />
    <glyph glyph-name="Iacute" unicode="&#xcd;" horiz-adv-x="598" 
d="M30 1530v53q0 31 33 31h479q27 0 35 -7t8 -42q0 -53 -5.5 -66t-24.5 -16q-62 -11 -62 -79v-1202q0 -38 45 -60q29 -14 35 -25t6 -38v-39q0 -32 -6 -36t-31 -4h-488q-28 0 -28 22q0 72 5 88t35 25q54 15 54 57v1187q0 42 -10 63.5t-44 35.5q-25 11 -30.5 19.5t-5.5 32.5z
M157 1716l116 179q30 46 52.5 54t131.5 8q89 0 107 -5t18 -21q0 -22 -27 -37l-320 -178h-78z" />
    <glyph glyph-name="Icircumflex" unicode="&#xce;" horiz-adv-x="598" 
d="M30 1530v53q0 31 33 31h479q27 0 35 -7t8 -42q0 -53 -5.5 -66t-24.5 -16q-62 -11 -62 -79v-1202q0 -38 45 -60q29 -14 35 -25t6 -38v-39q0 -32 -6 -36t-31 -4h-488q-28 0 -28 22q0 72 5 88t35 25q54 15 54 57v1187q0 42 -10 63.5t-44 35.5q-25 11 -30.5 19.5t-5.5 32.5z
M137 1962h329l156 -186q28 -41 28 -47q0 -13 -24 -13h-50l-271 149l-278 -149h-50q-18 0 -18 16q0 14 14 31z" />
    <glyph glyph-name="Idieresis" unicode="&#xcf;" horiz-adv-x="598" 
d="M29 1530v53q0 31 33 31h479q27 0 35 -7t8 -42q0 -53 -5.5 -66t-24.5 -16q-62 -11 -62 -79v-1202q0 -38 45 -60q29 -14 35 -25t6 -38v-39q0 -32 -6 -36t-31 -4h-488q-28 0 -28 22q0 72 5 88t35 25q54 15 54 57v1187q0 42 -10 63.5t-44 35.5q-25 11 -30.5 19.5t-5.5 32.5z
M90 1920q74 0 119 -27.5t45 -77.5q0 -47 -46.5 -73t-117.5 -26q-73 0 -119 28t-46 79q0 97 165 97zM518 1917q174 0 174 -104q0 -95 -156 -95q-176 0 -176 101q0 98 158 98z" />
    <glyph glyph-name="Eth" unicode="&#xd0;" horiz-adv-x="1109" 
d="M106 786h-91v137h91v510q-3 20 -36 30q-25 8 -34.5 23.5t-9.5 66.5q0 37 13.5 49t66.5 12h479q103 0 201 -56.5t159.5 -164t88 -264t26.5 -332.5q0 -400 -130 -598.5t-345 -198.5h-528q-22 0 -30.5 10.5t-8.5 46.5q0 43 3 54t30 25q55 29 55 86v564zM479 786v-676h53
q56 0 81.5 46.5t25.5 165.5v1022q0 67 -32 109t-90 42h-38v-572h80v-137h-80z" />
    <glyph glyph-name="Ntilde" unicode="&#xd1;" horiz-adv-x="939" 
d="M278 915v-706q0 -44 50 -66q42 -19 42 -54q0 -73 -3.5 -81t-29.5 -8h-266q-20 0 -25 15.5t-5 76.5q0 28 27 39q52 23 52 52v1182q0 43 -8 64.5t-36 35.5q-25 12 -33.5 26t-8.5 53q0 70 37 70h278l336 -779v574q0 48 -49 68q-29 13 -37.5 29.5t-8.5 64.5q0 30 6 36.5
t23 6.5h276q23 -3 23 -66q0 -37 -4.5 -47t-20.5 -17q-35 -14 -44 -27t-9 -36v-1421h-170zM178 1721q0 113 56 184t126 71q63 0 177 -63q84 -46 120 -46q39 0 55.5 22t30.5 82h60q-9 -127 -64 -191.5t-127 -64.5q-57 0 -170 62q-91 50 -127 50q-28 0 -49.5 -19t-32.5 -87h-55
z" />
    <glyph glyph-name="Ograve" unicode="&#xd2;" horiz-adv-x="1109" 
d="M556 1641q147 0 254.5 -98.5t175.5 -280.5t68 -467q0 -342 -132.5 -577.5t-373.5 -235.5q-229 0 -361 230t-132 594q0 373 135.5 604t365.5 231zM635 1404q0 125 -81 125q-34 0 -58 -31t-24 -76v-1207q0 -61 24 -92.5t57 -31.5q37 0 59.5 35t22.5 78v1200zM624 1716
l-287 164q-55 31 -55 53q0 25 94 25q15 0 31 -1h47q62 0 82.5 -6.5t40.5 -38.5l131 -196h-84z" />
    <glyph glyph-name="Oacute" unicode="&#xd3;" horiz-adv-x="1109" 
d="M556 1641q147 0 254.5 -98.5t175.5 -280.5t68 -467q0 -342 -132.5 -577.5t-373.5 -235.5q-229 0 -361 230t-132 594q0 373 135.5 604t365.5 231zM635 1404q0 125 -81 125q-34 0 -58 -31t-24 -76v-1207q0 -61 24 -92.5t57 -31.5q37 0 59.5 35t22.5 78v1200zM415 1716
l116 179q30 46 52.5 54t131.5 8q89 0 107 -5t18 -21q0 -22 -27 -37l-320 -178h-78z" />
    <glyph glyph-name="Ocircumflex" unicode="&#xd4;" horiz-adv-x="1109" 
d="M556 1641q147 0 254.5 -98.5t175.5 -280.5t68 -467q0 -342 -132.5 -577.5t-373.5 -235.5q-229 0 -361 230t-132 594q0 373 135.5 604t365.5 231zM635 1404q0 125 -81 125q-34 0 -58 -31t-24 -76v-1207q0 -61 24 -92.5t57 -31.5q37 0 59.5 35t22.5 78v1200zM389 1962h329
l156 -186q28 -41 28 -47q0 -13 -24 -13h-50l-271 149l-278 -149h-50q-18 0 -18 16q0 14 14 31z" />
    <glyph glyph-name="Otilde" unicode="&#xd5;" horiz-adv-x="1109" 
d="M556 1641q147 0 254.5 -98.5t175.5 -280.5t68 -467q0 -342 -132.5 -577.5t-373.5 -235.5q-229 0 -361 230t-132 594q0 373 135.5 604t365.5 231zM635 1404q0 125 -81 125q-34 0 -58 -31t-24 -76v-1207q0 -61 24 -92.5t57 -31.5q37 0 59.5 35t22.5 78v1200zM254 1721
q0 113 56 184t126 71q63 0 177 -63q84 -46 120 -46q39 0 55.5 22t30.5 82h60q-9 -127 -64 -191.5t-127 -64.5q-57 0 -170 62q-91 50 -127 50q-28 0 -49.5 -19t-32.5 -87h-55z" />
    <glyph glyph-name="Odieresis" unicode="&#xd6;" horiz-adv-x="1109" 
d="M556 1641q147 0 254.5 -98.5t175.5 -280.5t68 -467q0 -342 -132.5 -577.5t-373.5 -235.5q-229 0 -361 230t-132 594q0 373 135.5 604t365.5 231zM635 1404q0 125 -81 125q-34 0 -58 -31t-24 -76v-1207q0 -61 24 -92.5t57 -31.5q37 0 59.5 35t22.5 78v1200zM349 1920
q74 0 119 -27.5t45 -77.5q0 -47 -46.5 -73t-117.5 -26q-73 0 -119 28t-46 79q0 97 165 97zM777 1917q174 0 174 -104q0 -95 -156 -95q-176 0 -176 101q0 98 158 98z" />
    <glyph glyph-name="multiply" unicode="&#xd7;" horiz-adv-x="1365" 
d="M158 1174l151 151l375 -375l374 375l152 -152l-373 -374l370 -371l-151 -151l-371 370l-372 -370l-152 151l372 371z" />
    <glyph glyph-name="Oslash" unicode="&#xd8;" horiz-adv-x="1109" 
d="M164 258q-109 216 -109 549q0 379 137 606.5t364 227.5q195 0 327 -182l107 178l90 -66l-131 -220q105 -216 105 -556q0 -342 -132.5 -577.5t-372.5 -235.5q-192 0 -318 168l-108 -181l-87 76zM472 773l163 272v359q0 125 -81 125q-35 0 -58.5 -31.5t-23.5 -75.5v-649z
M635 826l-163 -272v-339q0 -54 21.5 -89t59.5 -35q37 0 59.5 35t22.5 78v622z" />
    <glyph glyph-name="Ugrave" unicode="&#xd9;" horiz-adv-x="896" 
d="M71 1614h433q22 0 28 -9.5t6 -58.5t-29 -65q-22 -12 -29.5 -25t-7.5 -50v-1120q0 -46 26 -74.5t66 -28.5q37 0 63 32t26 71v1120q0 29 -5.5 40.5t-27.5 28.5q-34 26 -34 80q0 42 9.5 50.5t27.5 8.5h216q36 0 36 -36v-48q0 -32 -4 -40.5t-23 -15.5q-47 -16 -47 -65v-1091
q0 -155 -89 -245.5t-248 -90.5q-178 0 -271.5 96t-93.5 277v1054q0 42 -44 62q-22 10 -26.5 18.5t-4.5 36.5q0 58 7 73t40 15zM527 1716l-287 164q-55 31 -55 53q0 25 94 25q15 0 31 -1h47q62 0 82.5 -6.5t40.5 -38.5l131 -196h-84z" />
    <glyph glyph-name="Uacute" unicode="&#xda;" horiz-adv-x="896" 
d="M71 1614h433q22 0 28 -9.5t6 -58.5t-29 -65q-22 -12 -29.5 -25t-7.5 -50v-1120q0 -46 26 -74.5t66 -28.5q37 0 63 32t26 71v1120q0 29 -5.5 40.5t-27.5 28.5q-34 26 -34 80q0 42 9.5 50.5t27.5 8.5h216q36 0 36 -36v-48q0 -32 -4 -40.5t-23 -15.5q-47 -16 -47 -65v-1091
q0 -155 -89 -245.5t-248 -90.5q-178 0 -271.5 96t-93.5 277v1054q0 42 -44 62q-22 10 -26.5 18.5t-4.5 36.5q0 58 7 73t40 15zM306 1716l116 179q30 46 52.5 54t131.5 8q89 0 107 -5t18 -21q0 -22 -27 -37l-320 -178h-78z" />
    <glyph glyph-name="Ucircumflex" unicode="&#xdb;" horiz-adv-x="896" 
d="M71 1614h433q22 0 28 -9.5t6 -58.5t-29 -65q-22 -12 -29.5 -25t-7.5 -50v-1120q0 -46 26 -74.5t66 -28.5q37 0 63 32t26 71v1120q0 29 -5.5 40.5t-27.5 28.5q-34 26 -34 80q0 42 9.5 50.5t27.5 8.5h216q36 0 36 -36v-48q0 -32 -4 -40.5t-23 -15.5q-47 -16 -47 -65v-1091
q0 -155 -89 -245.5t-248 -90.5q-178 0 -271.5 96t-93.5 277v1054q0 42 -44 62q-22 10 -26.5 18.5t-4.5 36.5q0 58 7 73t40 15zM292 1962h329l156 -186q28 -41 28 -47q0 -13 -24 -13h-50l-271 149l-278 -149h-50q-18 0 -18 16q0 14 14 31z" />
    <glyph glyph-name="Udieresis" unicode="&#xdc;" horiz-adv-x="896" 
d="M71 1614h433q22 0 28 -9.5t6 -58.5t-29 -65q-22 -12 -29.5 -25t-7.5 -50v-1120q0 -46 26 -74.5t66 -28.5q37 0 63 32t26 71v1120q0 29 -5.5 40.5t-27.5 28.5q-34 26 -34 80q0 42 9.5 50.5t27.5 8.5h216q36 0 36 -36v-48q0 -32 -4 -40.5t-23 -15.5q-47 -16 -47 -65v-1091
q0 -155 -89 -245.5t-248 -90.5q-178 0 -271.5 96t-93.5 277v1054q0 42 -44 62q-22 10 -26.5 18.5t-4.5 36.5q0 58 7 73t40 15zM240 1920q74 0 119 -27.5t45 -77.5q0 -47 -46.5 -73t-117.5 -26q-73 0 -119 28t-46 79q0 97 165 97zM668 1917q174 0 174 -104q0 -95 -156 -95
q-176 0 -176 101q0 98 158 98z" />
    <glyph glyph-name="Yacute" unicode="&#xdd;" 
d="M683 723v-524q0 -40 51 -58q22 -8 30.5 -16.5t8.5 -70.5q0 -38 -8 -46t-32 -8h-474q-35 0 -35 31v59q0 37 46 52q24 8 32 19.5t8 43.5v492l-201 711q-15 53 -56 70q-22 10 -22 33v76q0 27 29 27h424q18 0 24 -10t6 -53t-3.5 -54.5t-19.5 -20.5q-23 -15 -23 -38
q0 -13 5 -30l131 -446l135 446q1 6 1 19q0 32 -39 66q-18 16 -18 29v59q0 33 29 33h219q30 0 30 -33v-63q0 -17 -22 -33q-38 -27 -53 -77zM349 1716l116 179q30 46 52.5 54t131.5 8q89 0 107 -5t18 -21q0 -22 -27 -37l-320 -178h-78z" />
    <glyph glyph-name="Thorn" unicode="&#xde;" horiz-adv-x="1115" 
d="M492 1389l97 -1q222 0 353 -141.5t131 -391.5q0 -123 -42 -254.5t-163 -204t-251 -72.5h-125v-107q0 -58 50 -76q24 -9 33.5 -24.5t9.5 -57.5q0 -40 -11 -49.5t-44 -9.5h-453q-36 0 -36 63q0 50 5 61.5t34 20.5q26 8 32.5 17.5t6.5 32.5v1208q0 43 -53 69q-28 15 -29 46
l-1 47q0 30 7.5 39.5t33.5 9.5h434q64 0 64 -73q0 -45 -44 -83q-39 -34 -39 -69zM492 1277v-838h70q41 0 67 45.5t26 125.5v499q0 168 -112 168h-51z" />
    <glyph glyph-name="germandbls" unicode="&#xdf;" horiz-adv-x="1003" 
d="M432 679v-594q0 -85 -56 -85h-291q-23 0 -30.5 6.5t-7.5 31.5v47q0 24 24 45q30 26 30 60v1237q0 89 57.5 156t183.5 67q178 0 178 -114q0 -47 -33.5 -74t-66.5 -27q-29 0 -73 25q-47 29 -75 29q-48 0 -48 -55q0 -36 22.5 -50.5t82.5 -15.5q70 -2 86.5 -18t16.5 -63v-95
q124 173 257 173q101 0 172.5 -72.5t71.5 -182.5q0 -182 -245 -308q255 -42 255 -394q0 -204 -77.5 -354.5t-195 -226t-168.5 -75.5q-24 0 -24 36q0 59 4 73t18 23q34 23 51 71.5t17 210.5l6 359q0 120 -16.5 149.5t-50.5 29.5q-26 0 -75 -25zM432 1070v-272q96 37 121 69.5
t25 139.5q0 81 -16.5 98.5t-38.5 17.5q-32 0 -91 -53z" />
    <glyph glyph-name="agrave" unicode="&#xe0;" 
d="M563 969v193q0 80 -65 80q-89 0 -89 -121q0 -68 -15.5 -97t-70 -49.5t-116.5 -20.5q-127 0 -127 136q0 128 110.5 209t288.5 81q117 0 210.5 -32t149.5 -108t56 -167v-913q2 -7 30 -30q20 -15 20 -44q0 -40 -11 -56.5t-53.5 -30.5t-106.5 -14q-78 0 -130 28.5t-81 111.5
q-87 -90 -141 -115t-111 -25q-127 0 -196.5 99.5t-69.5 325.5t65 313.5t254 161.5q120 46 199 84zM563 839q-113 -50 -135 -112.5t-22 -281.5q0 -161 18 -203.5t62 -42.5q77 0 77 128v512zM566 1492l-287 164q-55 31 -55 53q0 25 94 25q15 0 31 -1h47q62 0 82.5 -6.5
t40.5 -38.5l131 -196h-84z" />
    <glyph glyph-name="aacute" unicode="&#xe1;" 
d="M563 969v193q0 80 -65 80q-89 0 -89 -121q0 -68 -15.5 -97t-70 -49.5t-116.5 -20.5q-127 0 -127 136q0 128 110.5 209t288.5 81q117 0 210.5 -32t149.5 -108t56 -167v-913q2 -7 30 -30q20 -15 20 -44q0 -40 -11 -56.5t-53.5 -30.5t-106.5 -14q-78 0 -130 28.5t-81 111.5
q-87 -90 -141 -115t-111 -25q-127 0 -196.5 99.5t-69.5 325.5t65 313.5t254 161.5q120 46 199 84zM563 839q-113 -50 -135 -112.5t-22 -281.5q0 -161 18 -203.5t62 -42.5q77 0 77 128v512zM358 1492l116 179q30 46 52.5 54t131.5 8q89 0 107 -5t18 -21q0 -22 -27 -37
l-320 -178h-78z" />
    <glyph glyph-name="acircumflex" unicode="&#xe2;" 
d="M563 969v193q0 80 -65 80q-89 0 -89 -121q0 -68 -15.5 -97t-70 -49.5t-116.5 -20.5q-127 0 -127 136q0 128 110.5 209t288.5 81q117 0 210.5 -32t149.5 -108t56 -167v-913q2 -7 30 -30q20 -15 20 -44q0 -40 -11 -56.5t-53.5 -30.5t-106.5 -14q-78 0 -130 28.5t-81 111.5
q-87 -90 -141 -115t-111 -25q-127 0 -196.5 99.5t-69.5 325.5t65 313.5t254 161.5q120 46 199 84zM563 839q-113 -50 -135 -112.5t-22 -281.5q0 -161 18 -203.5t62 -42.5q77 0 77 128v512zM344 1738h329l156 -186q28 -41 28 -47q0 -13 -24 -13h-50l-271 149l-278 -149h-50
q-18 0 -18 16q0 14 14 31z" />
    <glyph glyph-name="atilde" unicode="&#xe3;" 
d="M563 969v193q0 80 -65 80q-89 0 -89 -121q0 -68 -15.5 -97t-70 -49.5t-116.5 -20.5q-127 0 -127 136q0 128 110.5 209t288.5 81q117 0 210.5 -32t149.5 -108t56 -167v-913q2 -7 30 -30q20 -15 20 -44q0 -40 -11 -56.5t-53.5 -30.5t-106.5 -14q-78 0 -130 28.5t-81 111.5
q-87 -90 -141 -115t-111 -25q-127 0 -196.5 99.5t-69.5 325.5t65 313.5t254 161.5q120 46 199 84zM563 839q-113 -50 -135 -112.5t-22 -281.5q0 -161 18 -203.5t62 -42.5q77 0 77 128v512zM209 1498q0 113 56 184t126 71q63 0 177 -63q84 -46 120 -46q39 0 55.5 22t30.5 82
h60q-9 -127 -64 -191.5t-127 -64.5q-57 0 -170 62q-91 50 -127 50q-28 0 -49.5 -19t-32.5 -87h-55z" />
    <glyph glyph-name="adieresis" unicode="&#xe4;" 
d="M563 969v193q0 80 -65 80q-89 0 -89 -121q0 -68 -15.5 -97t-70 -49.5t-116.5 -20.5q-127 0 -127 136q0 128 110.5 209t288.5 81q117 0 210.5 -32t149.5 -108t56 -167v-913q2 -7 30 -30q20 -15 20 -44q0 -40 -11 -56.5t-53.5 -30.5t-106.5 -14q-78 0 -130 28.5t-81 111.5
q-87 -90 -141 -115t-111 -25q-127 0 -196.5 99.5t-69.5 325.5t65 313.5t254 161.5q120 46 199 84zM563 839q-113 -50 -135 -112.5t-22 -281.5q0 -161 18 -203.5t62 -42.5q77 0 77 128v512zM291 1696q74 0 119 -27.5t45 -77.5q0 -47 -46.5 -73t-117.5 -26q-73 0 -119 28
t-46 79q0 97 165 97zM719 1693q174 0 174 -104q0 -95 -156 -95q-176 0 -176 101q0 98 158 98z" />
    <glyph glyph-name="aring" unicode="&#xe5;" 
d="M563 969v193q0 80 -65 80q-89 0 -89 -121q0 -68 -15.5 -97t-70 -49.5t-116.5 -20.5q-127 0 -127 136q0 128 110.5 209t288.5 81q117 0 210.5 -32t149.5 -108t56 -167v-913q2 -7 30 -30q20 -15 20 -44q0 -40 -11 -56.5t-53.5 -30.5t-106.5 -14q-78 0 -130 28.5t-81 111.5
q-87 -90 -141 -115t-111 -25q-127 0 -196.5 99.5t-69.5 325.5t65 313.5t254 161.5q120 46 199 84zM563 839q-113 -50 -135 -112.5t-22 -281.5q0 -161 18 -203.5t62 -42.5q77 0 77 128v512zM515 1878q77 0 135 -54.5t58 -138.5q0 -81 -57 -137t-136 -56t-136 56.5t-57 136.5
q0 83 58 138t135 55zM515 1784q-40 0 -69.5 -29t-29.5 -69q0 -42 29.5 -70.5t69.5 -28.5q41 0 70 29t29 70q0 42 -30 70t-69 28z" />
    <glyph glyph-name="ae" unicode="&#xe6;" horiz-adv-x="1387" 
d="M719 1284q127 96 256 96q176 0 273.5 -144t97.5 -386v-140h-453v-404q0 -184 122 -184q79 0 121 69.5t43 166.5q0 57 18 72.5t61 15.5q52 0 72.5 -17t20.5 -66q0 -135 -99.5 -256.5t-273.5 -121.5q-201 0 -322 174q-87 -84 -165.5 -129t-172.5 -45q-134 0 -202.5 105
t-68.5 338q0 191 61 277t270 180q140 63 184 106q-4 182 -27 213t-65 31q-72 0 -72 -106q0 -10 1 -19v-25q0 -50 -16 -70t-85 -44.5t-110 -24.5q-117 0 -117 133q0 129 110.5 215t275.5 86q160 0 262 -96zM1034 836v315q0 96 -62 96q-46 0 -62.5 -36.5t-16.5 -141.5v-233
h141zM562 836l-50 -35q-74 -51 -87 -81.5t-13 -170.5q0 -247 16 -301t57 -54q38 0 77 43v599z" />
    <glyph glyph-name="ccedilla" unicode="&#xe7;" horiz-adv-x="789" 
d="M469 -14q74 -23 74 -100q0 -58 -52 -96.5t-135 -38.5q-57 0 -57 25q0 21 36 27q62 11 62 51q0 16 -25 31q-30 19 -30 44q0 46 60 60q-155 25 -252.5 197t-97.5 474q0 242 57 402.5t138.5 239t203.5 78.5q145 0 229.5 -97t84.5 -223q0 -66 -28 -112t-85 -46
q-59 0 -90.5 44t-31.5 110q0 28 6 65q8 43 8 68q0 26 -19 44t-44 18q-24 0 -41 -21t-17 -46v-969q0 -35 20.5 -62.5t57.5 -27.5q50 0 77.5 62.5t27.5 158.5l-1 28q0 53 19.5 63t66.5 10t59 -17.5t12 -60.5q0 -162 -81.5 -269t-211.5 -114z" />
    <glyph glyph-name="egrave" unicode="&#xe8;" horiz-adv-x="917" 
d="M421 703v-409q0 -81 31.5 -127t80.5 -46q76 0 121.5 64.5t48.5 176.5q1 60 11.5 72t72.5 12q54 0 68.5 -11t14.5 -55q0 -154 -100 -274t-265 -120q-189 0 -321 171.5t-132 516.5t122 525.5t320 180.5q170 0 273 -152t103 -432v-93h-449zM556 828v331q0 94 -67 94
q-68 0 -68 -94v-331h135zM548 1492l-287 164q-55 31 -55 53q0 25 94 25q15 0 31 -1h47q62 0 82.5 -6.5t40.5 -38.5l131 -196h-84z" />
    <glyph glyph-name="eacute" unicode="&#xe9;" horiz-adv-x="917" 
d="M421 703v-409q0 -81 31.5 -127t80.5 -46q76 0 121.5 64.5t48.5 176.5q1 60 11.5 72t72.5 12q54 0 68.5 -11t14.5 -55q0 -154 -100 -274t-265 -120q-189 0 -321 171.5t-132 516.5t122 525.5t320 180.5q170 0 273 -152t103 -432v-93h-449zM556 828v331q0 94 -67 94
q-68 0 -68 -94v-331h135zM315 1492l116 179q30 46 52.5 54t131.5 8q89 0 107 -5t18 -21q0 -22 -27 -37l-320 -178h-78z" />
    <glyph glyph-name="ecircumflex" unicode="&#xea;" horiz-adv-x="917" 
d="M421 703v-409q0 -81 31.5 -127t80.5 -46q76 0 121.5 64.5t48.5 176.5q1 60 11.5 72t72.5 12q54 0 68.5 -11t14.5 -55q0 -154 -100 -274t-265 -120q-189 0 -321 171.5t-132 516.5t122 525.5t320 180.5q170 0 273 -152t103 -432v-93h-449zM556 828v331q0 94 -67 94
q-68 0 -68 -94v-331h135zM325 1738h329l156 -186q28 -41 28 -47q0 -13 -24 -13h-50l-271 149l-278 -149h-50q-18 0 -18 16q0 14 14 31z" />
    <glyph glyph-name="edieresis" unicode="&#xeb;" horiz-adv-x="917" 
d="M421 703v-409q0 -81 31.5 -127t80.5 -46q76 0 121.5 64.5t48.5 176.5q1 60 11.5 72t72.5 12q54 0 68.5 -11t14.5 -55q0 -154 -100 -274t-265 -120q-189 0 -321 171.5t-132 516.5t122 525.5t320 180.5q170 0 273 -152t103 -432v-93h-449zM556 828v331q0 94 -67 94
q-68 0 -68 -94v-331h135zM267 1696q74 0 119 -27.5t45 -77.5q0 -47 -46.5 -73t-117.5 -26q-73 0 -119 28t-46 79q0 97 165 97zM695 1693q174 0 174 -104q0 -95 -156 -95q-176 0 -176 101q0 98 158 98z" />
    <glyph glyph-name="igrave" unicode="&#xec;" horiz-adv-x="533" 
d="M47 1267v66q0 33 40 33h319q34 0 34 -33v-1150q0 -24 3 -31t18 -13q36 -14 36 -62q0 -55 -5 -66t-32 -11h-388q-14 2 -18 12.5t-4 55.5q0 54 26 63q32 11 32 40v997q0 58 -43 70q-18 5 -18 29zM333 1492l-287 164q-55 31 -55 53q0 25 94 25q15 0 31 -1h47q62 0 82.5 -6.5
t40.5 -38.5l131 -196h-84z" />
    <glyph glyph-name="iacute" unicode="&#xed;" horiz-adv-x="533" 
d="M47 1267v66q0 33 40 33h319q34 0 34 -33v-1150q0 -24 3 -31t18 -13q36 -14 36 -62q0 -55 -5 -66t-32 -11h-388q-14 2 -18 12.5t-4 55.5q0 54 26 63q32 11 32 40v997q0 58 -43 70q-18 5 -18 29zM124 1492l116 179q30 46 52.5 54t131.5 8q89 0 107 -5t18 -21q0 -22 -27 -37
l-320 -178h-78z" />
    <glyph glyph-name="icircumflex" unicode="&#xee;" horiz-adv-x="533" 
d="M47 1267v66q0 33 40 33h319q34 0 34 -33v-1150q0 -24 3 -31t18 -13q36 -14 36 -62q0 -55 -5 -66t-32 -11h-388q-14 2 -18 12.5t-4 55.5q0 54 26 63q32 11 32 40v997q0 58 -43 70q-18 5 -18 29zM98 1738h329l156 -186q28 -41 28 -47q0 -13 -24 -13h-50l-271 149l-278 -149
h-50q-18 0 -18 16q0 14 14 31z" />
    <glyph glyph-name="idieresis" unicode="&#xef;" horiz-adv-x="533" 
d="M47 1267v66q0 33 40 33h319q34 0 34 -33v-1150q0 -24 3 -31t18 -13q36 -14 36 -62q0 -55 -5 -66t-32 -11h-388q-14 2 -18 12.5t-4 55.5q0 54 26 63q32 11 32 40v997q0 58 -43 70q-18 5 -18 29zM58 1696q74 0 119 -27.5t45 -77.5q0 -47 -46.5 -73t-117.5 -26
q-73 0 -119 28t-46 79q0 97 165 97zM486 1693q174 0 174 -104q0 -95 -156 -95q-176 0 -176 101q0 98 158 98z" />
    <glyph glyph-name="eth" unicode="&#xf0;" horiz-adv-x="962" 
d="M569 1579l131 32l22 -88l-74 -19q110 -122 186 -333t76 -472q0 -240 -56 -397.5t-154.5 -236.5t-224.5 -79q-122 0 -223.5 84t-150.5 242t-49 339q0 324 103 498t271 174q55 0 106 -23q-17 82 -70 158l-181 -45l-22 88l140 35q-59 63 -120 93h218q45 -24 72 -50z
M552 1068q0 130 -75 130q-69 0 -69 -130v-822q0 -129 72 -129t72 149v802z" />
    <glyph glyph-name="ntilde" unicode="&#xf1;" horiz-adv-x="1003" 
d="M431 1230q119 150 272 150q105 0 160 -67.5t55 -169.5v-958q0 -32 25 -49q23 -14 23 -72q0 -46 -7.5 -55t-31.5 -9h-281q-60 51 -60 133v951q0 78 -64 78q-42 0 -91 -44v-933q0 -36 35 -56q21 -12 21 -44v-51q0 -34 -49 -34h-355q-26 0 -33 7.5t-7 37.5v37q0 29 18 41
q24 17 31 32t7 66v978q0 35 -34 51q-19 9 -19 32v53q0 31 28 31h326q21 0 26 -6t5 -25v-105zM207 1498q0 113 56 184t126 71q63 0 177 -63q84 -46 120 -46q39 0 55.5 22t30.5 82h60q-9 -127 -64 -191.5t-127 -64.5q-57 0 -170 62q-91 50 -127 50q-28 0 -49.5 -19t-32.5 -87
h-55z" />
    <glyph glyph-name="ograve" unicode="&#xf2;" 
d="M490 1380q188 0 314 -168.5t126 -500.5q0 -358 -128 -541.5t-319 -183.5q-132 0 -229 84t-149.5 224t-52.5 383q0 347 120.5 525t317.5 178zM562 1129q0 124 -72 124q-78 0 -78 -152v-831q0 -151 71 -151q79 0 79 151v859zM569 1492l-287 164q-55 31 -55 53q0 25 94 25
q15 0 31 -1h47q62 0 82.5 -6.5t40.5 -38.5l131 -196h-84z" />
    <glyph glyph-name="oacute" unicode="&#xf3;" 
d="M490 1380q188 0 314 -168.5t126 -500.5q0 -358 -128 -541.5t-319 -183.5q-132 0 -229 84t-149.5 224t-52.5 383q0 347 120.5 525t317.5 178zM562 1129q0 124 -72 124q-78 0 -78 -152v-831q0 -151 71 -151q79 0 79 151v859zM360 1492l116 179q30 46 52.5 54t131.5 8
q89 0 107 -5t18 -21q0 -22 -27 -37l-320 -178h-78z" />
    <glyph glyph-name="ocircumflex" unicode="&#xf4;" 
d="M490 1380q188 0 314 -168.5t126 -500.5q0 -358 -128 -541.5t-319 -183.5q-132 0 -229 84t-149.5 224t-52.5 383q0 347 120.5 525t317.5 178zM562 1129q0 124 -72 124q-78 0 -78 -152v-831q0 -151 71 -151q79 0 79 151v859zM334 1738h329l156 -186q28 -41 28 -47
q0 -13 -24 -13h-50l-271 149l-278 -149h-50q-18 0 -18 16q0 14 14 31z" />
    <glyph glyph-name="otilde" unicode="&#xf5;" 
d="M490 1380q188 0 314 -168.5t126 -500.5q0 -358 -128 -541.5t-319 -183.5q-132 0 -229 84t-149.5 224t-52.5 383q0 347 120.5 525t317.5 178zM562 1129q0 124 -72 124q-78 0 -78 -152v-831q0 -151 71 -151q79 0 79 151v859zM187 1498q0 113 56 184t126 71q63 0 177 -63
q84 -46 120 -46q39 0 55.5 22t30.5 82h60q-9 -127 -64 -191.5t-127 -64.5q-57 0 -170 62q-91 50 -127 50q-28 0 -49.5 -19t-32.5 -87h-55z" />
    <glyph glyph-name="odieresis" unicode="&#xf6;" 
d="M490 1380q188 0 314 -168.5t126 -500.5q0 -358 -128 -541.5t-319 -183.5q-132 0 -229 84t-149.5 224t-52.5 383q0 347 120.5 525t317.5 178zM562 1129q0 124 -72 124q-78 0 -78 -152v-831q0 -151 71 -151q79 0 79 151v859zM282 1696q74 0 119 -27.5t45 -77.5
q0 -47 -46.5 -73t-117.5 -26q-73 0 -119 28t-46 79q0 97 165 97zM710 1693q174 0 174 -104q0 -95 -156 -95q-176 0 -176 101q0 98 158 98z" />
    <glyph glyph-name="divide" unicode="&#xf7;" horiz-adv-x="1365" 
d="M679 1349q52 0 90.5 -36.5t38.5 -91.5q0 -53 -37.5 -90.5t-91.5 -37.5q-53 0 -90.5 38t-37.5 90q0 54 38 91t90 37zM126 903h1114v-204h-1114v204zM681 518q53 0 91.5 -37t38.5 -92q0 -53 -38 -91t-92 -38q-53 0 -91 38t-38 91t38 91t91 38z" />
    <glyph glyph-name="oslash" unicode="&#xf8;" 
d="M841 1149q89 -171 89 -439q0 -357 -128 -540.5t-319 -183.5q-158 0 -266 121l-84 -140l-112 66l114 190q-83 158 -83 454q0 233 57 394.5t161 235t217 73.5q159 0 274 -116l84 139l110 -64zM412 683l150 249v197q0 124 -72 124q-78 0 -78 -152v-418zM562 683l-150 -250
v-163q0 -151 71 -151q79 0 79 151v413z" />
    <glyph glyph-name="ugrave" unicode="&#xf9;" horiz-adv-x="1003" 
d="M96 1213q-13 6 -20 9q-25 11 -31.5 21.5t-6.5 43.5q0 18 -1 30q0 30 8.5 39.5t37.5 9.5h311q23 0 28 -7t5 -34v-985q0 -129 71 -129q54 0 82 46v925q0 36 -35 56q-17 10 -20.5 21.5t-3.5 77.5q0 29 34 29h327q21 0 25.5 -6t4.5 -32v-1146q0 -33 27 -46q33 -18 33 -60
q0 -60 -4.5 -68t-31.5 -8h-304q-29 0 -40 10.5t-11 45.5v25q0 40 -1 45q-159 -140 -269 -140q-95 0 -155 63t-60 243v921zM573 1492l-287 164q-55 31 -55 53q0 25 94 25q15 0 31 -1h47q62 0 82.5 -6.5t40.5 -38.5l131 -196h-84z" />
    <glyph glyph-name="uacute" unicode="&#xfa;" horiz-adv-x="1003" 
d="M96 1213q-13 6 -20 9q-25 11 -31.5 21.5t-6.5 43.5q0 18 -1 30q0 30 8.5 39.5t37.5 9.5h311q23 0 28 -7t5 -34v-985q0 -129 71 -129q54 0 82 46v925q0 36 -35 56q-17 10 -20.5 21.5t-3.5 77.5q0 29 34 29h327q21 0 25.5 -6t4.5 -32v-1146q0 -33 27 -46q33 -18 33 -60
q0 -60 -4.5 -68t-31.5 -8h-304q-29 0 -40 10.5t-11 45.5v25q0 40 -1 45q-159 -140 -269 -140q-95 0 -155 63t-60 243v921zM365 1492l116 179q30 46 52.5 54t131.5 8q89 0 107 -5t18 -21q0 -22 -27 -37l-320 -178h-78z" />
    <glyph glyph-name="ucircumflex" unicode="&#xfb;" horiz-adv-x="1003" 
d="M96 1213q-13 6 -20 9q-25 11 -31.5 21.5t-6.5 43.5q0 18 -1 30q0 30 8.5 39.5t37.5 9.5h311q23 0 28 -7t5 -34v-985q0 -129 71 -129q54 0 82 46v925q0 36 -35 56q-17 10 -20.5 21.5t-3.5 77.5q0 29 34 29h327q21 0 25.5 -6t4.5 -32v-1146q0 -33 27 -46q33 -18 33 -60
q0 -60 -4.5 -68t-31.5 -8h-304q-29 0 -40 10.5t-11 45.5v25q0 40 -1 45q-159 -140 -269 -140q-95 0 -155 63t-60 243v921zM339 1738h329l156 -186q28 -41 28 -47q0 -13 -24 -13h-50l-271 149l-278 -149h-50q-18 0 -18 16q0 14 14 31z" />
    <glyph glyph-name="udieresis" unicode="&#xfc;" horiz-adv-x="1003" 
d="M96 1213q-13 6 -20 9q-25 11 -31.5 21.5t-6.5 43.5q0 18 -1 30q0 30 8.5 39.5t37.5 9.5h311q23 0 28 -7t5 -34v-985q0 -129 71 -129q54 0 82 46v925q0 36 -35 56q-17 10 -20.5 21.5t-3.5 77.5q0 29 34 29h327q21 0 25.5 -6t4.5 -32v-1146q0 -33 27 -46q33 -18 33 -60
q0 -60 -4.5 -68t-31.5 -8h-304q-29 0 -40 10.5t-11 45.5v25q0 40 -1 45q-159 -140 -269 -140q-95 0 -155 63t-60 243v921zM286 1696q74 0 119 -27.5t45 -77.5q0 -47 -46.5 -73t-117.5 -26q-73 0 -119 28t-46 79q0 97 165 97zM714 1693q174 0 174 -104q0 -95 -156 -95
q-176 0 -176 101q0 98 158 98z" />
    <glyph glyph-name="yacute" unicode="&#xfd;" horiz-adv-x="853" 
d="M524 598l101 527q3 12 4 18q7 30 7 39q0 26 -36 54q-17 13 -21 30t-4 68q0 32 28 32h172q29 0 39.5 -12t10.5 -63q0 -30 -3.5 -35t-22.5 -19q-28 -19 -41 -88l-167 -880q-44 -230 -65.5 -295.5t-67 -117t-107 -77.5t-142.5 -26q-88 0 -135.5 41.5t-47.5 108.5q0 49 32 78
t79 29q70 0 99 -82q14 -40 41 -40q51 0 51 53q0 17 -20 112l-214 1037q-15 75 -25.5 103.5t-29.5 37.5q-18 9 -18 37v56q0 28 8 35t31 7h352q28 0 37 -6.5t9 -29.5q0 -49 -4 -64t-23 -23q-30 -12 -30 -50q0 -22 7 -57zM278 1492l116 179q30 46 52.5 54t131.5 8q89 0 107 -5
t18 -21q0 -22 -27 -37l-320 -178h-78z" />
    <glyph glyph-name="thorn" unicode="&#xfe;" horiz-adv-x="1003" 
d="M432 1277q108 103 221 103q151 0 225.5 -153.5t74.5 -516.5q0 -216 -22.5 -374.5t-107.5 -247t-180 -88.5q-125 0 -211 138v-223q0 -34 38 -47q37 -13 37 -49v-36q0 -21 -5 -25.5t-27 -4.5h-385q-40 0 -40 20v37q0 37 34 57q17 10 17 32v1543q0 36 -26 55
q-18 14 -21.5 20.5t-3.5 28.5v32q0 26 5.5 31t29.5 5h305q29 0 35.5 -6.5t6.5 -35.5v-295zM586 1079q0 62 -25 92.5t-55 30.5q-22 0 -48 -26t-26 -59v-840q0 -27 28 -57t65 -30q61 0 61 95v794z" />
    <glyph glyph-name="ydieresis" unicode="&#xff;" horiz-adv-x="853" 
d="M524 598l101 527q3 12 4 18q7 30 7 39q0 26 -36 54q-17 13 -21 30t-4 68q0 32 28 32h172q29 0 39.5 -12t10.5 -63q0 -30 -3.5 -35t-22.5 -19q-28 -19 -41 -88l-167 -880q-44 -230 -65.5 -295.5t-67 -117t-107 -77.5t-142.5 -26q-88 0 -135.5 41.5t-47.5 108.5q0 49 32 78
t79 29q70 0 99 -82q14 -40 41 -40q51 0 51 53q0 17 -20 112l-214 1037q-15 75 -25.5 103.5t-29.5 37.5q-18 9 -18 37v56q0 28 8 35t31 7h352q28 0 37 -6.5t9 -29.5q0 -49 -4 -64t-23 -23q-30 -12 -30 -50q0 -22 7 -57zM193 1696q74 0 119 -27.5t45 -77.5q0 -47 -46.5 -73
t-117.5 -26q-73 0 -119 28t-46 79q0 97 165 97zM621 1693q174 0 174 -104q0 -95 -156 -95q-176 0 -176 101q0 98 158 98z" />
    <glyph glyph-name="dotlessi" unicode="&#x131;" horiz-adv-x="533" 
d="M47 1267v66q0 33 40 33h319q34 0 34 -33v-1150q0 -24 3 -31t18 -13q36 -14 36 -62q0 -55 -5 -66t-32 -11h-388q-14 2 -18 12.5t-4 55.5q0 54 26 63q32 11 32 40v997q0 58 -43 70q-18 5 -18 29z" />
    <glyph glyph-name="OE" unicode="&#x152;" horiz-adv-x="1344" 
d="M971 1496v-570h75q30 0 45 18t24 83q4 34 20 44t57 10q36 0 43 -8.5t7 -37.5v-328q0 -43 -7 -51.5t-38 -8.5q-58 0 -72.5 14t-30.5 93q-7 37 -20.5 49t-50.5 12h-52v-702h65q38 0 57.5 32t48.5 128q27 91 44.5 102t59.5 11q44 0 53.5 -5.5t9.5 -21.5q0 -11 -4 -36
l-46 -276q-6 -35 -13.5 -41t-39.5 -6h-574q-20 0 -54 -2q-40 -3 -49 -3q-169 0 -270 85.5t-156.5 246t-55.5 512.5q0 362 125 569.5t340 207.5l174 -2h513q21 0 27.5 -8.5t15.5 -47.5l58 -263q3 -13 3 -24q0 -19 -78 -19q-31 0 -45 18.5t-51 114.5q-29 74 -46.5 92.5
t-46.5 18.5h-65zM620 1385q0 111 -75 111q-36 0 -58.5 -24.5t-22.5 -57.5v-1200q0 -37 19.5 -67.5t54.5 -30.5q37 0 59.5 30t22.5 77v1162z" />
    <glyph glyph-name="oe" unicode="&#x153;" horiz-adv-x="1387" 
d="M729 88q-112 -102 -244 -102q-100 0 -196 59t-165 219.5t-69 417.5q0 239 49 384.5t152 229.5t238 84q124 0 235 -83q80 83 223 83q133 0 223.5 -79.5t133 -213t42.5 -378.5h-451v-415q0 -166 119 -166q68 0 113.5 48t45.5 194q0 69 18 75.5t83 6.5q45 0 57 -9t12 -50
q0 -165 -100.5 -286.5t-256.5 -121.5q-149 0 -262 103zM1036 836v312q0 105 -73 105q-63 0 -63 -105v-312h136zM568 1133q0 120 -73 120q-77 0 -77 -105v-886q0 -138 74 -138q76 0 76 138v871z" />
    <glyph glyph-name="Scaron" unicode="&#x160;" horiz-adv-x="768" 
d="M498 1571q6 5 34 45q18 26 48 26q7 0 56 -7q10 -10 15 -42l54 -339q4 -27 4 -32q0 -19 -10.5 -25t-55.5 -6q-51 0 -66 13t-57 108q-89 201 -159 201q-50 0 -50 -70q0 -87 151 -342q173 -294 225.5 -425.5t52.5 -294.5q0 -193 -91 -296t-205 -103q-72 0 -139 41
q-26 16 -41 16q-13 0 -21 -19q-16 -38 -78 -38q-24 0 -32.5 7.5t-12.5 39.5l-50 333q-10 64 -10 68q0 29 53 29q72 0 85 -19t37 -87q88 -243 177 -243q33 0 53.5 24t20.5 60q0 63 -45.5 149.5t-111.5 192.5q-158 254 -223.5 405.5t-65.5 309.5q0 178 78 284t191 106
q78 0 189 -70zM220 1716l-163 197q-14 16 -14 27q0 19 23 19h49l270 -148l269 144h54q21 0 21 -15q0 -11 -14 -29l-160 -195h-335z" />
    <glyph glyph-name="scaron" unicode="&#x161;" horiz-adv-x="683" 
d="M572 1343l55 -277q2 -13 2 -23q0 -28 -54 -28q-36 0 -52.5 9t-37.5 48q-24 46 -73 109t-88 63q-15 0 -26.5 -14t-11.5 -33q0 -51 146 -289q126 -207 171 -325t45 -266q0 -157 -68 -244.5t-160 -87.5q-58 0 -122 42q-35 23 -47 23q-14 0 -16 -23q-4 -27 -12 -34.5
t-52 -7.5q-34 0 -44 10t-14 35l-50 279q-3 20 -3 25q0 28 67 28q35 0 48.5 -9t34.5 -52q78 -163 148 -163q45 0 45 54q0 48 -33.5 119t-130.5 233q-102 172 -147.5 288t-45.5 233q0 159 68 237t165 78q51 0 116 -35q33 -18 45 -18q16 0 19 21q4 22 16 27t51 5
q25 0 32.5 -5.5t13.5 -31.5zM177 1492l-163 197q-14 16 -14 27q0 19 23 19h49l270 -148l269 144h54q21 0 21 -15q0 -11 -14 -29l-160 -195h-335z" />
    <glyph glyph-name="Ydieresis" unicode="&#x178;" 
d="M683 723v-524q0 -40 51 -58q22 -8 30.5 -16.5t8.5 -70.5q0 -38 -8 -46t-32 -8h-474q-35 0 -35 31v59q0 37 46 52q24 8 32 19.5t8 43.5v492l-201 711q-15 53 -56 70q-22 10 -22 33v76q0 27 29 27h424q18 0 24 -10t6 -53t-3.5 -54.5t-19.5 -20.5q-23 -15 -23 -38
q0 -13 5 -30l131 -446l135 446q1 6 1 19q0 32 -39 66q-18 16 -18 29v59q0 33 29 33h219q30 0 30 -33v-63q0 -17 -22 -33q-38 -27 -53 -77zM283 1920q74 0 119 -27.5t45 -77.5q0 -47 -46.5 -73t-117.5 -26q-73 0 -119 28t-46 79q0 97 165 97zM711 1917q174 0 174 -104
q0 -95 -156 -95q-176 0 -176 101q0 98 158 98z" />
    <glyph glyph-name="florin" unicode="&#x192;" horiz-adv-x="853" 
d="M128 1l150 777q1 8 1 15q0 18 -27 45q-17 17 -17 24q0 4 2 17l10 60q6 36 37 36h32l87 455q18 91 95 155.5t198 64.5q146 0 146 -88q0 -59 -34 -94t-82 -35q-32 0 -72 30q-38 28 -57 28q-28 0 -48 -22t-20 -46q0 -57 64 -57h92q29 0 29 -25q0 -7 -2 -18l-67 -348h31
q31 0 31 -26q0 -2 -4 -16l-12 -59q-4 -18 -30 -32q-47 -25 -58 -81l-121 -624q-33 -168 -139.5 -276.5t-287.5 -108.5q-99 0 -99 31q0 2 2 11l12 60q3 16 8.5 21t28.5 7q62 4 88.5 46t32.5 73z" />
    <glyph glyph-name="circumflex" unicode="&#x2c6;" horiz-adv-x="683" 
d="M174 1738h329l156 -186q28 -41 28 -47q0 -13 -24 -13h-50l-271 149l-278 -149h-50q-18 0 -18 16q0 14 14 31z" />
    <glyph glyph-name="caron" unicode="&#x2c7;" horiz-adv-x="683" 
d="M176 1492l-163 197q-14 16 -14 27q0 19 23 19h49l270 -148l269 144h54q21 0 21 -15q0 -11 -14 -29l-160 -195h-335z" />
    <glyph glyph-name="uni02C9" unicode="&#x2c9;" horiz-adv-x="683" 
d="M20 1685h642v-193h-642v193z" />
    <glyph glyph-name="breve" unicode="&#x2d8;" horiz-adv-x="683" 
d="M30 1745h107q82 -127 209 -127q119 0 199 124h108q-31 -110 -118.5 -180t-193.5 -70q-211 0 -311 253z" />
    <glyph glyph-name="dotaccent" unicode="&#x2d9;" horiz-adv-x="683" 
d="M337 1702q82 0 130.5 -28t48.5 -80q0 -102 -168 -102q-181 0 -181 104q0 106 170 106z" />
    <glyph glyph-name="ring" unicode="&#x2da;" horiz-adv-x="683" 
d="M341 1878q77 0 135 -54.5t58 -138.5q0 -81 -57 -137t-136 -56t-136 56.5t-57 136.5q0 83 58 138t135 55zM341 1784q-40 0 -69.5 -29t-29.5 -69q0 -42 29.5 -70.5t69.5 -28.5q41 0 70 29t29 70q0 42 -30 70t-69 28z" />
    <glyph glyph-name="ogonek" unicode="&#x2db;" horiz-adv-x="683" 
d="M286 17h87q-95 -74 -95 -149q0 -64 45 -123t99 -80.5t130 -22.5l29 -33q-82 -71 -200 -71q-109 0 -194 72.5t-85 173.5q0 144 184 233z" />
    <glyph glyph-name="tilde" unicode="&#x2dc;" horiz-adv-x="683" 
d="M29 1498q0 113 56 184t126 71q63 0 177 -63q84 -46 120 -46q39 0 55.5 22t30.5 82h60q-9 -127 -64 -191.5t-127 -64.5q-57 0 -170 62q-91 50 -127 50q-28 0 -49.5 -19t-32.5 -87h-55z" />
    <glyph glyph-name="hungarumlaut" unicode="&#x2dd;" horiz-adv-x="683" 
d="M15 1492l116 179q30 46 52.5 54t131.5 8q89 0 107 -5t18 -21q0 -22 -27 -37l-320 -178h-78zM388 1492l116 179q30 46 52 54t132 8q89 0 107 -5t18 -21q0 -22 -27 -37l-320 -178h-78z" />
    <glyph glyph-name="pi" unicode="&#x3c0;" horiz-adv-x="1124" 
d="M0 1063h1124v-158h-162v-905h-189v905h-426v-905h-188v905h-159v158z" />
    <glyph glyph-name="endash" unicode="&#x2013;" horiz-adv-x="1024" 
d="M-10 808h1044v-250h-1044v250z" />
    <glyph glyph-name="emdash" unicode="&#x2014;" horiz-adv-x="2048" 
d="M-18 808h2084v-250h-2084v250z" />
    <glyph glyph-name="quoteleft" unicode="&#x2018;" horiz-adv-x="533" 
d="M439 1138q0 -61 -43.5 -105t-110.5 -44q-85 0 -138 74.5t-53 166.5q0 93 52 197.5t106.5 158.5t69.5 54q10 0 42 -24l10 -6q25 -17 25 -27q0 -7 -27 -45q-74 -107 -74 -169q0 -47 70.5 -97.5t70.5 -133.5z" />
    <glyph glyph-name="quoteright" unicode="&#x2019;" horiz-adv-x="533" 
d="M94 1490q0 60 42.5 105t111.5 45q84 0 137.5 -74.5t53.5 -166.5q0 -135 -96.5 -272.5t-132.5 -137.5q-10 0 -41 23l-10 7q-26 17 -26 27q0 7 27 45q75 107 75 168q0 47 -48 80t-70.5 71t-22.5 80z" />
    <glyph glyph-name="quotesinglbase" unicode="&#x201a;" horiz-adv-x="533" 
d="M95 238q0 60 38 108.5t109 48.5q83 0 139.5 -65.5t56.5 -174.5q0 -157 -105 -279.5t-147 -122.5q-20 0 -45 25t-25 35q0 13 20 33q92 86 92 171q0 22 -9.5 41t-47.5 50t-57 60.5t-19 69.5z" />
    <glyph glyph-name="quotedblleft" unicode="&#x201c;" 
d="M440 1138q0 -61 -43.5 -105t-110.5 -44q-85 0 -138 74.5t-53 166.5q0 93 52 197.5t106.5 158.5t69.5 54q10 0 42 -24l10 -6q25 -17 25 -27q0 -7 -27 -45q-74 -107 -74 -169q0 -47 70.5 -97.5t70.5 -133.5zM886 1138q0 -61 -44 -105t-110 -44q-85 0 -138 74.5t-53 166.5
q0 134 96.5 272t131.5 138q10 0 42 -24l10 -6q25 -17 25 -27q0 -7 -27 -45q-75 -107 -75 -169q0 -47 71 -97.5t71 -133.5z" />
    <glyph glyph-name="quotedblright" unicode="&#x201d;" 
d="M541 1490q0 61 43.5 105.5t110.5 44.5q84 0 137.5 -74.5t53.5 -166.5q0 -66 -31.5 -150.5t-101 -172t-96.5 -87.5q-10 0 -41 23l-10 7q-26 17 -26 27q0 7 27 45q75 107 75 168q0 30 -13.5 47.5t-50.5 45t-57 62.5t-20 76zM95 1490q0 60 42.5 105t111.5 45
q84 0 137.5 -74.5t53.5 -166.5q0 -135 -96.5 -272.5t-132.5 -137.5q-10 0 -41 23l-10 7q-26 17 -26 27q0 7 27 45q75 107 75 168q0 47 -48 80t-70.5 71t-22.5 80z" />
    <glyph glyph-name="quotedblbase" unicode="&#x201e;" 
d="M541 256q0 61 43.5 105t110.5 44q82 0 136.5 -73t54.5 -167q0 -135 -96.5 -272.5t-132.5 -137.5q-10 0 -41 23l-10 7q-26 16 -26 27q0 6 27 45q75 106 75 168q0 47 -47.5 80t-70.5 70.5t-23 80.5zM95 256q0 61 43.5 105t110.5 44q82 0 136.5 -73t54.5 -167
q0 -93 -52 -198t-107 -158.5t-70 -53.5q-10 0 -41 23l-10 7q-26 16 -26 27q0 6 27 45q75 106 75 168q0 47 -47.5 80t-70.5 70.5t-23 80.5z" />
    <glyph glyph-name="dagger" unicode="&#x2020;" horiz-adv-x="1003" 
d="M430 1118q-12 76 -65 247q-48 157 -48 194q0 79 143 79q146 0 187.5 -14t41.5 -63t-50 -213q-45 -149 -58 -230q32 10 96 38q149 63 199 63q44 0 59 -33t15 -128q0 -120 -11.5 -149.5t-54.5 -29.5q-49 0 -314 110q10 -254 87 -730q48 -298 48 -382q0 -81 -28.5 -104.5
t-121.5 -23.5q-21 0 -42 2l-169 9q-47 18 -47 117q0 106 50 405q76 454 83 707q-14 -4 -138 -50q-147 -54 -173 -54q-38 0 -51.5 34t-13.5 119q0 109 14.5 146t57.5 37q30 0 78.5 -19t225.5 -84z" />
    <glyph glyph-name="daggerdbl" unicode="&#x2021;" horiz-adv-x="1024" 
d="M440 1114q-16 107 -69 275q-41 130 -41 165q0 39 30 60.5t128 21.5q10 0 137 -3q74 -13 74 -74q0 -45 -53 -214q-47 -149 -62 -231l196 78q70 27 108 27q40 0 56 -34.5t16 -122.5q0 -124 -11.5 -153t-46.5 -29q-62 0 -318 113q0 -87 12 -199q7 -69 7 -105q0 -32 -6 -81
q-13 -99 -13 -211q274 104 310 104q32 0 47 -27.5t15 -109.5q0 -126 -13 -162t-58 -36q-47 0 -301 107q19 -131 71 -290q37 -112 37 -149q0 -50 -37 -66t-125 -16q-151 0 -178.5 18.5t-27.5 56.5q0 53 60 240q44 140 56 206q-251 -107 -303 -107q-33 0 -52.5 27.5
t-19.5 125.5q0 125 11 157t50 32q42 0 314 -111q-2 114 -17 225q-7 52 -7 69q0 20 6 73q17 134 18 229q-276 -108 -314 -108q-59 0 -59 134q0 146 18.5 174t51.5 28q47 0 303 -107z" />
    <glyph glyph-name="bullet" unicode="&#x2022;" horiz-adv-x="576" 
d="M288 904q94 0 161.5 -67t67.5 -162t-67 -162t-162 -67q-94 0 -161.5 67t-67.5 162t67.5 162t161.5 67z" />
    <glyph glyph-name="ellipsis" unicode="&#x2026;" horiz-adv-x="2048" 
d="M337 395q74 0 122.5 -58t48.5 -143q0 -81 -50 -144.5t-121 -63.5q-69 0 -114.5 56.5t-45.5 141.5q0 84 43 147.5t117 63.5zM1699 395q74 0 122.5 -58t48.5 -143q0 -81 -50 -144.5t-121 -63.5q-69 0 -114.5 56.5t-45.5 141.5q0 84 43 147.5t117 63.5zM1019 395
q75 0 123 -58.5t48 -142.5q0 -81 -50 -144.5t-121 -63.5q-70 0 -115 56.5t-45 141.5q0 84 43 147.5t117 63.5z" />
    <glyph glyph-name="perthousand" unicode="&#x2030;" horiz-adv-x="2283" 
d="M995 1650h181l-636 -1705h-179zM368 1650q129 0 225.5 -109t96.5 -303t-94 -311t-224 -117q-136 0 -230 117t-94 297q0 193 99.5 309.5t220.5 116.5zM434 1477q0 35 -18 57.5t-45 22.5q-69 0 -69 -100v-479q0 -33 19 -56.5t46 -23.5q29 0 48 27.5t19 66.5v485zM1164 785
q129 0 226 -109.5t97 -303.5t-94.5 -310.5t-224.5 -116.5q-138 0 -230.5 119.5t-92.5 293.5q0 197 100 312t219 115zM1231 611q0 35 -18 57.5t-45 22.5q-69 0 -69 -100v-479q0 -33 19 -56.5t45 -23.5q30 0 49 27.5t19 66.5v485zM1912 785q129 0 225.5 -109.5t96.5 -303.5
t-94 -310.5t-224 -116.5q-136 0 -230 116.5t-94 296.5q0 193 99.5 310t220.5 117zM1979 611q0 35 -18 57.5t-46 22.5q-68 0 -68 -100v-479q0 -33 19 -56.5t45 -23.5q29 0 48.5 27.5t19.5 66.5v485z" />
    <glyph glyph-name="guilsinglleft" unicode="&#x2039;" horiz-adv-x="512" 
d="M273 1322h215l-172 -627l172 -629h-215l-289 629z" />
    <glyph glyph-name="guilsinglright" unicode="&#x203a;" horiz-adv-x="512" 
d="M239 66h-215l172 626l-172 630h215l289 -630z" />
    <glyph glyph-name="Euro" unicode="&#x20ac;" horiz-adv-x="1004" 
d="M156 1016q27 278 150.5 442t299.5 164q78 0 142 -43q15 -10 20 -10q12 0 35 26q13 18 25 22.5t51 4.5q26 0 35 -15t14 -71l22 -324q2 -6 2 -18q0 -38 -12.5 -51t-46.5 -13q-42 0 -61 24.5t-41 130.5q-28 135 -54.5 170.5t-97.5 35.5q-115 0 -115 -135v-340h242l-21 -150
h-221v-121h242l-21 -149h-221v-375q0 -53 28.5 -82.5t78.5 -29.5q77 0 108.5 42.5t36.5 126.5q4 72 25 92.5t63 20.5q49 0 65.5 -15t16.5 -63q0 -98 -52.5 -187.5t-123 -115.5t-176.5 -26q-171 0 -285 162t-151 450h-113l21 149h79q-2 16 -2 50q0 48 2 71h-100l21 150h90z
" />
    <glyph glyph-name="trademark" unicode="&#x2122;" horiz-adv-x="2048" 
d="M21 1614h777v-226h-35q-3 75 -42 125t-152 50h-38v-588q0 -85 20 -109t83 -24v-35h-454v35q66 2 84.5 18t18.5 119v584h-35q-92 0 -140 -40t-54 -135h-33v226zM860 1614h368l231 -495l229 495h347v-38q-64 0 -82.5 -24.5t-18.5 -108.5v-473q0 -76 19.5 -100.5t81.5 -27.5
v-35h-462v35q75 1 95 24t20 105v505l-320 -669h-24l-318 669v-502q0 -51 2.5 -72.5t24.5 -40.5t87 -19v-35h-280v35q71 2 90 24.5t19 109.5v469q0 87 -20.5 109t-88.5 22v38z" />
    <glyph glyph-name="Omega" unicode="&#x2126;" horiz-adv-x="1573" 
d="M481 160q-346 201 -346 651q0 178 74.5 340t224.5 257t359 95q298 0 472.5 -200t174.5 -500q0 -416 -344 -643l364 6v-166h-575v177q165 75 256 241t91 359q0 232 -111 397.5t-330 165.5q-224 0 -334 -164.5t-110 -389.5q0 -223 93 -381.5t249 -224.5v-180h-577v168z" />
    <glyph glyph-name="partialdiff" unicode="&#x2202;" horiz-adv-x="1012" 
d="M426 1138l-135 60q64 150 163.5 221.5t196.5 71.5q148 0 235 -139t87 -426q0 -251 -73 -473.5t-223.5 -350t-314.5 -127.5q-135 0 -220.5 91.5t-85.5 254.5q0 169 92 311t272.5 216t437.5 76q-2 250 -57 344.5t-148 94.5q-143 0 -227 -225zM854 796q-241 -12 -357.5 -67
t-188.5 -179t-72 -247q0 -88 53.5 -139.5t116.5 -51.5q144 0 279 169.5t169 514.5z" />
    <glyph glyph-name="Delta" unicode="&#x2206;" horiz-adv-x="1253" 
d="M1228 0h-1200l628 1387zM992 82l-399 967l-440 -967h839z" />
    <glyph glyph-name="product" unicode="&#x220f;" horiz-adv-x="1686" 
d="M161 1650h1362v-1921h-191v1748h-978v-1748h-193v1921z" />
    <glyph glyph-name="summation" unicode="&#x2211;" horiz-adv-x="1460" 
d="M139 1650h1237v-163h-988l607 -776l-649 -822h1040v-160h-1264v186l620 788l-603 772v175z" />
    <glyph glyph-name="fraction" unicode="&#x2215;" horiz-adv-x="85" 
d="M267 1646h182l-635 -1701h-178z" />
    <glyph glyph-name="periodcentered" unicode="&#x2219;" horiz-adv-x="533" 
d="M261 1008q74 0 122.5 -58.5t48.5 -143.5q0 -81 -50 -144.5t-121 -63.5q-69 0 -114.5 57t-45.5 141q0 85 43.5 148.5t116.5 63.5z" />
    <glyph glyph-name="radical" unicode="&#x221a;" horiz-adv-x="1124" 
d="M1052 1869h74l-312 -1947l-496 1021l-198 -91l-34 64l301 151l405 -823z" />
    <glyph glyph-name="infinity" unicode="&#x221e;" horiz-adv-x="1460" 
d="M689 812q117 150 187 191t146 41q108 0 198 -78t90 -243q0 -186 -93 -260.5t-195 -74.5q-78 0 -148 43t-185 189q-136 -171 -288 -171q-112 0 -179.5 83t-67.5 184q0 93 63.5 180t183.5 87q152 0 288 -171zM758 717q47 -75 114 -146.5t147 -71.5q69 0 124.5 51t55.5 163
q0 104 -51.5 161t-131.5 57q-56 0 -108 -39.5t-150 -174.5zM620 716q-122 157 -220 157q-61 0 -98 -42.5t-37 -111.5q0 -67 38.5 -111.5t98.5 -44.5q100 0 218 153z" />
    <glyph glyph-name="integral" unicode="&#x222b;" horiz-adv-x="561" 
d="M201 948l13 423q6 196 26.5 273t40.5 118.5t65 71t89 29.5q54 0 89.5 -34.5t35.5 -72.5q0 -44 -25.5 -74t-66.5 -30q-35 0 -76 36q-23 20 -40 20q-40 0 -40 -63q0 -43 9 -146q37 -410 37 -683q0 -50 -12 -452.5t-77.5 -493t-149.5 -90.5q-49 0 -84 32t-35 89q0 43 25 71
t65 28t70 -33q28 -31 48 -31q39 0 39 61q0 42 -9 120q-37 315 -37 831z" />
    <glyph glyph-name="approxequal" unicode="&#x2248;" horiz-adv-x="1365" 
d="M1238 995q-167 -139 -301 -139q-66 0 -124 18t-184 80q-129 63 -198 63q-144 0 -303 -147v224q159 137 317 137q96 0 270 -84q157 -76 230 -76q131 0 293 147v-223zM1238 513q-167 -139 -301 -139q-65 0 -122 17.5t-186 80.5t-198 63q-144 0 -303 -148v224
q159 137 317 137q96 0 270 -84q157 -76 230 -76q131 0 293 148v-223z" />
    <glyph glyph-name="notequal" unicode="&#x2260;" horiz-adv-x="1365" 
d="M125 1149h598l206 524h182l-202 -524h328v-215h-412l-103 -263h515v-215h-599l-206 -523h-185l206 523h-328v215h412l103 263h-515v215z" />
    <glyph glyph-name="lessequal" unicode="&#x2264;" horiz-adv-x="1365" 
d="M1239 359l-1113 463v194l1113 465v-232l-819 -329l819 -328v-233zM126 214h1114v-214h-1114v214z" />
    <glyph glyph-name="greaterequal" unicode="&#x2265;" horiz-adv-x="1365" 
d="M126 1481l1113 -463v-195l-1113 -464v232l820 329l-820 328v233zM126 214h1114v-214h-1114v214z" />
    <glyph glyph-name="lozenge" unicode="&#x25ca;" horiz-adv-x="1012" 
d="M548 1422l418 -713l-418 -709h-111l-391 709l391 713h111zM494 1325l-340 -616l340 -615l359 615z" />
    <glyph glyph-name="fi" unicode="&#xf001;" horiz-adv-x="1003" 
d="M95 1366q38 155 143.5 219.5t316.5 64.5q310 0 310 -118q0 -37 -38 -60.5t-109 -23.5q-109 0 -146 57q-23 36 -58 36q-87 0 -87 -89v-86q34 0 44 -12t10 -69q0 -25 -19 -38q-35 -25 -35 -79v-975q0 -39 21 -64q16 -19 16 -40q0 -67 -5 -78t-32 -11h-337q-20 0 -29.5 12
t-9.5 61q0 38 17 48q27 17 27 83v964q0 54 -27 76q-25 19 -25 73q0 38 3.5 43.5t24.5 5.5h24zM574 1366h297q27 0 33 -11.5t6 -39.5v-1145q0 -28 21 -47q19 -16 19 -37v-50q0 -36 -37 -36h-349q-20 0 -27 6t-7 30v57q0 29 15 36q33 17 33 85v971q0 32 -24 45q-23 12 -23 59
q0 56 7.5 66.5t35.5 10.5z" />
    <glyph glyph-name="fl" unicode="&#xf002;" horiz-adv-x="1003" 
d="M99 1366q36 156 141 220t286 64q73 0 215 -10h139q23 0 27.5 -5.5t4.5 -32.5v-1440q0 -18 21 -36q19 -17 19 -32v-60q0 -24 -4.5 -29t-27.5 -5h-356q-23 0 -27 4t-4 24v54q0 37 19 49q28 18 28 76v1280q0 56 -65 56q-35 0 -59.5 -21.5t-24.5 -63.5v-92h21q20 0 24.5 -6
t4.5 -32l-1 -52q0 -15 -14 -24q-35 -22 -35 -91v-987q0 -30 13 -44q20 -19 20 -44q0 -64 -6.5 -75t-38.5 -11h-327q-36 0 -36 31q-1 13 -2 33q0 41 16 54q29 25 29 109v934q0 48 -29 78q-18 18 -22 38.5t-4 69.5q0 19 31 19h24z" />
    </font>
</defs>
</svg>
