<svg xmlns="http://www.w3.org/2000/svg">
<defs>
<font id="flybird" horiz-adv-x="222" >
  <font-face 
    font-family="flybird"
    font-weight="400"
    font-stretch="normal"
    units-per-em="1000"
    panose-1="2 0 5 3 0 0 0 0 0 0"
    ascent="780"
    descent="-220"
    x-height="575"
    cap-height="720"
    bbox="-20 -189 824 797"
    underline-thickness="50"
    underline-position="-100"
    unicode-range="U+0020-007E"
  />
<missing-glyph horiz-adv-x="530" 
d="M39 753h453v-942h-453v942zM445 494q0 5 -2 8.5t-6.5 6.5t-9.5 5.5t-13 4t-13 2.5t-15 2l-15 1.5l-15 1.5t-13 1l10 20q10 19 10 39q0 28 -18.5 50.5t-50.5 32.5q-13 4 -43 4q-42 0 -61 -8q-23 -10 -42.5 -29t-28.5 -41q-3 -7 -3 -12q0 -11 6.5 -25.5t13.5 -21.5l10 -11
l-13 -2q-14 -3 -14 -11q0 -26 10 -36q12 -10 159 -13q30 -1 69 -1t54 4q34 9 34 28zM168 580q15 10 74 10q14 0 19 -1q21 -2 27.5 -8.5t6.5 -23.5q0 -20 -7 -24t-43 -4q-62 0 -77 18q-8 9 -8 19q0 9 8 14zM190 429q-32 0 -59.5 -31.5t-27.5 -64.5q0 -13 5 -26
q9 -25 32.5 -44t52.5 -24q15 -3 52 -3q59 0 84 12q69 33 69 87q0 30 -15 56t-34 37q-16 9 -19 9q-8 0 -9 -48q-1 -34 -2 -42t-7 -14q-5 -5 -19 -10.5t-23 -5.5q-3 0 -3 24v10q0 33 -23.5 55.5t-53.5 22.5zM166 348q0 16 10.5 28.5t23.5 12.5q15 0 27.5 -13.5t12.5 -34.5
q0 -24 -13 -24q-14 0 -42 12q-13 6 -16 9t-3 10zM86 174q0 -6 8 -19t14 -13h2q40 16 96 28q24 4 35 4q50 0 77 -28q17 -17 17 -32q0 -6 -26 -6h-14q-92 0 -121 -11q-7 -2 -7 -10q0 -29 7 -43q6 -11 75 -17q35 -3 51 -9.5t34 -25.5l18 -18h-37q-29 0 -80.5 5t-81.5 5
q-39 0 -39 -14q0 -8 9.5 -27t16.5 -26q12 -11 63.5 -19t102.5 -8q46 0 62 8q38 21 38 47q0 13 -20 35t-41 37q-12 7 -12 11q0 2 7 2q9 0 24.5 9t21.5 17q11 15 11 33q0 23 -6.5 34t-25.5 31q-36 34 -83 49q-20 6 -62 6q-82 0 -121 -20q-13 -7 -13 -15z" />
    <glyph glyph-name=".notdef" horiz-adv-x="530" 
d="M39 753h453v-942h-453v942zM445 494q0 5 -2 8.5t-6.5 6.5t-9.5 5.5t-13 4t-13 2.5t-15 2l-15 1.5l-15 1.5t-13 1l10 20q10 19 10 39q0 28 -18.5 50.5t-50.5 32.5q-13 4 -43 4q-42 0 -61 -8q-23 -10 -42.5 -29t-28.5 -41q-3 -7 -3 -12q0 -11 6.5 -25.5t13.5 -21.5l10 -11
l-13 -2q-14 -3 -14 -11q0 -26 10 -36q12 -10 159 -13q30 -1 69 -1t54 4q34 9 34 28zM168 580q15 10 74 10q14 0 19 -1q21 -2 27.5 -8.5t6.5 -23.5q0 -20 -7 -24t-43 -4q-62 0 -77 18q-8 9 -8 19q0 9 8 14zM190 429q-32 0 -59.5 -31.5t-27.5 -64.5q0 -13 5 -26
q9 -25 32.5 -44t52.5 -24q15 -3 52 -3q59 0 84 12q69 33 69 87q0 30 -15 56t-34 37q-16 9 -19 9q-8 0 -9 -48q-1 -34 -2 -42t-7 -14q-5 -5 -19 -10.5t-23 -5.5q-3 0 -3 24v10q0 33 -23.5 55.5t-53.5 22.5zM166 348q0 16 10.5 28.5t23.5 12.5q15 0 27.5 -13.5t12.5 -34.5
q0 -24 -13 -24q-14 0 -42 12q-13 6 -16 9t-3 10zM86 174q0 -6 8 -19t14 -13h2q40 16 96 28q24 4 35 4q50 0 77 -28q17 -17 17 -32q0 -6 -26 -6h-14q-92 0 -121 -11q-7 -2 -7 -10q0 -29 7 -43q6 -11 75 -17q35 -3 51 -9.5t34 -25.5l18 -18h-37q-29 0 -80.5 5t-81.5 5
q-39 0 -39 -14q0 -8 9.5 -27t16.5 -26q12 -11 63.5 -19t102.5 -8q46 0 62 8q38 21 38 47q0 13 -20 35t-41 37q-12 7 -12 11q0 2 7 2q9 0 24.5 9t21.5 17q11 15 11 33q0 23 -6.5 34t-25.5 31q-36 34 -83 49q-20 6 -62 6q-82 0 -121 -20q-13 -7 -13 -15z" />
    <glyph glyph-name=".null" horiz-adv-x="0" 
 />
    <glyph glyph-name="nonmarkingreturn" horiz-adv-x="333" 
 />
    <glyph glyph-name="space" unicode=" " 
 />
    <glyph glyph-name="exclam" unicode="!" 
d="M76 151q4 2 17 2q39 0 60 -16q14 -12 26 -40q7 -17 7 -29t-8 -31q-19 -46 -67 -46q-29 0 -50.5 20t-21.5 54q0 25 12 52.5t25 33.5zM53 679q5 13 40 13q3 0 13 -0.5t16 -0.5l64 -3v-111q0 -74 -4.5 -105.5t-21.5 -84.5q-26 -79 -42 -99q-12 -15 -16 -15q-2 0 -13 14
q-11 16 -26 66t-24 103q-3 18 -3 51q0 47 5 100.5t12 71.5z" />
    <glyph glyph-name="quotedbl" unicode="&#x22;" horiz-adv-x="327" 
d="M222 729q40 6 45 7h1q21 0 21 -115q0 -60 -20 -89q-20 -30 -32 -30q-9 0 -29 24q-15 19 -18.5 37t-3.5 76v85zM72 729q40 6 45 7h1q21 0 21 -115q0 -60 -20 -89q-20 -30 -32 -30q-9 0 -29 24q-15 19 -18.5 37t-3.5 76v85z" />
    <glyph glyph-name="numbersign" unicode="#" horiz-adv-x="749" 
d="M399 692q20 30 30.5 41.5t20.5 11.5t23 -10q10 -7 10 -16q0 -15 -44 -128q-49 -127 -49 -134q3 -3 57 -9l53 -6l56 114q46 95 67.5 127t40.5 32q5 0 8 -1q17 -5 17 -20q0 -25 -50 -142q-45 -103 -45 -110q0 -6 66 -11q61 -5 78.5 -11.5t22.5 -26.5q2 -7 2 -20
q0 -41 -75 -41q-24 0 -57 3q-50 5 -64 5q-17 0 -22 -4t-5 -14q0 -13 35 -13q26 0 57 -19t31 -34v-3q-5 -16 -41.5 -29t-77.5 -13h-55l-31 -78q-38 -96 -68 -96q-11 0 -21 10q-15 13 -15 36q0 21 17 67q18 47 18 54t-44 7h-44l-33 -92q-31 -86 -54 -121.5t-48 -35.5
q-11 0 -27 8q-13 8 -13 31q0 35 32 125q25 68 25 73q0 3 -80 3q-59 0 -70.5 3t-15.5 21q-2 10 -2 12q0 20 32.5 31t133.5 27q25 4 34.5 10.5t17.5 26.5q13 32 13 34t-62 7q-57 5 -73 11t-16 24q0 1 0.5 5t0.5 6l2 27l91 3q63 1 78 4.5t20 17.5q10 32 48 106.5t64 113.5z
M431 354q-25 0 -48 5q-12 2 -15 2q-13 0 -22 -20q-11 -24 -11 -29q0 -3 21 -3q42 0 68 8t26 24q0 13 -19 13z" />
    <glyph glyph-name="dollar" unicode="$" horiz-adv-x="455" 
d="M228 741q5 5 36 5q19 0 24.5 -4.5t7.5 -19.5q2 -14 7.5 -20t21.5 -9q29 -6 52 -23.5t33 -40.5q11 -25 11 -73q0 -43 -10 -70q-9 -25 -27 -25q-10 0 -13 10q-7 22 -14 50q-7 25 -19 43t-21 18q-2 0 -5 -3q-7 -7 -14 -111q-4 -74 -4 -76q0 -19 3.5 -25.5t13.5 -12.5
q24 -13 58.5 -46.5t45.5 -53.5q14 -28 14 -57q0 -45 -26.5 -86t-70.5 -62q-32 -15 -39 -23t-7 -30q0 -25 -9.5 -39.5t-23.5 -14.5q-23 0 -38 36q-10 23 -20.5 31t-43.5 17q-61 17 -99 50.5t-38 69.5q0 14 7 27q21 43 42 43q13 0 33 -11q33 -17 42 -27q9 -11 32 -20
q11 -4 17 -4q8 0 12 15q6 22 6 73v54l-38 11q-123 38 -123 159q0 56 41.5 112.5t107.5 91.5q30 15 30 40q0 26 5 31zM219 455q3 17 3 40q0 12 -1 16l-3 26l-20 -32q-19 -29 -19 -45q0 -14 16 -24q10 -5 12 -5q8 0 12 24zM345 265q-31 18 -40 18q-11 0 -15.5 -15.5
t-7.5 -54.5q-3 -46 -3 -67v-4q1 -1 4 -1q13 0 42 13t40 25q16 16 16 35q0 30 -36 51z" />
    <glyph glyph-name="percent" unicode="%" horiz-adv-x="565" 
d="M461 357q6 6 13 6q10 0 23 -8q14 -9 27.5 -36.5t18.5 -59.5q2 -11 2 -35q0 -65 -22.5 -138.5t-50.5 -91.5q-14 -10 -36 -10q-14 0 -25 4q-15 6 -36.5 28t-28.5 40q-12 30 -12 68q0 47 17.5 96t47.5 82q23 24 38 33q16 9 16 11q0 3 8 11zM496 262q-8 28 -13 28q-3 0 -3 -9
q0 -12 -18 -35q-22 -29 -29.5 -54t-7.5 -70v-5q0 -48 8 -63q7 -16 16 -16q17 0 39 63q14 42 14 105q0 35 -6 56zM131 707q6 6 13 6q10 0 23 -8q14 -9 27.5 -36.5t18.5 -59.5q2 -11 2 -35q0 -65 -22.5 -138.5t-50.5 -91.5q-14 -10 -36 -10q-14 0 -25 4q-15 6 -36.5 28
t-28.5 40q-12 30 -12 68q0 47 17.5 96t47.5 82q23 24 38 33q16 9 16 11q0 3 8 11zM166 612q-8 28 -13 28q-3 0 -3 -9q0 -12 -18 -35q-22 -29 -29.5 -54t-7.5 -70v-5q0 -48 8 -63q7 -16 16 -16q17 0 39 63q14 42 14 105q0 35 -6 56zM430 644q23 31 33.5 41.5t19.5 10.5
q1 0 9 -2q21 -8 23 -21v-2q0 -32 -113 -222t-249 -387q-37 -53 -51.5 -68t-30.5 -15q-26 0 -45 21l-21 22l147 217q227 336 278 405z" />
    <glyph glyph-name="ampersand" unicode="&#x26;" horiz-adv-x="555" 
d="M214 665q23 4 49 4q78 0 133.5 -39t70.5 -106q2 -7 2 -21q0 -38 -34 -77t-109 -87q-13 -8 -26.5 -17l-21 -14t-8.5 -5v-1q0 -10 49 -71t57 -61h1q9 5 9 38q0 32 33 73q35 44 35 45h1q7 0 24 -11q26 -17 41 -51t15 -74q0 -38 -16 -76q-21 -47 -35 -60q-13 -12 -13 -36
q0 -5 2 -31l5 -53h-31q-30 0 -57 16q-24 14 -65 14q-32 0 -54 -1q-28 -2 -39 -2q-95 0 -153 45q-23 18 -41 54t-18 63q0 31 18.5 68.5t42.5 54.5l28 19l-21 42q-20 40 -35.5 89.5t-15.5 76.5q0 76 47.5 127.5t129.5 64.5zM369 517q-23 15 -82 15q-53 0 -75.5 -12.5
t-22.5 -42.5q0 -25 23 -78.5t34 -53.5q12 0 59 29t70 50q29 27 29 47q0 22 -35 46zM180 164q-31 47 -38 47q-6 0 -21 -23q-10 -16 -10 -31q0 -23 22 -38t57 -15h3q19 0 19 5q0 7 -32 55z" />
    <glyph glyph-name="quotesingle" unicode="'" horiz-adv-x="177" 
d="M72 729q40 6 45 7h1q21 0 21 -115q0 -60 -20 -89q-20 -30 -32 -30q-9 0 -29 24q-15 19 -18.5 37t-3.5 76v85z" />
    <glyph glyph-name="parenleft" unicode="(" horiz-adv-x="244" 
d="M128 718q37 55 48 55q10 0 36 -26l25 -26l-31 -75q-34 -80 -55.5 -193t-21.5 -206q0 -27 1 -39q3 -49 19.5 -90.5t59.5 -109.5q26 -41 26 -63q0 -21 -21 -30q-12 -5 -21 -5q-33 0 -71 37t-67 99q-41 85 -41 189q0 16 2 52q22 291 112 431z" />
    <glyph glyph-name="parenright" unicode=")" horiz-adv-x="239" 
d="M34 753q18 20 31 20q14 0 49.5 -45.5t59.5 -92.5q54 -109 54 -247q0 -32 -1 -48q-6 -111 -34.5 -195.5t-86.5 -161.5q-35 -47 -58 -47q-13 0 -24 11q-22 20 -22 40q0 25 34 75q70 105 86 218q8 58 8 101q0 124 -71 263l-44 88z" />
    <glyph glyph-name="asterisk" unicode="*" horiz-adv-x="410" 
d="M189 732q6 6 35 6q25 0 32.5 -12.5t7.5 -55.5v-40l35 18q25 13 39 13q10 0 19 -4q23 -10 23 -18q0 -19 -14 -38.5t-34 -29.5l-32 -15l28 -39l28 -38l-21 -23q-19 -21 -38 -21q-24 0 -53 39q-30 40 -34 40q-5 0 -38 -53q-20 -33 -31 -43.5t-26 -10.5q-22 0 -39.5 15
t-17.5 34q0 20 26 55l25 35l-40 37l-41 38l26 27q24 26 40 26q14 0 46 -21q35 -23 38 -23q5 0 5 48t6 54z" />
    <glyph glyph-name="plus" unicode="+" horiz-adv-x="636" 
d="M283 533q18 3 31 3q31 0 44 -24t19 -89l6 -64h85q62 0 77 -3.5t35 -23.5q22 -22 22 -41q0 -20 -25 -45q-10 -11 -29 -15t-70 -6l-81 -3l3 -77l2 -77l-49 -17q-39 -13 -54 -13q-21 0 -28.5 18t-12.5 67q-6 59 -9 79l-4 28l-75 6q-72 5 -107 15q-19 5 -24.5 8.5t-5.5 14.5
q0 4 2 24q5 37 13 47q7 8 103 12l94 3v62q0 57 8.5 82t29.5 29z" />
    <glyph glyph-name="comma" unicode="," horiz-adv-x="234" 
d="M74 167q14 7 32 7q29 0 55 -20t34 -51q4 -18 4 -22q0 -16 -29 -59q-26 -38 -58.5 -67t-47.5 -29q-8 0 -8 10q0 7 19 45l18 36l-26 24q-26 25 -32 45q-2 8 -2 13q0 19 11.5 39t29.5 29z" />
    <glyph glyph-name="hyphen" unicode="-" horiz-adv-x="414" 
d="M124 367q67 9 127 9q83 0 102 -15q22 -16 22 -54q0 -23 -9 -46q-7 -17 -16 -24t-28 -11q-18 -3 -59 -3q-62 0 -132 6.5t-77 13.5q-12 12 -16 55q-1 7 -1 19q0 25 16.5 34t70.5 16z" />
    <glyph glyph-name="period" unicode="." horiz-adv-x="206" 
d="M52 125q17 26 53 26q27 0 44 -17q19 -19 19 -53t-22 -61q-20 -24 -54 -24q-26 0 -41 15q-14 13 -14 53q0 38 15 61z" />
    <glyph glyph-name="slash" unicode="/" horiz-adv-x="523" 
d="M429 644q24 32 33.5 42t18.5 10q2 0 10 -2q21 -8 23 -21v-2q0 -32 -113 -222t-249 -387q-37 -53 -51.5 -68t-30.5 -15q-26 0 -45 21l-21 22l146 217q216 320 279 405z" />
    <glyph glyph-name="zero" unicode="0" horiz-adv-x="454" 
d="M275 751q13 13 28 13q18 0 45 -17q29 -17 55.5 -73t36.5 -119q4 -28 4 -70q0 -130 -46 -276t-101 -183q-31 -20 -71 -20q-29 0 -49 8q-30 11 -72 55t-58 80q-25 57 -25 137q0 95 35 192.5t95 162.5q44 48 77 66q32 18 32 23q0 7 14 21zM346 562q-16 56 -27 56
q-5 0 -5 -18q0 -22 -36 -71q-45 -58 -60 -108t-15 -139v-10q0 -92 17 -126q17 -33 33 -33q34 0 77 127q28 80 28 209q0 71 -12 113z" />
    <glyph glyph-name="one" unicode="1" horiz-adv-x="260" 
d="M74 707q48 39 58 39t35 -18q27 -20 41 -73t22 -171q4 -47 4 -122q0 -112 -8.5 -216.5t-19.5 -119.5q-8 -11 -20 -11t-41 7q-33 8 -44 15t-21 27q-11 25 -11 59q0 30 6 117q10 132 10 231v85l-28 8q-28 7 -45 32q-13 17 -13 24t11 24q17 25 64 63z" />
    <glyph glyph-name="two" unicode="2" horiz-adv-x="438" 
d="M218 710q16 3 32 3q53 0 98 -29t72 -80q22 -44 22 -73q0 -6 -2 -24q-13 -137 -223 -339l-67 -64h106h106l14 -28q10 -17 10 -28q0 -9 -7 -23l-12 -24l-135 -3h-48q-99 0 -136 10q-35 9 -41.5 15t-8.5 31v5q0 38 41 117.5t98 149.5q136 166 136 200q0 21 -28 45t-52 24
q-29 0 -59 -30t-30 -58q0 -24 -17 -41q-13 -11 -16 -11q-4 0 -11 13q-10 19 -10 47q0 47 25 92q21 38 61.5 67t81.5 36z" />
    <glyph glyph-name="three" unicode="3" horiz-adv-x="469" 
d="M133 700q66 10 125 10q77 0 111 -17q34 -18 46 -18q16 0 16 -17q0 -47 -96 -174q-59 -79 -59 -81t36 -7q61 -8 105 -61.5t44 -117.5l-3 -27q-11 -68 -64.5 -131t-115.5 -81q-39 -11 -82 -11q-119 0 -192 59q-22 18 -22 28q0 4 7 29q7 21 17 32t32 22q26 13 36 13t30 -13
q49 -29 93 -29q61 0 97 51q25 35 25 60q0 28 -32 51q-22 17 -38.5 21t-62.5 4q-60 0 -79 11t-24 48q-1 4 -1 12q0 15 16 36.5t75 83.5q94 99 94 109q0 9 -43 9q-41 0 -100 11l-58 11l3 31q4 32 5 33q3 3 59 10z" />
    <glyph glyph-name="four" unicode="4" horiz-adv-x="420" 
d="M229 678q17 26 24.5 33t19.5 7q5 0 19 -2q27 -3 37.5 -9.5t10.5 -22.5q0 -12 -6 -38q-8 -36 -65.5 -159t-91.5 -176l-24 -39l47 3l47 3l10 53q14 72 25.5 87.5t49.5 15.5q28 0 37 -3.5t13 -14.5q6 -17 11 -122.5t5 -184.5q0 -53 -4 -61q-7 -12 -38.5 -23t-60.5 -11
q-52 0 -52 90q0 42 -9 52t-47 10q-32 0 -93 14.5t-70 23.5q-7 7 -7 29q0 15 3 37q4 34 21.5 72.5t72.5 136.5q91 163 115 199z" />
    <glyph glyph-name="five" unicode="5" horiz-adv-x="479" 
d="M47 725q16 12 98 12q66 0 153 -9t94 -16q12 -12 12 -40t-12 -47l-17 -28l-97 17q-96 16 -106 16q-5 0 -5 -20q0 -22 4 -53l8 -74h83q58 0 76 -4t45 -23q38 -26 58 -57t31 -78q6 -26 6 -52q0 -108 -78.5 -194.5t-181.5 -86.5q-72 0 -119.5 32t-53.5 85q-1 7 -1 19
q0 24 17 45q18 23 36 23q3 0 17 -2q28 -3 66 -20q24 -11 40 -11q27 0 62 29q25 21 40 54.5t15 66.5q0 32 -14 52q-15 22 -43 34.5t-55 12.5q-37 0 -50 -20q-9 -14 -22 -17.5t-52 -3.5q-60 0 -68 13q-7 10 -7 120v53q1 107 5 135.5t16 36.5z" />
    <glyph glyph-name="six" unicode="6" horiz-adv-x="463" 
d="M238 738q35 16 49 16q12 0 40 -11q40 -16 69.5 -67.5t35.5 -112.5q0 -2 0.5 -5t0.5 -4q0 -10 -3.5 -14t-13.5 -6h-5q-15 0 -20 15q-8 26 -36 49.5t-46 23.5q-12 0 -12 -13t-31 -70q-36 -66 -36 -82q0 -14 31 -18q34 -5 86 -54t75 -98q23 -47 23 -110q0 -68 -28 -123
q-57 -110 -157 -110q-40 0 -84 21q-72 35 -112.5 115.5t-40.5 188.5q0 38 6 80q19 145 75.5 249.5t133.5 139.5zM335 329q-25 22 -47 22q-21 0 -31 -16q-14 -21 -14 -31t-23 -44q-18 -27 -18 -52q0 -28 27 -70q33 -48 72 -48q16 0 27 8q52 35 52 116q0 74 -45 115z" />
    <glyph glyph-name="seven" unicode="7" horiz-adv-x="424" 
d="M186 719q105 5 138 5q60 0 93 -13q13 -5 17.5 -9t4.5 -12q0 -3 -2 -17q-6 -31 -47 -119q-80 -175 -113 -272t-33 -161q0 -31 -6 -40t-43 -30q-48 -27 -81 -27q-20 0 -29 11q-17 22 -17 72q0 75 32.5 188.5t84.5 214.5q38 74 39 77q0 5 -80 16q-85 11 -117 20
q-23 7 -28 13t-5 27q0 11 2 18t10 13t19 9.5t35 6.5t51.5 5t74.5 4z" />
    <glyph glyph-name="eight" unicode="8" horiz-adv-x="481" 
d="M199 792q14 5 40 5q57 0 103 -23q107 -54 107 -170q0 -88 -66 -176l-22 -30l41 -52q63 -80 63 -153q0 -43 -23 -89q-30 -58 -96 -93t-139 -35q-71 0 -123 34q-31 20 -49.5 55t-18.5 71q0 12 1 18q4 30 43.5 94.5t68.5 90.5l18 17l-30 34q-75 83 -75 177q0 72 44 137
t113 88zM344 631q-31 22 -63 22q-33 0 -56.5 -22.5t-23.5 -56.5q0 -25 13 -50q10 -19 44.5 -50t45.5 -31q8 0 35 42q28 44 28 89q0 41 -23 57zM263 260q-45 49 -59 49q-18 0 -50 -61t-32 -94q0 -3 2 -9q10 -27 57 -27q41 0 81 20.5t44 48.5v5q0 22 -43 68z" />
    <glyph glyph-name="nine" unicode="9" horiz-adv-x="478" 
d="M194 759q48 23 64 23q27 0 60 -12t49 -28q22 -22 45 -24q25 -2 31 -36.5t12 -200.5q3 -72 3 -125q0 -95 -10.5 -145t-36.5 -88q-52 -79 -172 -100q-25 -4 -52 -4q-101 0 -135 84q-11 28 -11 31q0 5 13 5q12 0 42 15t99 26q70 11 85 26q14 14 17 91l4 77l-35 -27
q-54 -42 -113 -42q-43 0 -77 23t-50 66q-13 33 -13 73q0 84 51.5 168.5t129.5 123.5zM329 659q-4 7 -13 7q-18 0 -46 -31q-86 -95 -86 -161q0 -10 3 -21q6 -18 20 -18q17 0 57 25l40 26l15 83q11 58 11 84v4z" />
    <glyph glyph-name="colon" unicode=":" horiz-adv-x="206" 
d="M52 495q17 26 53 26q27 0 44 -17q19 -19 19 -53t-22 -61q-20 -24 -54 -24q-26 0 -41 15q-14 13 -14 53q0 38 15 61zM52 125q17 26 53 26q27 0 44 -17q19 -19 19 -53t-22 -61q-20 -24 -54 -24q-26 0 -41 15q-14 13 -14 53q0 38 15 61z" />
    <glyph glyph-name="semicolon" unicode=";" horiz-adv-x="234" 
d="M52 495q17 26 53 26q27 0 44 -17q19 -19 19 -53t-22 -61q-20 -24 -54 -24q-26 0 -41 15q-14 13 -14 53q0 38 15 61zM74 167q14 7 32 7q29 0 55 -20t34 -51q4 -18 4 -22q0 -16 -29 -59q-26 -38 -58.5 -67t-47.5 -29q-8 0 -8 10q0 7 19 45l18 36l-26 24q-26 25 -32 45
q-2 8 -2 13q0 19 11.5 39t29.5 29z" />
    <glyph glyph-name="less" unicode="&#x3c;" horiz-adv-x="317" 
d="M213 441q46 26 54 26q9 0 25 -27q10 -17 10 -27q0 -14 -15.5 -30t-59.5 -51q-64 -51 -64 -56q0 -7 55 -49q67 -51 67 -86q0 -22 -21 -46q-14 -16 -34 -16q-46 0 -136 80q-27 23 -61 62l-25 29l19 39q20 41 55.5 70t130.5 82z" />
    <glyph glyph-name="equal" unicode="=" horiz-adv-x="430" 
d="M102 262q33 4 98 4q167 0 184 -14q20 -17 20 -48q0 -24 -11 -43.5t-30 -23.5q-6 -1 -30 -1q-58 0 -154 9.5t-117 18.5q-15 6 -20.5 10.5t-5.5 13.5q0 2 4 22q8 33 16.5 40.5t45.5 11.5zM30 426l12 41h152q111 0 134.5 -3t40.5 -20q20 -20 20 -43t-21 -43
q-10 -10 -19 -13.5t-31 -3.5q-6 0 -78 4q-194 13 -212 31q-4 4 -4 14q0 14 6 36z" />
    <glyph glyph-name="greater" unicode="&#x3e;" horiz-adv-x="362" 
d="M42 492q7 10 21 10q17 0 62 -21q46 -22 123 -69.5t97 -66.5q18 -17 18 -33q0 -8 -3 -20q-7 -33 -27 -47q-23 -15 -105 -110q-83 -96 -101 -103q-6 -2 -8 -2q-14 0 -40 29q-31 33 -31 46q0 11 77 90l77 79q-41 28 -90 61q-65 44 -84.5 60t-19.5 29q0 10 9 26q15 30 25 42z
" />
    <glyph glyph-name="question" unicode="?" horiz-adv-x="434" 
d="M164 164q4 12 19 12q20 0 48 -17.5t45 -42.5q17 -26 17 -56q0 -35 -21 -60t-53 -25q-60 0 -77 64q-5 17 -5 26q0 14 27 99zM116 727q37 18 80 18q71 0 133 -43.5t79 -109.5q5 -22 5 -38q0 -42 -32.5 -83t-112.5 -104q-64 -50 -84 -64.5t-29 -14.5q-5 0 -12 7
q-11 11 -11 26q0 38 76 114q66 64 72 82q1 2 1 7q0 24 -34 47.5t-70 23.5q-27 0 -57 -31q-18 -19 -40 -34.5t-31 -15.5q-7 0 -14.5 27t-7.5 53q0 3 0.5 7.5t0.5 6.5q10 80 88 119z" />
    <glyph glyph-name="at" unicode="@" horiz-adv-x="715" 
d="M369 719q33 5 59 5q107 0 182 -69q42 -38 59 -76.5t18 -94.5v-3q0 -95 -77 -202q-62 -87 -116 -87q-33 0 -63 32q-23 24 -30 24q-6 0 -10 -6q-11 -13 -43 -22q-18 -4 -25 -4q-40 0 -72 47q-20 29 -20 59q0 51 60 105q47 42 94 42q48 0 93 -47q22 -23 31 -41t15 -49
q9 -51 14 -56q1 -1 2 -1q9 0 34 32.5t38 62.5q22 47 22 91q0 66 -46 109t-123 43l-1 -1q-100 0 -196.5 -58t-118.5 -130q-6 -18 -6 -30q0 -16 12 -46q14 -35 48 -75.5t68 -61.5q28 -18 112.5 -49.5t103.5 -31.5t19 -7q0 -8 -34 -31q-59 -40 -125 -40q-111 0 -224 113
q-60 61 -81 106.5t-21 117.5v7q0 43 4 64t17 45q40 79 129.5 137t197.5 77zM386 290q13 14 13 40q0 2 -0.5 5t-0.5 5l-2 33l-18 -20q-12 -14 -26 -40.5t-14 -35.5q0 -5 8 -5q25 0 40 18z" />
    <glyph glyph-name="A" unicode="A" horiz-adv-x="467" 
d="M204 695q25 16 54 16q46 0 88 -41.5t63 -112.5q28 -93 28 -267q0 -37 -4 -117q-8 -144 -24 -156q-10 -7 -32 -7q-32 0 -32 10l1 1v1v1q0 7 -20 9q-10 1 -14.5 2.5t-6.5 5.5t-2 13q0 10 1 18t1 19q0 13 -4.5 16.5t-22.5 6.5q-22 4 -119 10l-89 6l-6 -28q-6 -32 -6 -53
q0 -16 -5 -21.5t-21 -7.5l-27 -4v87q0 126 57 340q53 199 142 253zM298 572q-20 62 -50 62q-5 0 -11 -3q-59 -23 -121 -256q-21 -81 -21 -92q0 -19 17 -24t69 -6h24l112 -2l-4 144q-4 143 -15 177z" />
    <glyph glyph-name="B" unicode="B" horiz-adv-x="541" 
d="M144 687q40 13 89 13q25 0 40 -1q71 -3 112.5 -18.5t69.5 -48.5q22 -26 22 -50q0 -12 -1 -20q-3 -26 -12.5 -41.5t-41.5 -45.5q-40 -37 -40 -46q0 -3 6 -5q31 -9 64.5 -30t46.5 -39q24 -34 24 -75q0 -56 -42.5 -108t-113.5 -79q-55 -21 -159 -21q-21 0 -101 2
q-65 2 -81 11.5t-16 55.5q0 10 1.5 34t1.5 37q6 130 28.5 266t45.5 176q9 16 57 33zM321 576q-36 10 -90 16l-51 6l-5 -48q-11 -108 -11 -121q0 -12 2.5 -15t8.5 -3h1q36 0 111 55t75 81v2q-3 16 -41 27zM320 339q-58 14 -118 14q-16 0 -21 -1q-30 -6 -30 -111v-43h60
q61 0 92 9q34 10 63 31t31 37q0 1 1 3q0 16 -23 34.5t-55 26.5z" />
    <glyph glyph-name="C" unicode="C" horiz-adv-x="482" 
d="M198 667q34 18 62 18h1q26 0 55 -16.5t44 -39.5q11 -17 16 -17q3 0 6 6q5 14 37 14q20 0 27.5 -4.5t12.5 -18.5q9 -23 9 -73q0 -32 -5 -75q-4 -30 -9.5 -35.5t-33.5 -7.5q-30 -2 -36 -2q-19 0 -25 5.5t-6 21.5q0 4 2 22q1 10 1 24q0 16 -5.5 26.5t-22.5 29.5
q-30 34 -44 34t-44 -43.5t-51 -94.5q-23 -57 -23 -134q0 -59 13.5 -111t36.5 -78q15 -16 43 -16q38 0 101 30l63 30v-28q0 -37 -36 -85.5t-79 -70.5q-46 -23 -86 -23q-92 0 -154 93.5t-62 242.5v1q0 79 16.5 138.5t54.5 118.5q31 47 58.5 74t62.5 44z" />
    <glyph glyph-name="D" unicode="D" horiz-adv-x="529" 
d="M85 677q37 17 105 17q66 0 118 -19q74 -28 129 -98.5t71 -158.5q4 -20 4 -44q0 -150 -173 -257q-125 -78 -246 -78h-3q-28 0 -38 4t-20 19q-13 20 -13 44v3q2 26 11 213q10 212 14 264l5 74zM216 606q-43 27 -53 27q-11 0 -11 -19q0 -5 4 -33q5 -32 5 -139q0 -36 -2 -122
q-2 -104 -2 -137q0 -73 3 -73q14 0 60.5 31.5t68.5 55.5q71 78 71 166q0 72 -38 135.5t-106 107.5z" />
    <glyph glyph-name="E" unicode="E" horiz-adv-x="406" 
d="M105 703q28 5 105 5q147 0 172 -10q14 -6 14 -31q0 -26 -15 -53q-13 -24 -27 -24q-3 0 -15 2q-25 5 -96 11q-22 2 -48 2q-18 0 -18 -6q0 -1 2 -7q7 -18 15 -78.5t8 -95.5v-42l42 -3l42 -2v-49v-49l-44 -4l-44 -4l-7 -79q-5 -53 -5 -73l1 -8q4 -4 87 -13q127 -14 127 -50
q0 -13 -19 -26q-23 -15 -126 -19q-106 -4 -123 -13q-14 -6 -19 -6q-20 0 -55 44l-24 30l12 71q13 76 13 103q0 32 -12 37q-9 4 -17 22.5t-8 35.5q0 12 4 17q9 11 25 11q10 0 13.5 11t5.5 49q1 22 1 65q0 141 -15 141q-28 0 -37 37q-2 12 -2 14q0 12 22 20q30 11 65 17z" />
    <glyph glyph-name="F" unicode="F" horiz-adv-x="394" 
d="M165 716q112 13 155 13q75 0 75 -33q0 -13 -14.5 -50t-24.5 -48h-2q-11 0 -43 8q-30 8 -87 17l-44 6l6 -53q6 -58 6 -141v-87l74 6q37 3 53 3q15 0 19 -3t7 -15q6 -24 6 -45t-14.5 -26.5t-85.5 -12.5q-60 -5 -60 -7l-1 -11q-1 -11 -3 -32.5t-4 -42.5q-12 -132 -53 -145
q-9 -3 -18 -3q-31 0 -50 50q-10 27 -13 70t-3 175q0 205 7 263q3 32 3 43t-3.5 14t-13.5 5q-11 1 -15.5 7.5t-6.5 22.5q0 2 -0.5 5t-0.5 4q0 18 24.5 25t124.5 18z" />
    <glyph glyph-name="G" unicode="G" horiz-adv-x="532" 
d="M200 713q34 16 65 16q24 0 59 -15.5t49 -32.5q8 -10 12 -10q5 0 16 15l15 21l41 -20q38 -18 38 -34v-6q-1 -4 -7 -31.5t-9 -45.5q-11 -59 -21 -79q-16 -32 -53 -32q-15 0 -29 7q-15 7 -19.5 14.5t-4.5 30.5q0 3 0.5 13t0.5 17l1 63l-29 14q-28 14 -40 14q-20 0 -57 -77
t-50 -145q-8 -39 -8 -114q0 -98 13 -147q12 -47 37 -74t56 -27q19 0 38 10q59 31 59 79v34l-49 6q-48 5 -52 11q-5 7 -10 43q-3 17 -3 25q0 10 5 14.5t23 11.5q33 14 119 14h86l2 -158q0 -18 0.5 -43t0.5 -34q0 -54 -3 -69.5t-13 -21.5t-18 -6q-9 0 -19 6q-19 10 -44 10
q-34 0 -68 -19q-54 -30 -106 -30q-75 0 -130.5 56.5t-74.5 155.5q-9 45 -9 112q0 148 29 233q30 86 72 144.5t89 80.5z" />
    <glyph glyph-name="H" unicode="H" horiz-adv-x="487" 
d="M49 681q14 14 43 14q38 0 47 -18q11 -21 16 -156q4 -91 6.5 -112.5t11.5 -21.5q4 0 6 1q26 5 82 10q55 5 63.5 16.5t14.5 84.5q5 62 15 117q7 36 12.5 44t27.5 13q14 2 19 2q15 0 19 -4q23 -23 23 -188q0 -55 -5 -138q-1 -21 -3 -60q-13 -221 -21 -244q-6 -13 -19 -18
q-3 -1 -4 -1q-30 -10 -57 -10q-25 0 -34.5 14t-9.5 55q0 26 5 89q9 101 9 111q0 21 -5.5 27t-21.5 6q-2 0 -9 -0.5t-11 -0.5q-50 0 -75 -5l-28 -6l2 -105v-31q0 -76 -5 -81q-7 -7 -50 -7q-59 0 -69 10q-7 7 -12.5 114t-5.5 223q0 79 3 130q7 113 20 126z" />
    <glyph glyph-name="I" unicode="I" horiz-adv-x="207" 
d="M77 704q5 16 48 16q30 0 37.5 -3t11.5 -19q1 -4 1 -34q0 -76 -6 -194q-3 -66 -8.5 -181t-6.5 -131q-6 -109 -12 -120q-8 -12 -45 -12q-55 0 -67 18q-11 15 -11 108q0 125 18 300t40 252z" />
    <glyph glyph-name="J" unicode="J" horiz-adv-x="460" 
d="M285 723q15 3 70 3h23q49 -1 60 -4.5t13 -17.5l1 -1v-2q0 -24 -15 -54q-18 -39 -18 -101q0 -52 -14 -166t-28 -185q-27 -126 -96 -173q-35 -23 -78 -23q-79 0 -144.5 67t-65.5 156v1q0 47 18 65q13 13 20 13q5 0 15 -10q18 -16 23 -51q15 -91 65 -112q19 -8 29 -8
q21 0 27 31q1 4 4.5 19.5t7.5 34t7 33.5q13 57 45 334l5 41l-51 3q-35 1 -44.5 5.5t-15.5 22.5q-5 13 -5 19q0 9 13 18q12 9 52.5 22t76.5 20z" />
    <glyph glyph-name="K" unicode="K" horiz-adv-x="458" 
d="M89 704q29 10 38 10q8 0 17 -16t18.5 -74t12.5 -112l3 -43l48 75q108 168 130 168q12 0 35 -23q15 -15 15 -23q0 -12 -17 -39.5t-70 -101.5q-75 -106 -75 -113q0 -6 22 -28q39 -36 146 -220l49 -84l-55 -53q-49 -47 -66 -47h-2q-13 6 -84 145l-71 140v-102
q0 -85 -4.5 -111t-21.5 -37q-7 -4 -15 -4q-11 0 -38 12t-42 12q-4 0 -5 -1q-4 -2 -5 -2q-7 0 -12 8q-7 12 -7 311q0 282 6 312q4 17 13 24.5t37 16.5z" />
    <glyph glyph-name="L" unicode="L" horiz-adv-x="361" 
d="M87 635l18 42l40 -6q42 -6 50 -14q8 -6 8 -48v-6q-2 -61 -21.5 -252.5t-26.5 -208.5l-8 -22l88 -3q53 -2 75 -6.5t37 -15.5q28 -21 28 -42q0 -19 -24 -32t-66 -16h-30q-64 0 -141 8t-87 17q-13 11 -13 44q0 26 9 29q5 2 5 11q0 12 -5 30q-6 21 -6 63q0 93 22 229.5
t48 198.5z" />
    <glyph glyph-name="M" unicode="M" horiz-adv-x="714" 
d="M508 589l73 113l44 -2l45 -2l5 -40q2 -18 2 -61q0 -91 -4 -182t-4 -200q0 -52 2 -88l6 -85l-64 -21q-47 -16 -59 -16q-9 0 -13 7q-7 10 -7 154v77l3 217l-21 -26q-94 -118 -188 -165l-68 -34l-74 128l-74 127l-6 -86q-4 -60 -6 -207q-1 -112 -6 -143t-24 -31h-6l-23 3
l-6 239q-5 175 -5 278v35q1 49 5 63.5t17 21.5q16 7 33 22q6 5 13 5q9 0 37 -19q67 -46 175 -206l50 -74l37 43q49 58 111 155z" />
    <glyph glyph-name="N" unicode="N" horiz-adv-x="537" 
d="M118 727q9 9 15 9q10 0 39 -32q22 -25 89.5 -157t103.5 -220l21 -52l7 52q39 305 51 336q8 21 25 21q1 0 3.5 -0.5t4.5 -0.5l24 -2v-146q0 -183 -8.5 -332t-19.5 -160q-27 -27 -118 -32q-4 0 -10.5 -1t-9.5 -1q-17 0 -33 31t-76 176q-17 41 -27 65l-87 210l-3 -186
q-2 -128 -6 -165t-21 -37q-8 0 -32 12l-31 17l4 102q3 70 9 265q5 152 12 184.5t36 33.5q28 0 38 10z" />
    <glyph glyph-name="O" unicode="O" horiz-adv-x="568" 
d="M182 723q28 14 63 14q50 0 118 -28q90 -38 130 -106.5t50 -200.5q2 -40 2 -55q0 -92 -40 -205q-31 -85 -91 -134.5t-132 -49.5q-18 0 -41 5q-52 11 -86 29.5t-66 55.5q-40 45 -58 98.5t-22 136.5q-1 12 -1 37q0 140 48 251.5t126 151.5zM339 614q-38 32 -62 32
q-17 0 -29 -14q-13 -15 -31.5 -70t-29.5 -110q-7 -34 -7 -106q0 -127 16 -180q11 -37 45 -70.5t67 -39.5q9 -2 24 -2q20 0 32 12.5t25 45.5q11 28 14 66t4 140v30q0 129 -13 179.5t-55 86.5z" />
    <glyph glyph-name="P" unicode="P" horiz-adv-x="521" 
d="M128 741q67 14 121 14q109 0 177.5 -49.5t81.5 -141.5q2 -16 2 -25q0 -52 -25 -110.5t-63 -93.5q-32 -29 -86.5 -50t-99.5 -21h-55l-5 -45q-6 -50 -6 -136v-23q0 -58 -10.5 -68t-74.5 -17q-38 -4 -40 -4q-13 0 -17 4.5t-7 17.5q-1 3 -1 23q0 80 12.5 307.5t20.5 286.5
q3 22 3 38t-3 17q-8 5 -13 24q-1 3 -1 9q0 13 19.5 22.5t69.5 20.5zM299 655q-36 10 -82 10q-28 0 -36.5 -1.5t-8.5 -8.5q0 -2 2 -10q5 -18 5 -149v-128h22q22 0 59.5 14.5t61.5 31.5q29 22 46 59t17 75q0 53 -29 78q-24 20 -57 29z" />
    <glyph glyph-name="Q" unicode="Q" horiz-adv-x="589" 
d="M204 757q45 24 88 24q33 0 69 -11q44 -13 73.5 -37t59.5 -71q72 -113 72 -263v-5q0 -98 -15.5 -151t-63.5 -121l-31 -44l24 -49l25 -50l-18 -24q-26 -35 -58 -35q-41 0 -69 57q-8 17 -13 22.5t-17 5.5q-10 0 -26 -3q-43 -6 -75 -14q-20 -5 -34 -5q-61 0 -108.5 54
t-67.5 148q-12 59 -12 113q0 57 13 128q21 122 70 209.5t114 121.5zM359 594q-36 85 -49 87h-3q-16 0 -40 -23.5t-40 -55.5q-65 -128 -65 -285q0 -56 10 -97q13 -54 28 -75t41 -21q30 0 30 14q0 5 -9 28q-11 28 -11 42q0 21 28 40q19 13 29 13q11 0 24 -11.5t39 -44.5
q28 -36 38 -36q3 0 5 3q7 11 7 86q0 116 -13 184q-13 66 -49 152z" />
    <glyph glyph-name="R" unicode="R" horiz-adv-x="583" 
d="M218 767q14 3 40 3q102 0 167 -20q51 -15 92 -56.5t51 -89.5q5 -27 5 -50q0 -111 -89 -200q-30 -30 -76.5 -58t-66.5 -28q-13 0 -13 -5q0 -7 43 -66q41 -56 69 -106t28 -66v-3q-4 -10 -55 -32t-68 -22h-3q-8 5 -31 46q-29 51 -78 128l-55 85l-3 -103q-2 -89 -13 -107
t-63 -18h-2q-49 0 -63 21t-14 98q0 93 10.5 242.5t21.5 220.5q9 54 9 86q0 8 -1 10t-1 4q0 20 49.5 47t109.5 39zM323 679q-51 24 -115 24q-37 0 -37 -11q0 -3 3 -6q11 -12 11 -97q0 -8 -0.5 -29.5t-0.5 -35.5q-1 -39 -1 -89q0 -41 3 -49.5t14 -8.5q39 0 125 65
q74 57 87 125q2 14 2 18q0 19 -21 44q-22 27 -70 50z" />
    <glyph glyph-name="S" unicode="S" horiz-adv-x="478" 
d="M171 723q35 13 53 13q23 0 59 -19.5t55 -41.5l25 -29l14 28q8 15 14 20.5t16 5.5q11 0 26 -4q13 -4 17 -12.5t4 -34.5q0 -36 -10 -100q-12 -75 -17.5 -87.5t-31.5 -12.5h-17q-39 0 -55 7t-16 27q0 13 8 39q9 30 9 40t-11 23q-15 17 -41 17q-16 0 -25 -8t-23 -37
q-22 -44 -22 -62t16 -33.5t60 -44.5q68 -45 103.5 -87.5t46.5 -94.5q5 -21 5 -50q0 -64 -39 -109t-111 -64q-32 -8 -62 -8q-66 0 -124 28t-82 73q-15 27 -15 40q0 7 8 25q12 25 32 25q21 0 67 -31q59 -39 113 -39q23 0 44 8q27 11 27 18q0 17 -41.5 59.5t-90.5 75.5
q-65 44 -91.5 76.5t-36.5 78.5q-5 25 -5 48q0 76 41.5 144t103.5 90z" />
    <glyph glyph-name="T" unicode="T" horiz-adv-x="472" 
d="M35 720q35 7 201 7h34q117 0 151.5 -8.5t48.5 -39.5q7 -14 7 -25q0 -19 -33 -38q-24 -14 -66 -14q-18 0 -29 1l-67 3l1 -267l1 -268l-21 -5q-16 -4 -53 -4q-5 0 -15.5 0.5t-15.5 0.5l-63 3l2 139q2 188 27 366l5 37l-53 6q-63 7 -77.5 13t-14.5 28q0 2 0.5 8t0.5 10
q2 29 6 36t23 11z" />
    <glyph glyph-name="U" unicode="U" horiz-adv-x="548" 
d="M454 713q18 5 26 5q15 0 20 -17.5t11 -78.5q3 -38 3 -116q0 -113 -5.5 -234.5t-12.5 -130.5q-10 -12 -21 -47q-14 -42 -51.5 -79t-80.5 -49q-37 -10 -63 -10q-90 0 -156 73.5t-91 203.5q-10 50 -10 229q0 141 8 171q9 28 48 47q40 20 50 20h1q34 0 47 -198
q12 -181 26.5 -253.5t44.5 -101.5q20 -20 38 -20q3 0 21 2q36 6 64 22t38 37q10 20 20 161.5t10 253.5q0 70 2.5 88.5t12.5 21.5z" />
    <glyph glyph-name="V" unicode="V" horiz-adv-x="518" 
d="M72 737q34 6 45 6h3q20 -2 39 -55t52 -195q60 -255 71 -255q2 0 3 3q5 11 38 159q58 255 89 305q15 23 40 23q22 0 43.5 -14t21.5 -28q0 -10 -35 -132q-58 -200 -76 -263q-65 -230 -87 -230q-9 0 -44 -23q-33 -22 -55 -22q-27 0 -50 30.5t-47 97.5q-41 113 -71.5 270
t-30.5 246q0 44 9 58q7 12 42 19z" />
    <glyph glyph-name="W" unicode="W" horiz-adv-x="838" 
d="M73 711q40 20 55 20h2q24 -13 69 -214q70 -312 82 -312q5 0 81 154q47 96 64.5 124.5t29.5 28.5q19 0 29 10q6 6 14 6q41 0 110 -198l37 -107l16 104q13 85 38.5 190.5t46.5 160.5q11 31 19 38.5t28 9.5l30 3l-6 -75q-5 -70 -24 -187q-19 -121 -28 -235q-8 -100 -19 -131
t-39 -31q-23 0 -28 -12q-5 -13 -48 -31t-67 -18h-4q-23 2 -36.5 31.5t-48.5 155.5l-39 136l-59 -119q-62 -123 -68 -147q-5 -19 -13.5 -23.5t-47.5 -6.5q-55 -3 -68 -16q-7 -7 -11 -7q-7 0 -22 33q-39 82 -83.5 288.5t-44.5 301.5q0 14 1 20q2 21 10.5 30t41.5 25z" />
    <glyph glyph-name="X" unicode="X" horiz-adv-x="549" 
d="M55 714q41 32 48 32q9 0 54.5 -51t88.5 -109q51 -70 60 -70q8 8 61 102l55 96h34q34 -2 48 -16q10 -10 10 -17q0 -8 -12 -32q-16 -35 -74 -130q-57 -94 -57 -105q0 -9 81 -142t81 -153q0 -19 -14 -29t-70 -31l-60 -23l-61 103q-61 102 -66 102q-6 0 -49 -65t-69 -98
q-22 -28 -33 -28q-7 0 -20 5q-26 10 -26 23q0 33 86 177l51 86l-85 127q-112 167 -112 199q0 5 3 8q10 10 47 39z" />
    <glyph glyph-name="Y" unicode="Y" horiz-adv-x="541" 
d="M461 768q14 14 24 14q42 0 42 -159q0 -92 -38 -181.5t-101 -145.5l-31 -27l5 -121l6 -122l-25 -9q-26 -10 -85 -10h-61l-6 75q-6 82 -6 116q0 30 -6 39t-35 27q-81 48 -109 159q-11 41 -11 137q0 126 17 163q9 19 20 23.5t58 6.5l65 3l9 -34q7 -30 7 -125v-24v-48
q0 -44 3 -60.5t14 -30.5q33 -44 91 -44q15 0 26 4q53 18 89 89t36 154q0 29 -4 50q-8 50 -8 57q0 10 14 24z" />
    <glyph glyph-name="Z" unicode="Z" horiz-adv-x="510" 
d="M90 772q26 7 148 7q9 0 28 -0.5t29 -0.5q142 -2 167 -11q24 -9 26 -40q1 -9 1 -30v-4q0 -44 -24 -85t-121 -165q-55 -70 -111 -151.5t-56 -91.5v-1h5q27 0 87 6q90 9 141 9h51l5 -34q11 -65 11 -99q0 -21 -5 -29t-46 -10.5t-164 -2.5h-13q-192 0 -212 6q-17 5 -21 13
t-4 42q0 31 8.5 55t37.5 78q69 128 208 291q67 78 67 84q-3 3 -144 12t-154 14q-14 6 -14 59q0 44 10 55.5t59 23.5z" />
    <glyph glyph-name="bracketleft" unicode="[" horiz-adv-x="262" 
d="M60 751q12 12 54 12q4 0 13.5 -0.5t15.5 -0.5l68 -2l3 -29v-12q0 -53 -46 -53h-29l8 -61q9 -64 9 -183q0 -189 -18 -308l-17 -109h47q29 0 40.5 -3.5t19.5 -15.5q13 -17 13 -34q0 -15 -16 -30q-15 -14 -58 -14q-4 0 -15 0.5t-18 0.5q-49 2 -62.5 5t-16.5 15q-6 20 -20 41
q-10 14 -10 35q0 15 17 139q22 150 22 341t-9 195q-9 6 -9 26q0 31 14 45z" />
    <glyph glyph-name="backslash" unicode="\" horiz-adv-x="524" 
d="M94 644q63 -85 279 -405l146 -217l-21 -22q-19 -21 -45 -21q-16 0 -30.5 15t-51.5 68q-136 197 -249 387t-113 222v2q2 13 23 21q8 2 10 2q9 0 18.5 -10t33.5 -42z" />
    <glyph glyph-name="bracketright" unicode="]" horiz-adv-x="262" 
d="M66 744q7 17 26 17q4 0 13.5 -1.5t15.5 -1.5q29 -3 43.5 -9.5t31.5 -25.5l29 -30l6 -274q3 -127 3 -223q0 -221 -16 -250q-9 -16 -13 -40q-3 -17 -10 -23t-26 -6q-13 0 -53 5q-63 8 -79 18t-16 42q0 30 11.5 37.5t56.5 7.5h39v248q0 239 6 335l6 86l-26 6q-35 7 -47 13
q-16 6 -16 18q0 11 15 51z" />
    <glyph glyph-name="asciicircum" unicode="^" horiz-adv-x="396" 
d="M187 741q11 8 23 8q7 0 22 -5q17 -6 31.5 -27t48.5 -90q51 -105 51 -131q0 -16 -13 -34q-14 -20 -34 -20q-47 0 -96 104l-28 59l-43 -65q-30 -47 -60 -87q-14 -17 -18 -17q-5 0 -22 12q-19 14 -19 27q0 1 0.5 2t0.5 2q10 28 77 141t79 121z" />
    <glyph glyph-name="underscore" unicode="_" horiz-adv-x="414" 
d="M124 -3q68 9 127 9q83 0 102 -15q22 -16 22 -54q0 -23 -9 -46q-7 -17 -16 -24t-28 -11q-18 -3 -59 -3q-62 0 -132 6.5t-77 13.5q-12 12 -16 55q-1 7 -1 19q0 25 16.5 34t70.5 16z" />
    <glyph glyph-name="grave" unicode="`" horiz-adv-x="213" 
d="M59 730q45 34 53 34q11 0 37.5 -66t37.5 -120q9 -45 9 -70q0 -29 -14 -29q-23 0 -77.5 64.5t-78.5 121.5l-13 31z" />
    <glyph glyph-name="a" unicode="a" horiz-adv-x="551" 
d="M269 560q23 6 44 6q56 0 105 -31t70 -82q29 -70 29 -175q0 -66 -2 -110l-7 -166l-29 -14q-19 -9 -29 -9q-11 0 -32 10q-22 11 -32 11q-8 0 -16 -5q-16 -8 -22 -8q-14 0 -14 49v51l-29 -28q-58 -55 -120 -55q-77 0 -127 46t-50 112q0 34 15 68q50 110 247 110h75l-5 28
q-5 27 -20 44q-15 16 -49 16q-30 0 -61 -12.5t-48 -32.5q-19 -23 -35 -23q-2 0 -14 2q-32 7 -32 22q0 10 9 30q26 55 73.5 93.5t105.5 52.5zM343 218q0 51 -7 51q-6 0 -45 -13q-62 -20 -102.5 -45.5t-40.5 -45.5q0 -14 23 -43.5t38 -33.5q3 -1 9 -1q42 0 96 52
q20 19 24.5 32t4.5 47z" />
    <glyph glyph-name="b" unicode="b" horiz-adv-x="616" 
d="M102 731h12q33 0 42 -7q24 -20 34 -179l6 -100l27 33q67 82 147 82q72 0 137 -71q58 -65 76 -174q5 -35 5 -63q0 -69 -22 -128.5t-61 -93.5q-45 -41 -110 -41q-85 0 -155 67l-28 26l-4 -44q-3 -43 -14 -54q-10 -10 -62 -14q-22 -2 -29 -2q-40 0 -50 32t-15 164
q-4 95 -4 225q0 292 15 320q10 19 53 22zM383 393q-27 52 -56 52q-17 0 -41 -18q-80 -62 -80 -147q0 -8 2 -22q4 -35 10 -45t34 -27q39 -23 83 -34q28 -6 36 -6q25 0 32 22.5t7 89.5q0 58 -4.5 80t-22.5 55z" />
    <glyph glyph-name="c" unicode="c" horiz-adv-x="490" 
d="M202 607q46 16 87 16q93 0 130 -59q18 -29 27 -29q23 -1 23 -42q0 -23 -4 -51q-9 -73 -18 -83t-51 -10q-45 0 -66 10q-21 11 -21 32q0 15 13 64q13 50 13 51q0 2 -15 2q-51 0 -93 -78.5t-42 -164.5q0 -32 8 -62q24 -86 99 -98q18 -2 24 -2q25 0 64 21q12 6 25 13t21 11
t9 5h1q5 0 5 -16q0 -39 -16 -76q-22 -48 -76 -83.5t-104 -35.5q-27 0 -71.5 24.5t-71.5 54.5q-33 37 -58 88q-15 32 -19 55.5t-4 87.5v21q0 73 4 103.5t18 65.5q20 50 68 100t91 65z" />
    <glyph glyph-name="d" unicode="d" horiz-adv-x="510" 
d="M359 713q3 7 51 7q33 0 41 -3.5t12 -20.5q2 -11 5 -198.5t3 -316.5q0 -76 -2 -96q-1 -12 -31 -29t-50 -17t-43 15q-11 8 -18 8q-6 0 -29 -27q-47 -58 -116 -58q-73 0 -119 71.5t-46 185.5q0 107 43 198.5t110 125.5q28 14 63 14q43 0 68 -19q19 -15 23 -15q3 0 3 14
q0 16 13.5 84.5t18.5 76.5zM286 419q-21 36 -39 36q-8 0 -8 -11v-4v-4q0 -19 -7 -34q-29 -70 -35.5 -95.5t-6.5 -72.5q0 -67 17 -96q16 -28 26 -28t40 25l31 25v113v18q0 62 -3.5 85t-14.5 43z" />
    <glyph glyph-name="e" unicode="e" horiz-adv-x="459" 
d="M191 588q16 4 36 4q74 0 135.5 -56.5t62.5 -129.5v-1q0 -61 -52 -109t-114 -48q-18 0 -31 4q-21 6 -34 6q-4 0 -5 -1v-4q0 -11 7 -41q12 -49 35.5 -60.5t107.5 -12.5q98 -2 101 -5q1 -1 1 -3q0 -11 -18.5 -43t-34.5 -47q-19 -18 -59 -36t-73 -24q-8 -2 -25 -2
q-62 0 -117 48.5t-78 125.5q-17 55 -17 109q0 32 1 54q4 99 22 139q49 109 149 133zM297 450q-28 14 -42 14q-35 0 -57 -85q-9 -35 -9 -44q0 -11 11 -19q17 -12 39 -12q27 0 54.5 15.5t39.5 39.5q8 16 8 31q0 40 -44 60z" />
    <glyph glyph-name="f" unicode="f" horiz-adv-x="395" 
d="M179 765q39 28 89 28q41 0 73 -20q19 -12 47 -45.5t28 -44.5q0 -6 -26 -19q-16 -9 -22 -9t-18 12q-26 29 -59 29q-13 0 -20 -7q-12 -12 -30 -67.5t-24 -97.5l-6 -41l75 5l76 5l9 -24q10 -26 10 -48q0 -34 -16.5 -42.5t-84.5 -10.5l-85 -3v-59q0 -68 10 -168q7 -79 7 -88
q0 -24 -15 -40q-16 -18 -72 -22q-24 -2 -28 -2q-26 0 -38 19q-15 23 -23.5 102t-8.5 174q0 120 13 194q38 217 139 290z" />
    <glyph glyph-name="g" unicode="g" horiz-adv-x="461" 
d="M318 627q53 49 61 49q9 0 39 -36l30 -36l-40 -51l-40 -51l23 -22q49 -46 49 -113q0 -33 -15 -61q-29 -57 -106 -105t-138 -48h-1h-4q-37 0 -43 -14q-3 -8 -3 -14q0 -2 1 -3q3 -1 6 -1q7 0 69 6q23 3 61 3q64 0 95.5 -22.5t36.5 -70.5q1 -6 1 -16q0 -69 -68 -120
q-33 -24 -86 -43.5t-85 -19.5q-9 0 -13 1q-21 5 -51.5 32.5t-30.5 41.5q0 16 31 52q31 38 63 44q36 7 36 13q0 7 -52 7h-19h-23q-43 0 -61.5 8t-18.5 27q0 22 28 73l28 51l-18 21q-39 44 -39 123q0 56 21 101q26 56 86.5 101t109.5 45q28 0 80 48zM340 433q-22 12 -38 12
q-22 0 -67 -42t-45 -70q0 -17 13 -36q21 -31 48 -31q15 0 39 8q34 11 64 41t30 52q0 42 -44 66zM275 -3q1 1 1 2q0 5 -15 13q-11 6 -14 6q-4 0 -4 -6t9 -11.5t17 -5.5q4 0 6 2z" />
    <glyph glyph-name="h" unicode="h" horiz-adv-x="564" 
d="M134 726q43 9 63 9h3q28 -3 28 -95q0 -16 -2 -70l-5 -102l29 35q72 85 153 85q78 0 114 -78q19 -39 19 -110q0 -80 -31 -240q-20 -105 -27.5 -128t-23.5 -29q-12 -4 -17 -4q-14 0 -39 13q-34 18 -61 18q-10 0 -14.5 1t-7.5 5.5t-3 13.5q0 17 17 100q9 43 35 194
q18 105 28 112q6 3 6 6t-9 6q-4 2 -9 2q-29 0 -83 -36t-74 -69q-10 -17 -14 -52t-8 -132q-7 -158 -19 -169q-9 -7 -22 -7q-18 0 -100 13l-35 6l5 173q9 282 41 446l14 73z" />
    <glyph glyph-name="i" unicode="i" 
d="M97 527q33 6 49 6q21 0 30 -16t9 -152q0 -142 -8 -215q-5 -48 -11 -67.5t-20 -33.5q-18 -18 -33 -18q-12 0 -31 4q-34 7 -45.5 22t-11.5 66q0 47 11 177q16 195 24 208q8 14 37 19zM78 733q23 17 34 17q7 0 28 -8q31 -13 42.5 -28.5t11.5 -44.5q0 -31 -29 -60.5
t-58 -29.5q-31 0 -52.5 21t-21.5 51q0 31 8.5 46t36.5 36z" />
    <glyph glyph-name="j" unicode="j" horiz-adv-x="217" 
d="M91 549q34 10 36 11h1q20 0 33 -102q9 -71 17 -203.5t8 -211.5q0 -26 -2 -44q-5 -50 -24 -94t-44 -65q-28 -23 -72 -23q-37 0 -54 18q-10 11 -10 18q0 6 14 32q19 37 37 65q11 17 15 39.5t4 76.5q0 36 -7 248q-4 136 -4 147q0 38 6 55t12.5 20.5t33.5 12.5zM75 761
q10 12 34 12q44 0 64 -28q13 -18 13 -28q0 -9 -6 -27q-10 -29 -32.5 -48t-48.5 -19q-22 0 -36.5 18.5t-14.5 43.5q0 23 13 42q9 12 9 18q0 2 -1 2q-2 0 -2 1q0 3 8 13z" />
    <glyph glyph-name="k" unicode="k" horiz-adv-x="466" 
d="M75 711q29 8 42 8q15 0 19 -7q6 -9 18 -92t18 -154q5 -72 12 -72q5 0 98 102q56 61 75.5 79t31.5 18q5 0 8 -1q25 -6 39.5 -21.5t14.5 -35.5q0 -23 -107 -135l-106 -112l60 -49q51 -42 102 -93t51 -61q0 -8 -38 -30l-39 -21l-88 82l-88 82l-4 -51q-4 -49 -12 -62
q-6 -10 -29 -10q-27 0 -63 9q-31 7 -38.5 13.5t-11.5 29.5q-5 35 -5 242q0 313 7 323q8 12 33 19z" />
    <glyph glyph-name="l" unicode="l" horiz-adv-x="223" 
d="M72 739q21 6 30 6q14 0 26 -23q16 -31 26 -104t20 -238q13 -221 18 -272q3 -27 3 -39q0 -14 -4 -20.5t-16 -14.5q-28 -19 -72 -19q-23 0 -34 8q-16 13 -25 73q-9 59 -9 339q0 242 8 271q8 26 29 33z" />
    <glyph glyph-name="m" unicode="m" horiz-adv-x="733" 
d="M94 569q36 9 49 9h1q21 0 33 -86l6 -39l34 40q54 63 113 63q34 0 62 -21q14 -11 21 -11q9 0 40 20q40 25 80 25q56 0 100 -48.5t61 -134.5q6 -28 6 -107q0 -137 -16 -204q-21 -93 -83 -93q-21 0 -38 8q-22 9 -31.5 28t-9.5 59q0 33 8 107q9 72 9 141q0 98 -15 137
q-8 19 -37 19q-26 0 -35.5 -4.5t-9.5 -19.5q0 -8 5 -30q4 -17 4 -53q0 -48 -9 -151q-12 -140 -30 -192t-55 -52q-10 0 -22 3q-23 6 -37.5 36t-14.5 74v2q0 51 11 178t18 154q1 4 2 8.5t1.5 7t0.5 4.5q0 9 -11 9q-13 0 -47 -23.5t-54 -45.5q-12 -13 -12 -50q0 -21 5 -113
t5 -144q0 -22 -2 -34q-4 -29 -21.5 -39.5t-63.5 -10.5q-26 0 -37.5 2.5t-21 17.5t-12.5 38t-7 75q-6 76 -6 180q0 205 15 233q12 20 48 28z" />
    <glyph glyph-name="n" unicode="n" horiz-adv-x="495" 
d="M273 567q33 10 47 10q16 0 43 -11q44 -19 68 -59t32 -112v-22q0 -65 -10 -206.5t-18 -178.5q-6 -26 -57 -26q-25 0 -40 2q-3 0 -9 1q-21 2 -29 4t-17 8t-11.5 18t-2.5 33q0 25 12 157q16 186 22 241l4 47h-26q-22 0 -57 -15.5t-48 -31.5q-6 -8 -6 -55q0 -30 5 -140
q4 -77 4 -134q0 -50 -5.5 -70.5t-19.5 -25.5q-4 -2 -20 -2q-23 0 -50.5 5.5t-32.5 11.5q-6 6 -13.5 172t-7.5 264q0 35 1 44q2 25 8.5 33.5t29.5 17.5q33 13 43 13q18 0 32 -39l16 -40l42 39q41 38 71 47z" />
    <glyph glyph-name="o" unicode="o" horiz-adv-x="464" 
d="M186 550q53 25 73 25q15 0 44 -13q59 -27 96.5 -100.5t37.5 -156.5q0 -24 -5 -54q-18 -99 -79.5 -158.5t-136.5 -59.5q-84 0 -145 71q-58 67 -58 165q0 51 16 102q21 66 57 107t100 72zM324 428q-32 32 -44 32q-10 0 -19 -23q-10 -26 -31 -47q-43 -43 -43 -126
q0 -19 3 -37q10 -59 26 -82t47 -23q25 0 50.5 22.5t43.5 60.5q20 43 20 92q0 78 -53 131z" />
    <glyph glyph-name="p" unicode="p" horiz-adv-x="496" 
d="M237 555q33 11 43 11q12 0 45 -15t69 -54t54 -80q20 -46 20 -128t-19 -123q-25 -54 -68.5 -84t-93.5 -30q-44 0 -90 26q-30 17 -33 17q-2 0 -6 -81q-4 -79 -22 -104q-21 -27 -41 -27q-21 0 -38 25.5t-24 70.5q-5 31 -5 133q0 129 8.5 269.5t18.5 154.5q11 15 53 20
q20 3 28 3q11 0 14 -4.5t6 -21.5l6 -29l20 20q20 18 55 31zM280 446q-13 32 -32 32q-11 0 -36 -15q-28 -17 -35.5 -42t-9.5 -108q-1 -22 -1 -54q0 -46 11 -55.5t56 -10.5h2q35 0 48 23.5t13 89.5v21q-2 83 -16 119z" />
    <glyph glyph-name="q" unicode="q" horiz-adv-x="466" 
d="M173 572q25 13 56 13q37 0 58 -17q23 -18 58 -18q25 0 32.5 -5t16.5 -28q20 -51 28 -135.5t9 -250.5l1 -219l-28 -16q-25 -15 -65 -17q-2 0 -6 -0.5t-5 -0.5q-36 0 -46.5 23t-14.5 107l-5 100l-20 -32q-32 -51 -85 -51q-44 0 -81.5 34t-49.5 91q-9 44 -9 89q0 107 44 202
t112 131zM273 469q-13 25 -24 25q-9 0 -9 -20q0 -23 -18 -75q-31 -93 -31 -171q0 -22 3 -40q4 -19 4 -33q0 -13 -6 -18q-5 -3 -5 -5t5 -2q8 0 35.5 28.5t36.5 47.5q16 34 16 181q0 69 -7 82z" />
    <glyph glyph-name="r" unicode="r" horiz-adv-x="408" 
d="M314 608q44 21 71 21q30 0 33 -26v-4q0 -25 -16 -61q-18 -40 -18 -57q0 -10 -9 -13t-39 -3q-44 0 -107 -30l-59 -29v-132q0 -130 -10 -160q-7 -21 -25.5 -32.5t-39.5 -11.5q-37 0 -56 30q-14 22 -14 112q0 83 12 209q10 111 19 126q7 13 34 18q2 1 3 1q22 4 27 4
q17 0 24.5 -9.5t12.5 -33.5q5 -31 10 -31q4 0 52 44q48 45 95 68z" />
    <glyph glyph-name="s" unicode="s" horiz-adv-x="432" 
d="M163 591q27 12 64 12q45 0 70 -16q79 -49 108 -133l20 -57l-19 -8q-21 -10 -43 -28q-18 -15 -33 -15h-2l-2 1q-10 4 -25.5 55t-18.5 90q-3 31 -25 31q-16 0 -30 -17t-14 -43q0 -59 66 -134q76 -85 76 -157q0 -34 -17 -68q-22 -44 -64.5 -70.5t-89.5 -26.5q-1 0 -25 3
q-51 9 -104.5 55t-53.5 81q0 6 1 9q12 38 99 43h18q19 0 29.5 -6t30.5 -28q30 -33 48 -33q4 0 18 2q30 5 48 20.5t18 36.5q0 18 -21 28.5t-76 19.5q-129 20 -148 149q-2 18 -2 27q0 56 28.5 107t70.5 70z" />
    <glyph glyph-name="t" unicode="t" horiz-adv-x="310" 
d="M125 729q32 5 50 5h3q22 -1 25 -96l1 -41l45 -6l45 -6l-4 -52q-3 -50 -10 -63q-4 -7 -19 -7q-20 0 -50 12q-2 1 -6 1q-9 0 -9 -48q0 -8 2 -98q4 -133 15.5 -172t57.5 -72q41 -29 41 -59q0 -20 -17 -40q-17 -21 -69 -25q-10 -1 -26 -1q-30 0 -58 19q-59 41 -87 127
q-15 44 -16 224q-1 177 -11 181q-11 4 -11 38q0 22 4 28.5t18 10.5q13 3 18 10.5t6 24.5q0 27 11 64q7 25 14.5 31t36.5 10z" />
    <glyph glyph-name="u" unicode="u" horiz-adv-x="490" 
d="M96 574q27 8 37 8q16 0 33 -24q33 -45 33 -249q0 -129 6 -159q4 -19 10 -24t27 -5q30 0 59 30q33 35 43.5 82.5t10.5 162.5q0 93 3 117t16 37q14 14 26 14q48 0 56 -188q1 -17 1 -51q0 -70 -7 -110q-17 -92 -68.5 -164.5t-112.5 -89.5q-25 -7 -53 -7q-51 0 -94 27t-67 75
q-15 31 -18 65.5t-5 178.5q0 16 -0.5 42.5t-0.5 37.5q0 82 5.5 119t17.5 51.5t42 23.5z" />
    <glyph glyph-name="v" unicode="v" horiz-adv-x="463" 
d="M393 614q3 7 22 7q25 0 34.5 -8.5t9.5 -30.5q0 -28 -36.5 -162.5t-65.5 -213.5q-31 -88 -35 -105q-10 -41 -110 -64q-10 -2 -14 -2q-18 0 -33.5 29.5t-57.5 141.5q-94 248 -94 305q0 20 27 51q22 26 34 26q7 0 16 -4q52 -25 139 -240q51 -127 62 -127q7 7 53 199
q45 191 49 198z" />
    <glyph glyph-name="w" unicode="w" horiz-adv-x="716" 
d="M567 609q23 20 42 20q17 0 29 -19q21 -33 34.5 -107.5t13.5 -150.5q0 -67 -10 -108q-27 -113 -95.5 -188t-142.5 -75q-16 0 -39 7q-31 10 -54.5 38t-28.5 62l-6 36l-19 -26q-31 -42 -68 -80t-55 -46q-15 -7 -32 -7q-36 0 -66 31t-43 82q-7 28 -7 86q0 100 21 216q0 2 1 7
q19 102 31 122q10 17 47 34l6 3l6 3q51 23 57 23q7 0 14 -10q18 -26 18 -80q0 -34 -10 -119q-14 -117 -14 -205v-85l31 31q47 45 60.5 77.5t18.5 105.5q8 145 31 159q7 5 56 10q32 4 35 4q11 0 15.5 -4.5t10.5 -18.5q6 -15 14.5 -124.5t8.5 -167.5q0 -22 -2 -26q-1 -1 -1 -3
q0 -4 8 -4q21 0 49 17q37 22 58.5 71t21.5 109q0 25 -5 55q-8 53 -37 140l-29 83z" />
    <glyph glyph-name="x" unicode="x" horiz-adv-x="418" 
d="M29 583q31 21 34 21q7 0 58.5 -56.5t74.5 -90.5l30 -44l38 83q22 48 34.5 64.5t28.5 16.5q13 0 44 -13t31 -34q0 -15 -42.5 -94t-62.5 -101q-5 -5 -5 -14q0 -16 47 -105q49 -92 49 -121q0 -22 -27 -40q-32 -21 -69 -21q-20 0 -30 8q-13 10 -45 74l-31 62l-24 -31
q-15 -19 -68 -77q-37 -40 -47 -40q-4 0 -9 5t-5 11q0 12 36 67q41 64 59 103l17 37l-73 138q-72 137 -72 155q0 17 29 37z" />
    <glyph glyph-name="y" unicode="y" horiz-adv-x="429" 
d="M303 566q6 18 25 18h12q23 -2 34 -20.5t15 -65t4 -147.5v-11q0 -378 -89 -462q-23 -21 -64 -40.5t-65 -19.5h-1q-29 0 -49 11t-25 28q-2 10 -2 14q0 38 40 52q14 5 54 20q29 10 42 40q13 28 13 35t-11 7q-12 0 -31 -4q-23 -5 -33 -5q-20 0 -54 17q-26 13 -39.5 26.5
t-28.5 42.5q-17 34 -21 59t-4 108q0 202 40 279q8 15 13 19.5t16 4.5q3 0 23 -2q43 -5 51 -12q16 -14 19 -86q0 -21 1 -112q2 -208 2 -216q0 -27 16 -30q4 -1 12 -1q17 0 32 6t19 15q5 12 16 212q11 201 18 220z" />
    <glyph glyph-name="z" unicode="z" horiz-adv-x="480" 
d="M44 576q21 7 89 7q156 0 219 -20q81 -25 95 -82q2 -8 2 -12q0 -59 -135 -203l-95 -100l115 2l114 3l3 -51v-15q0 -43 -7 -73q-4 -17 -6.5 -22t-12 -9t-30.5 -4q-33 0 -140 9q-113 9 -160.5 20t-50.5 29q-1 5 -13 50l-10 33l131 141q119 128 119 142q0 3 -3 4
q-19 6 -101 17q-95 12 -119 19q-25 7 -29 14.5t-4 43.5q0 35 4 42.5t25 14.5z" />
    <glyph glyph-name="braceleft" unicode="{" horiz-adv-x="261" 
d="M116 710q31 28 65 28q27 0 50 -19q35 -27 35 -43q0 -13 -23 -27q-20 -13 -28 -13q-7 0 -17 10q-12 10 -15 10q-6 0 -22 -20q-39 -50 -39 -124q0 -15 1 -22q13 -121 45 -189q14 -29 14 -53q0 -19 -6 -64q-10 -70 -10 -119q0 -38 7 -49q7 -12 29 -23q33 -16 33 -56
q0 -14 -6 -26q-6 -13 -11 -17.5t-16 -4.5q-4 0 -22 2q-68 9 -102 70q-25 43 -25 107q0 55 20 155q2 14 2 15q0 8 -8 8q-5 0 -9 -1h-5q-16 0 -31 28q-16 32 -16 44q0 18 25 28q22 9 24 16q1 3 1 7q0 14 -12 66q-11 49 -11 70q0 20 6 53q18 101 77 153z" />
    <glyph glyph-name="bar" unicode="|" horiz-adv-x="209" 
d="M66 724q34 12 46 12h1q26 0 38.5 -114t18.5 -408q4 -200 4 -211q0 -55 -3 -73t-11 -25q-13 -12 -30 -12q-5 0 -23 2q-33 5 -45 14q-23 22 -26 485l-2 319z" />
    <glyph glyph-name="braceright" unicode="}" horiz-adv-x="265" 
d="M10 739q21 17 49 17q29 0 55 -18.5t41 -51.5q11 -25 14.5 -49t3.5 -80v-45v-20q0 -114 7 -133q8 -22 42 -30q22 -5 29 -11.5t8 -24.5v-11q0 -12 -6 -18.5t-25 -14.5q-25 -11 -38 -17v-2q0 -11 16 -80q19 -84 19 -117q0 -114 -122 -142q-23 -5 -33 -5q-14 0 -22 7t-19 25
q-12 21 -12 26q0 8 15 30q19 29 52 36q23 5 28.5 10t5.5 24q0 28 -13 82q-13 51 -13 90q0 32 9 54q4 9 4 21q0 11 -10 38q-13 31 -13 131q0 6 0.5 19t0.5 20v37q0 90 -8 119t-31 29q-22 0 -39 19q-12 13 -12 17q0 5 17 19z" />
    <glyph glyph-name="asciitilde" unicode="~" horiz-adv-x="477" 
d="M99 350q21 9 40 9q55 0 142 -83q57 -53 64 -53q22 0 41 65q11 38 26 38q12 0 23 -23q7 -15 7 -30q0 -10 -5 -32q-13 -49 -48 -76.5t-82 -27.5q-7 0 -25 2q-33 5 -81 34t-57 49q-8 18 -19 18q-13 0 -28 -30q-17 -33 -35 -33q-19 0 -25 34q-3 13 -3 28q0 38 17.5 68.5
t47.5 42.5z" />
    </font>
</defs>
</svg>
