<?xml version="1.0" standalone="no"?>
<!DOCTYPE svg PUBLIC "-//W3C//DTD SVG 1.1//EN" "http://www.w3.org/Graphics/SVG/1.1/DTD/svg11.dtd" >
<svg xmlns="http://www.w3.org/2000/svg" xmlns:xlink="http://www.w3.org/1999/xlink" version="1.1">
<metadata>
Created by FontForge 20161003 at Mon Jan 15 15:44:58 2018
 By www-data
(c) 2012 Microsoft Corporation. All Rights Reserved.
</metadata>
<defs>
<font id="khmer_bold" horiz-adv-x="0" >
  <font-face 
    font-family="khmer_bold"
    font-weight="700"
    font-stretch="normal"
    units-per-em="2048"
    panose-1="2 11 7 2 4 2 4 2 2 3"
    ascent="1638"
    descent="-410"
    x-height="1024"
    cap-height="1434"
    bbox="-1595 -481 3720 1892"
    underline-thickness="119"
    underline-position="-77"
    unicode-range="U+0020-25CC"
  />
<missing-glyph horiz-adv-x="1322" 
d="M166 0v1398h990v-1398h-990zM314 148h694v1102h-694v-1102z" />
    <glyph glyph-name=".notdef" horiz-adv-x="1322" 
d="M166 0v1398h990v-1398h-990zM314 148h694v1102h-694v-1102z" />
    <glyph glyph-name="glyph1" 
 />
    <glyph glyph-name="glyph2" horiz-adv-x="199" 
 />
    <glyph glyph-name="space" unicode=" " horiz-adv-x="565" 
 />
    <glyph glyph-name="space" unicode="&#xa0;" horiz-adv-x="565" 
 />
    <glyph glyph-name="exclam" unicode="!" horiz-adv-x="670" 
d="M500 1434l-39 -988h-256l-37 988h332zM336 -23q-80 0 -132 48.5t-52 117.5q0 72 52.5 118t131.5 46q80 0 131 -46.5t51 -117.5q0 -72 -50.5 -119t-131.5 -47z" />
    <glyph glyph-name="quotedbl" unicode="&#x22;" horiz-adv-x="1010" 
d="M834 1452l-31 -444h-201l-31 444h263zM438 1452l-30 -442h-203l-29 442h262z" />
    <glyph glyph-name="numbersign" unicode="#" horiz-adv-x="1213" 
d="M1176 1069l-39 -180h-185l-55 -248h207l-45 -180h-199l-78 -346h-200l73 346h-229l-74 -346h-200l71 346h-186l37 180h188l53 248h-202l34 180h205l74 356h205l-74 -356h229l76 356h203l-74 -356h185zM750 889h-232l-55 -248h231z" />
    <glyph glyph-name="dollar" unicode="$" horiz-adv-x="1178" 
d="M674 8v-217h-146v211q-203 1 -378 92v277q58 -47 173 -87t205 -46v364q-234 87 -319.5 188.5t-85.5 247.5q0 157 111 267.5t294 128.5v186h146v-182q211 -10 315 -68v-270q-140 85 -315 104v-379q219 -79 314 -180.5t95 -245.5q0 -166 -106 -267.5t-303 -123.5zM528 883
v317q-139 -25 -139 -145q0 -103 139 -172zM674 545v-303q143 22 143 143q0 98 -143 160z" />
    <glyph glyph-name="percent" unicode="%" horiz-adv-x="1776" 
d="M430 707q-153 0 -246.5 97t-93.5 261q0 179 99.5 284t265.5 105q159 0 248.5 -95t89.5 -267q0 -177 -99 -281t-264 -104zM449 1278q-146 0 -146 -203q0 -192 139 -192q142 0 142 200q0 195 -135 195zM1477 1434l-934 -1434h-244l932 1434h246zM1323 -20q-153 0 -246.5 97
t-93.5 261q0 179 99.5 284t265.5 105q160 0 249 -94t89 -266q0 -177 -99 -282t-264 -105zM1339 551q-145 0 -145 -203q0 -192 141 -192q142 0 142 200q0 93 -38 144t-100 51z" />
    <glyph glyph-name="ampersand" unicode="&#x26;" horiz-adv-x="1740" 
d="M1479 -23q-53 0 -100.5 14t-90 38t-80.5 56.5t-72 69.5q-37 -30 -89 -62t-117.5 -57.5t-144.5 -42t-169 -16.5q-117 0 -216.5 28t-171.5 83.5t-112.5 137.5t-40.5 190q0 85 30.5 151.5t79.5 116.5t111 86t126 60q-31 24 -62.5 55.5t-56.5 69t-40.5 81.5t-15.5 93
q0 79 32 140t89.5 103t137.5 64t176 22q92 0 168.5 -23t131.5 -64t85 -98.5t30 -126.5q0 -111 -66.5 -192.5t-187.5 -132.5q48 -22 92 -50t86 -64t82 -81.5t79 -104.5q82 103 117.5 219.5t35.5 242.5q0 38 -4.5 73t-14.5 65h269q11 -32 16 -62t5 -71q0 -97 -20.5 -189
t-57.5 -176t-89.5 -159t-115.5 -140q49 -51 101 -78.5t98 -27.5q48 0 98 10.5t87 29.5v-238q-55 -22 -108.5 -32.5t-119.5 -10.5zM632 216q59 0 111 11.5t98 30.5t85.5 44t72.5 52q-51 80 -101 135.5t-99 95t-97.5 66.5t-97.5 49q-41 -20 -78.5 -44.5t-66.5 -57t-46.5 -74
t-17.5 -95.5q0 -48 17 -87t48.5 -67t75 -43.5t96.5 -15.5zM817 1124q0 29 -11 52t-30 38.5t-43 24t-51 8.5q-33 0 -60.5 -10t-48 -27t-31.5 -40.5t-11 -50.5q0 -56 35 -103t87 -76q33 12 62.5 28t52 38t36 51t13.5 67z" />
    <glyph glyph-name="quotesingle" unicode="'" horiz-adv-x="600" 
d="M430 1452l-31 -442h-200l-29 442h260z" />
    <glyph glyph-name="parenleft" unicode="(" horiz-adv-x="756" 
d="M739 -326h-258q-323 356 -323 875q0 501 323 885h256q-303 -402 -303 -885t305 -875z" />
    <glyph glyph-name="parenright" unicode=")" horiz-adv-x="756" 
d="M274 -326h-256q306 390 306 875q0 481 -306 885h258q324 -385 324 -885q0 -515 -326 -875z" />
    <glyph glyph-name="asterisk" unicode="*" horiz-adv-x="932" 
d="M864 1053l-274 -37l196 -211l-182 -125l-137 254l-137 -254l-183 125l197 211l-274 37l71 202l252 -108l-43 287h234l-43 -287l250 108z" />
    <glyph glyph-name="plus" unicode="+" horiz-adv-x="1448" 
d="M1212 485h-385v-385h-202v385h-387v203h387v387h202v-387h385v-203z" />
    <glyph glyph-name="comma" unicode="," horiz-adv-x="555" 
d="M432 252l-147 -506h-246l102 506h291z" />
    <glyph glyph-name="hyphen" unicode="-" horiz-adv-x="828" 
d="M690 436h-547v221h547v-221z" />
    <glyph glyph-name="hyphen" unicode="&#xad;" horiz-adv-x="828" 
d="M690 436h-547v221h547v-221z" />
    <glyph glyph-name="period" unicode="." horiz-adv-x="555" 
d="M274 -25q-78 0 -130 48t-52 118q0 72 53.5 118t133.5 46q81 0 132.5 -46.5t51.5 -117.5q0 -73 -52.5 -119.5t-136.5 -46.5z" />
    <glyph glyph-name="slash" unicode="/" horiz-adv-x="908" 
d="M932 1434l-699 -1672h-282l696 1672h285z" />
    <glyph glyph-name="zero" unicode="0" horiz-adv-x="1178" 
d="M581 -25q-512 0 -512 719q0 373 138.5 568.5t401.5 195.5q500 0 500 -731q0 -364 -136.5 -558t-391.5 -194zM595 1217q-205 0 -205 -515q0 -485 201 -485q196 0 196 500t-192 500z" />
    <glyph glyph-name="one" unicode="1" horiz-adv-x="1178" 
d="M832 1466v-1466h-315v1110q-26 -23 -61.5 -43.5t-75.5 -37t-83 -28t-85 -16.5v266q123 36 232 92t197 123h191z" />
    <glyph glyph-name="two" unicode="2" horiz-adv-x="1178" 
d="M429 262h608v-262h-954v108q0 110 37 197.5t93 157t122.5 123t126.5 96.5q63 45 110.5 86t80 81.5t48.5 82t16 88.5q0 92 -52 139t-159 47q-185 0 -354 -147v278q187 121 422 121q109 0 195.5 -28.5t146.5 -81.5t91.5 -128.5t31.5 -168.5q0 -99 -30.5 -176t-81 -140
t-116.5 -115.5t-137 -101.5q-48 -34 -92.5 -67.5t-78.5 -66t-54 -63.5t-20 -59z" />
    <glyph glyph-name="three" unicode="3" horiz-adv-x="1178" 
d="M117 47v275q144 -105 336 -105q121 0 188.5 52t67.5 145q0 96 -83.5 148t-229.5 52h-133v242h123q280 0 280 186q0 175 -215 175q-144 0 -280 -93v258q151 76 352 76q220 0 342.5 -99t122.5 -257q0 -281 -285 -352v-5q152 -19 240 -110.5t88 -224.5q0 -201 -147 -318
t-406 -117q-222 0 -361 72z" />
    <glyph glyph-name="four" unicode="4" horiz-adv-x="1178" 
d="M952 1434v-904h172v-236h-172v-294h-288v294h-625v247q83 93 172 203.5t172 227.5t154.5 235.5t121.5 226.5h293zM322 530h342v501q-35 -65 -76 -131.5t-86 -131t-91 -125t-89 -113.5z" />
    <glyph glyph-name="five" unicode="5" horiz-adv-x="1178" 
d="M142 37v270q147 -90 313 -90q125 0 195.5 59.5t70.5 161.5q0 213 -301 213q-111 0 -256 -17l54 800h759v-258h-518l-20 -287q77 6 133 6q221 0 346 -116t125 -312q0 -217 -149 -354.5t-404 -137.5q-207 0 -348 62z" />
    <glyph glyph-name="six" unicode="6" horiz-adv-x="1178" 
d="M1110 477q0 -106 -37 -198t-103 -159.5t-157 -106t-199 -38.5q-121 0 -216.5 45t-161.5 130.5t-101 209.5t-35 281q0 185 45.5 335.5t130 257.5t204.5 165.5t270 58.5q166 0 258 -39v-264q-109 62 -238 62q-80 0 -145 -31t-111.5 -88t-73 -137.5t-28.5 -179.5h6
q102 141 301 141q89 0 161 -32t123 -90.5t79 -140.5t28 -182zM801 457q0 231 -189 231q-43 0 -78 -16t-60 -45t-38.5 -68.5t-13.5 -87.5q0 -53 14 -99t39.5 -80.5t60.5 -54.5t78 -20t77.5 17.5t59 49t37.5 76t13 97.5z" />
    <glyph glyph-name="seven" unicode="7" horiz-adv-x="1178" 
d="M1094 1252q-96 -173 -172 -324.5t-134 -299t-99 -300t-67 -328.5h-330q28 167 74 322t106.5 300.5t134 283.5t155.5 270h-666v258h998v-182z" />
    <glyph glyph-name="eight" unicode="8" horiz-adv-x="1178" 
d="M80 386q0 60 17.5 115.5t52.5 103t87.5 85t123.5 61.5q-109 54 -169 138.5t-60 187.5q0 82 34.5 152t95.5 121t145.5 79.5t184.5 28.5q102 0 187 -28.5t146.5 -79t95.5 -119.5t34 -150q0 -102 -64 -185.5t-177 -137.5q70 -24 123 -61.5t89 -85.5t54 -104.5t18 -117.5
q0 -92 -37 -167.5t-104.5 -130t-161 -84.5t-206.5 -30q-111 0 -204.5 29.5t-161 83.5t-105.5 129.5t-38 166.5zM379 413q0 -49 15 -88t43 -66t66.5 -41.5t86.5 -14.5q46 0 84.5 15t66.5 42t44 66t16 87q0 43 -15 82t-43 67.5t-66.5 45.5t-86.5 17q-45 0 -84 -15.5t-67 -44
t-44 -67.5t-16 -85zM423 1048q0 -38 13.5 -71.5t36.5 -58t54.5 -38.5t66.5 -14q36 0 67 14t54.5 39t37 58t13.5 71q0 39 -13 72.5t-36.5 58t-55 38.5t-67.5 14q-38 0 -69.5 -14.5t-54 -39t-35 -58t-12.5 -71.5z" />
    <glyph glyph-name="nine" unicode="9" horiz-adv-x="1178" 
d="M1087 786q0 -191 -42 -341.5t-122.5 -254.5t-196.5 -159.5t-263 -55.5q-176 0 -303 56v260q113 -74 272 -74q163 0 255 111t93 321l-6 2q-95 -141 -289 -141q-88 0 -162.5 33t-129 91.5t-85 139.5t-30.5 178q0 113 37 206t103.5 160t159.5 103.5t206 36.5
q117 0 210 -45.5t158.5 -131.5t100 -211t34.5 -284zM768 954q0 55 -14 103.5t-39 83.5t-61 55.5t-79 20.5q-41 0 -75.5 -18t-59.5 -49.5t-39 -75.5t-14 -95q0 -56 14 -99.5t39.5 -73.5t61.5 -45.5t80 -15.5q42 0 76 16.5t58.5 44.5t38 66t13.5 82z" />
    <glyph glyph-name="colon" unicode=":" horiz-adv-x="555" 
d="M274 707q-78 0 -130 47.5t-52 117.5q0 72 53.5 118t133.5 46q81 0 132.5 -46.5t51.5 -117.5q0 -73 -52.5 -119t-136.5 -46zM274 -25q-78 0 -130 48t-52 118q0 72 53.5 118t133.5 46q81 0 132.5 -46.5t51.5 -117.5q0 -73 -52.5 -119.5t-136.5 -46.5z" />
    <glyph glyph-name="semicolon" unicode=";" horiz-adv-x="555" 
d="M281 707q-79 0 -131 48t-52 117q0 73 52.5 118.5t132.5 45.5q81 0 132.5 -46.5t51.5 -117.5q0 -73 -51 -119t-135 -46zM432 252l-147 -506h-246l102 506h291z" />
    <glyph glyph-name="less" unicode="&#x3c;" horiz-adv-x="1448" 
d="M1192 63l-934 426v162l934 447v-238l-666 -285v-6l666 -268v-238z" />
    <glyph glyph-name="equal" unicode="=" horiz-adv-x="1448" 
d="M1212 700h-974v205h974v-205zM1212 266h-974v203h974v-203z" />
    <glyph glyph-name="greater" unicode="&#x3e;" horiz-adv-x="1448" 
d="M1192 502l-934 -426v237l668 267v4l-668 286v238l934 -444v-162z" />
    <glyph glyph-name="question" unicode="?" horiz-adv-x="897" 
d="M263 415q-10 26 -15.5 58.5t-5.5 61.5q0 46 9 84t27 71.5t45 64t63 60.5q38 32 66.5 59.5t48.5 55t30 57t10 65.5q0 31 -11 57.5t-31.5 45.5t-50 30t-65.5 11q-78 0 -162 -32.5t-159 -98.5v301q77 46 168 69t188 23q93 0 173 -20.5t139.5 -64.5t93 -112.5t33.5 -164.5
q0 -61 -14 -110.5t-41 -93.5t-67 -84.5t-92 -83.5q-35 -29 -61.5 -54t-44 -49.5t-26.5 -52t-9 -62.5q0 -24 6.5 -49t17.5 -42h-263zM409 -23q-80 0 -133 48q-53 50 -53 118q0 70 53 117t133 47q79 0 131 -47q52 -46 52 -117q0 -72 -51 -119q-52 -47 -132 -47z" />
    <glyph glyph-name="at" unicode="@" horiz-adv-x="1954" 
d="M1122 371h-6q-70 -191 -254 -191q-138 0 -222.5 100t-84.5 277q0 229 117 372.5t282 143.5q149 0 187 -117h4l10 99h225q-45 -426 -45 -557q0 -140 76 -140q80 0 132 106t52 277q0 234 -149 383.5t-416 149.5q-286 0 -475.5 -199.5t-189.5 -486.5q0 -278 167.5 -438
t462.5 -160q225 0 412 86v-191q-171 -73 -440 -73q-369 0 -600.5 211.5t-231.5 568.5q0 364 247 612t636 248q360 0 582.5 -192.5t222.5 -507.5q0 -259 -136 -415.5t-337 -156.5q-99 0 -161 53t-67 138zM989 899q-90 0 -146.5 -102.5t-56.5 -237.5q0 -96 38.5 -149.5
t99.5 -53.5q94 0 148 101t54 270q0 80 -37.5 126t-99.5 46z" />
    <glyph glyph-name="A" unicode="A" horiz-adv-x="1440" 
d="M1425 0h-352l-102 319h-510l-101 -319h-350l522 1434h383zM897 567l-154 482q-17 54 -24 129h-8q-5 -63 -25 -125l-156 -486h367z" />
    <glyph glyph-name="B" unicode="B" horiz-adv-x="1313" 
d="M164 0v1434h522q240 0 369 -88t129 -248q0 -116 -78.5 -203t-200.5 -121v-4q153 -19 244.5 -113t91.5 -229q0 -197 -141 -312.5t-385 -115.5h-551zM487 1196v-340h142q100 0 157.5 48.5t57.5 133.5q0 158 -236 158h-121zM487 616v-378h175q112 0 175.5 52t63.5 142
q0 86 -62.5 135t-174.5 49h-177z" />
    <glyph glyph-name="C" unicode="C" horiz-adv-x="1278" 
d="M1192 51q-157 -76 -410 -76q-330 0 -519 194t-189 517q0 344 212.5 558t551.5 214q210 0 354 -53v-311q-144 86 -328 86q-202 0 -326 -127t-124 -344q0 -208 117 -331.5t315 -123.5q189 0 346 92v-295z" />
    <glyph glyph-name="D" unicode="D" horiz-adv-x="1510" 
d="M164 0v1434h508q764 0 764 -699q0 -335 -208.5 -535t-555.5 -200h-508zM487 1171v-909h160q210 0 329.5 126t119.5 343q0 205 -118.5 322.5t-332.5 117.5h-158z" />
    <glyph glyph-name="E" unicode="E" horiz-adv-x="1090" 
d="M1024 0h-860v1434h827v-263h-504v-319h469v-262h-469v-328h537v-262z" />
    <glyph glyph-name="F" unicode="F" horiz-adv-x="1065" 
d="M993 1171h-506v-352h465v-262h-465v-557h-323v1434h829v-263z" />
    <glyph glyph-name="G" unicode="G" horiz-adv-x="1456" 
d="M1341 96q-210 -121 -522 -121q-346 0 -545.5 191.5t-199.5 527.5q0 338 218 551t580 213q228 0 402 -63v-303q-166 96 -406 96q-201 0 -327.5 -130.5t-126.5 -348.5q0 -221 113.5 -342t306.5 -121q116 0 184 33v280h-287v258h610v-721z" />
    <glyph glyph-name="H" unicode="H" horiz-adv-x="1569" 
d="M1405 0h-324v584h-594v-584h-323v1434h323v-572h594v572h324v-1434z" />
    <glyph glyph-name="I" unicode="I" horiz-adv-x="649" 
d="M607 1434v-250h-120v-934h120v-250h-563v250h120v934h-120v250h563z" />
    <glyph glyph-name="J" unicode="J" horiz-adv-x="912" 
d="M762 569q0 -288 -133.5 -441t-386.5 -153q-113 0 -209 39v303q83 -63 186 -63q221 0 221 328v852h322v-865z" />
    <glyph glyph-name="K" unicode="K" horiz-adv-x="1329" 
d="M1356 0h-408l-418 623q-12 18 -38 79h-5v-702h-323v1434h323v-678h5q12 28 40 80l396 598h385l-500 -684z" />
    <glyph glyph-name="L" unicode="L" horiz-adv-x="1047" 
d="M1018 0h-854v1434h323v-1172h531v-262z" />
    <glyph glyph-name="M" unicode="M" horiz-adv-x="1960" 
d="M1798 0h-319v858q0 139 12 307h-8q-25 -132 -45 -190l-336 -975h-264l-342 965q-14 39 -45 200h-9q13 -212 13 -372v-793h-291v1434h473l293 -850q35 -102 51 -205h6q27 119 57 207l293 848h461v-1434z" />
    <glyph glyph-name="N" unicode="N" horiz-adv-x="1618" 
d="M1454 0h-326l-591 901q-52 79 -72 119h-4q8 -76 8 -232v-788h-305v1434h348l569 -873q39 -59 72 -117h4q-8 50 -8 197v793h305v-1434z" />
    <glyph glyph-name="O" unicode="O" horiz-adv-x="1553" 
d="M770 -25q-308 0 -502 200.5t-194 522.5q0 340 197 550t522 210q307 0 496.5 -201t189.5 -530q0 -338 -196.5 -545t-512.5 -207zM784 1180q-170 0 -270 -127.5t-100 -337.5q0 -213 100 -337t262 -124q167 0 265 120.5t98 334.5q0 223 -95 347t-260 124z" />
    <glyph glyph-name="P" unicode="P" horiz-adv-x="1258" 
d="M487 494v-494h-323v1434h506q542 0 542 -457q0 -216 -155.5 -349.5t-415.5 -133.5h-154zM487 1186v-447h127q258 0 258 226q0 221 -258 221h-127z" />
    <glyph glyph-name="Q" unicode="Q" horiz-adv-x="1553" 
d="M784 1180q-169 0 -270 -128q-100 -127 -100 -337q0 -212 99 -337q100 -124 263 -124q168 0 265 120q98 122 98 335q0 221 -94 345q-94 126 -261 126zM1040 27q52 -56 99 -92t94.5 -57t97.5 -29t109 -8q16 0 35 1.5t38.5 5t37.5 8t33 10.5v-272q-32 -9 -88.5 -18
t-137.5 -9q-98 0 -180.5 32t-158 87.5t-147 130.5t-148.5 161q-147 4 -267 61t-205 153.5t-131.5 226.5t-46.5 279q0 341 196 550q197 210 525 210q305 0 494 -202q190 -200 190 -529q0 -257 -116 -442q-116 -183 -323 -258z" />
    <glyph glyph-name="R" unicode="R" horiz-adv-x="1337" 
d="M1367 0h-371l-223 369q-25 42 -48 75t-46.5 56.5t-49 36t-55.5 12.5h-87v-549h-323v1434h512q522 0 522 -390q0 -75 -23 -138.5t-65 -114.5t-101.5 -88t-132.5 -58v-4q32 -10 62 -32.5t58 -52.5t53.5 -64.5t46.5 -67.5zM487 1192v-399h140q104 0 167 60q64 61 64 151
q0 188 -225 188h-146z" />
    <glyph glyph-name="S" unicode="S" horiz-adv-x="1148" 
d="M98 55v320q87 -73 189 -109.5t206 -36.5q61 0 106.5 11t76 30.5t45.5 46t15 57.5q0 42 -24 75t-65.5 61t-98.5 54t-123 53q-168 70 -250.5 171t-82.5 244q0 112 45 192.5t122.5 132.5t179.5 76.5t216 24.5q112 0 198.5 -13.5t159.5 -41.5v-299q-36 25 -78.5 44
t-87.5 31.5t-89.5 18.5t-84.5 6q-55 0 -100 -10.5t-76 -29.5t-48 -45.5t-17 -59.5q0 -36 19 -64.5t54 -54t85 -50t113 -50.5q86 -36 154.5 -76.5t117.5 -91.5t75 -116.5t26 -152.5q0 -120 -45.5 -201.5t-123.5 -132t-181.5 -72.5t-218.5 -22q-118 0 -224.5 20t-184.5 60z
" />
    <glyph glyph-name="T" unicode="T" horiz-adv-x="1200" 
d="M1171 1171h-409v-1171h-324v1171h-407v263h1140v-263z" />
    <glyph glyph-name="U" unicode="U" horiz-adv-x="1481" 
d="M1333 621q0 -646 -602 -646q-584 0 -584 631v828h324v-832q0 -348 272 -348q267 0 267 336v844h323v-813z" />
    <glyph glyph-name="V" unicode="V" horiz-adv-x="1366" 
d="M1358 1434l-494 -1434h-366l-488 1434h348l299 -998q24 -81 29 -143h6q7 67 31 147l297 994h338z" />
    <glyph glyph-name="W" unicode="W" horiz-adv-x="2058" 
d="M2040 1434l-379 -1434h-358l-238 920q-19 72 -23 161h-4q-9 -98 -26 -161l-244 -920h-373l-377 1434h353l202 -955q13 -61 19 -164h6q4 77 29 168l260 951h346l235 -963q13 -53 23 -154h4q4 79 21 160l198 957h326z" />
    <glyph glyph-name="X" unicode="X" horiz-adv-x="1342" 
d="M1335 0h-383l-247 467q-14 26 -29 96h-4q-7 -33 -33 -100l-248 -463h-385l457 717l-418 717h393l205 -430q24 -51 43 -121h4q12 42 45 125l228 426h360l-430 -711z" />
    <glyph glyph-name="Y" unicode="Y" horiz-adv-x="1243" 
d="M1245 1434l-467 -924v-510h-323v504l-455 930h369l231 -535q6 -15 33 -117h4q13 72 31 113l235 539h342z" />
    <glyph glyph-name="Z" unicode="Z" horiz-adv-x="1243" 
d="M1196 0h-1155v186l735 985h-682v263h1100v-181l-719 -991h721v-262z" />
    <glyph glyph-name="bracketleft" unicode="[" horiz-adv-x="756" 
d="M686 -326h-469v1760h469v-201h-209v-1358h209v-201z" />
    <glyph glyph-name="backslash" unicode="\" horiz-adv-x="893" 
d="M961 -238h-279l-682 1672h281z" />
    <glyph glyph-name="bracketright" unicode="]" horiz-adv-x="756" 
d="M541 -326h-471v201h211v1358h-211v201h471v-1760z" />
    <glyph glyph-name="asciicircum" unicode="^" horiz-adv-x="1448" 
d="M1249 610h-243l-287 586h-4l-271 -586h-241l430 848h162z" />
    <glyph glyph-name="underscore" unicode="_" horiz-adv-x="850" 
d="M850 -297h-850v119h850v-119z" />
    <glyph glyph-name="grave" unicode="`" horiz-adv-x="643" 
d="M596 1186h-227l-314 323h281z" />
    <glyph glyph-name="a" unicode="a" horiz-adv-x="1102" 
d="M985 0h-299v147h-4q-103 -172 -305 -172q-149 0 -234.5 84.5t-85.5 225.5q0 298 353 344l278 37q0 168 -182 168q-183 0 -348 -109v238q66 34 180.5 60t208.5 26q438 0 438 -437v-612zM688 416v69l-186 -24q-154 -20 -154 -139q0 -54 37.5 -88.5t101.5 -34.5
q89 0 145 61.5t56 155.5z" />
    <glyph glyph-name="b" unicode="b" horiz-adv-x="1270" 
d="M453 119h-4v-119h-316v1516h316v-646h4q117 179 333 179q198 0 305 -136t107 -372q0 -256 -125 -411t-334 -155q-189 0 -286 144zM444 551v-105q0 -99 57 -164t146 -65q108 0 167.5 83.5t59.5 236.5q0 127 -54.5 198.5t-155.5 71.5q-95 0 -157.5 -71t-62.5 -185z" />
    <glyph glyph-name="c" unicode="c" horiz-adv-x="983" 
d="M909 37q-107 -62 -309 -62q-236 0 -382 143t-146 369q0 261 156.5 411.5t418.5 150.5q181 0 262 -48v-268q-99 74 -221 74q-136 0 -215.5 -79.5t-79.5 -219.5q0 -136 76 -213.5t209 -77.5q118 0 231 74v-254z" />
    <glyph glyph-name="d" unicode="d" horiz-adv-x="1268" 
d="M1135 0h-316v141h-4q-108 -166 -317 -166q-192 0 -309 135.5t-117 378.5q0 254 129 407t338 153q198 0 276 -142h4v609h316v-1516zM825 498v77q0 100 -58 166t-151 66q-105 0 -164 -82.5t-59 -226.5q0 -135 57 -208t158 -73q96 0 156.5 77t60.5 204z" />
    <glyph glyph-name="e" unicode="e" horiz-adv-x="1108" 
d="M1053 422h-668q16 -223 281 -223q169 0 297 80v-228q-142 -76 -369 -76q-248 0 -385 137.5t-137 383.5q0 255 148 404t364 149q224 0 346.5 -133t122.5 -361v-133zM760 616q0 220 -178 220q-76 0 -131.5 -63t-67.5 -157h377z" />
    <glyph glyph-name="f" unicode="f" horiz-adv-x="785" 
d="M801 1274q-61 24 -117 24q-152 0 -152 -165v-109h234v-233h-234v-791h-315v791h-172v233h172v127q0 175 114 282t310 107q96 0 160 -20v-246z" />
    <glyph glyph-name="g" unicode="g" horiz-adv-x="1268" 
d="M1137 117q0 -285 -165 -441.5t-478 -156.5q-207 0 -328 59v266q158 -92 319 -92q160 0 248 84.5t88 229.5v81h-4q-108 -172 -319 -172q-196 0 -311 138t-115 370q0 260 128 413t337 153q187 0 280 -144h4v119h316v-907zM825 492v81q0 97 -57.5 165.5t-149.5 68.5
q-105 0 -165 -82t-60 -231q0 -128 57 -202.5t156 -74.5q98 0 158.5 75.5t60.5 199.5z" />
    <glyph glyph-name="h" unicode="h" horiz-adv-x="1233" 
d="M1116 0h-315v582q0 225 -164 225q-84 0 -136 -63t-52 -160v-584h-316v1516h316v-644h4q116 177 315 177q348 0 348 -420v-629z" />
    <glyph glyph-name="i" unicode="i" horiz-adv-x="582" 
d="M293 1186q-80 0 -131 47.5t-51 116.5q0 71 51 116t131 45q81 0 131.5 -45t50.5 -116q0 -72 -50.5 -118t-131.5 -46zM449 0h-316v1024h316v-1024z" />
    <glyph glyph-name="j" unicode="j" horiz-adv-x="582" 
d="M293 1186q-80 0 -131 47.5t-51 116.5q0 71 51 116t131 45q81 0 131.5 -45t50.5 -116q0 -72 -50.5 -118t-131.5 -46zM449 18q0 -227 -111 -363t-320 -136q-69 0 -151 30v248q66 -37 117 -37q149 0 149 234v1030h316v-1006z" />
    <glyph glyph-name="k" unicode="k" horiz-adv-x="1145" 
d="M1159 0h-379l-327 508h-4v-508h-316v1516h316v-965h4l305 473h375l-367 -481z" />
    <glyph glyph-name="l" unicode="l" horiz-adv-x="582" 
d="M449 0h-316v1516h316v-1516z" />
    <glyph glyph-name="m" unicode="m" horiz-adv-x="1876" 
d="M1759 0h-315v584q0 223 -164 223q-78 0 -127 -67t-49 -167v-573h-316v590q0 217 -161 217q-81 0 -129.5 -64t-48.5 -174v-569h-316v1024h316v-160h4q49 82 137.5 133.5t193.5 51.5q217 0 297 -191q117 191 344 191q334 0 334 -412v-637z" />
    <glyph glyph-name="n" unicode="n" horiz-adv-x="1239" 
d="M1122 0h-315v569q0 238 -170 238q-82 0 -135 -63t-53 -160v-584h-316v1024h316v-162h4q113 187 329 187q340 0 340 -422v-627z" />
    <glyph glyph-name="o" unicode="o" horiz-adv-x="1252" 
d="M621 -25q-256 0 -402.5 143.5t-146.5 389.5q0 254 152 397.5t411 143.5q255 0 400 -143.5t145 -379.5q0 -255 -149.5 -403t-409.5 -148zM629 807q-112 0 -174 -77t-62 -218q0 -295 238 -295q227 0 227 303q0 287 -229 287z" />
    <glyph glyph-name="p" unicode="p" horiz-adv-x="1270" 
d="M453 119h-4v-590h-316v1495h316v-154h4q117 179 329 179q199 0 307.5 -136.5t108.5 -371.5q0 -256 -126.5 -411t-336.5 -155q-185 0 -282 144zM444 539v-82q0 -106 56 -173t147 -67q108 0 167.5 83.5t59.5 236.5q0 270 -210 270q-97 0 -158.5 -73.5t-61.5 -194.5z" />
    <glyph glyph-name="q" unicode="q" horiz-adv-x="1268" 
d="M1135 -471h-316v612h-4q-107 -166 -315 -166q-193 0 -310.5 134.5t-117.5 377.5q0 256 129 409t336 153q188 0 278 -144h4v119h316v-1495zM825 489v82q0 100 -58 168t-149 68q-105 0 -165 -82.5t-60 -228.5q0 -131 58.5 -205t152.5 -74q100 0 160.5 75t60.5 197z" />
    <glyph glyph-name="r" unicode="r" horiz-adv-x="815" 
d="M801 739q-57 31 -133 31q-103 0 -161 -75.5t-58 -205.5v-489h-316v1024h316v-190h4q75 208 270 208q50 0 78 -12v-291z" />
    <glyph glyph-name="s" unicode="s" horiz-adv-x="901" 
d="M66 27v256q78 -47 155.5 -70t146.5 -23q84 0 132.5 23t48.5 70q0 30 -22 50t-56.5 35t-75.5 27t-79 27q-61 23 -107.5 49.5t-78 61.5t-48 81t-16.5 109q0 86 37.5 148t100 101.5t143 58t167.5 18.5q68 0 138 -10.5t138 -30.5v-244q-60 35 -128.5 52.5t-134.5 17.5
q-31 0 -58.5 -5.5t-48.5 -16t-33 -27t-12 -37.5q0 -28 18 -48t47 -34.5t64.5 -26t70.5 -23.5q63 -22 114 -48t87.5 -61t56 -82t19.5 -112q0 -91 -39.5 -155.5t-105 -105t-151 -59t-177.5 -18.5q-169 0 -313 52z" />
    <glyph glyph-name="t" unicode="t" horiz-adv-x="797" 
d="M752 12q-70 -37 -211 -37q-334 0 -334 347v469h-166v233h166v221l315 90v-311h230v-233h-230v-414q0 -160 127 -160q50 0 103 29v-234z" />
    <glyph glyph-name="u" unicode="u" horiz-adv-x="1239" 
d="M1106 0h-315v156h-5q-117 -181 -313 -181q-356 0 -356 431v618h315v-590q0 -217 172 -217q85 0 136 59.5t51 161.5v586h315v-1024z" />
    <glyph glyph-name="v" unicode="v" horiz-adv-x="1110" 
d="M1108 1024l-381 -1024h-360l-363 1024h338l178 -631q30 -107 35 -182h4q7 71 37 176l182 637h330z" />
    <glyph glyph-name="w" unicode="w" horiz-adv-x="1633" 
d="M1616 1024l-295 -1024h-332l-151 600q-15 60 -17 131h-6q-7 -78 -20 -127l-162 -604h-328l-289 1024h322l141 -668q10 -47 15 -114h6q5 70 18 118l176 664h301l158 -668q6 -25 14 -116h7q5 58 16 116l133 668h293z" />
    <glyph glyph-name="x" unicode="x" horiz-adv-x="1131" 
d="M1122 1024l-338 -496l336 -528h-364l-148 276q-18 33 -43 93h-4q-15 -42 -41 -90l-149 -279h-363l346 510l-325 514h366l146 -287q29 -57 41 -96h4q16 47 43 98l149 285h344z" />
    <glyph glyph-name="y" unicode="y" horiz-adv-x="1102" 
d="M1108 1024l-416 -1106q-150 -399 -452 -399q-115 0 -189 26v252q63 -37 137 -37q122 0 170 115l54 127l-416 1022h350l191 -623q18 -58 28 -137h4q9 58 33 135l193 625h313z" />
    <glyph glyph-name="z" unicode="z" horiz-adv-x="981" 
d="M944 0h-919v131l514 660h-463v233h864v-156l-487 -635h491v-233z" />
    <glyph glyph-name="braceleft" unicode="{" horiz-adv-x="756" 
d="M674 -326q-218 0 -317 80t-99 285v240q0 184 -152 184v184q152 0 152 191v223q0 206 98 289.5t318 83.5v-187q-160 0 -160 -174v-213q0 -240 -154 -303v-4q154 -62 154 -307v-205q0 -98 37.5 -139t122.5 -41v-187z" />
    <glyph glyph-name="bar" unicode="|" horiz-adv-x="668" 
d="M461 -481h-252v2048h252v-2048z" />
    <glyph glyph-name="braceright" unicode="}" horiz-adv-x="756" 
d="M651 463q-153 0 -153 -187v-231q0 -211 -97.5 -291t-316.5 -80v187q84 0 122 40.5t38 137.5v213q0 239 153 299v4q-153 63 -153 313v205q0 174 -160 174v187q218 0 316 -83.5t98 -285.5v-229q0 -189 153 -189v-184z" />
    <glyph glyph-name="asciitilde" unicode="~" horiz-adv-x="1448" 
d="M1255 772q-6 -168 -89.5 -266t-223.5 -98q-106 0 -258 88q-109 63 -156 63q-123 0 -129 -160h-204q6 169 89.5 267t227.5 98q112 0 238 -76q130 -78 180 -78q52 0 85.5 44.5t35.5 117.5h204z" />
    <glyph glyph-name="exclamdown" unicode="&#xa1;" horiz-adv-x="670" 
d="M336 721q-81 0 -132.5 46t-51.5 116q0 72 51.5 119t132.5 47q79 0 130.5 -48t51.5 -118q0 -72 -51.5 -117t-130.5 -45zM504 -408h-332l37 990h256z" />
    <glyph glyph-name="cent" unicode="&#xa2;" horiz-adv-x="1178" 
d="M1004 207q-73 -42 -181 -55v-189h-161v184q-216 12 -354 151.5t-138 358.5q0 234 134 381.5t358 171.5v211h161v-207q110 -6 181 -45v-272q-76 58 -181 70v-574q108 17 181 68v-254zM662 399v559q-195 -59 -195 -280q0 -222 195 -279z" />
    <glyph glyph-name="sterling" unicode="&#xa3;" horiz-adv-x="1178" 
d="M1114 0h-971v227q193 52 193 269v116h-172v217h172v187q0 198 122 320t330 122q127 0 234 -49v-258q-98 66 -209 66q-184 0 -184 -230v-158h268v-217h-268v-86q0 -184 -152 -284h637v-242z" />
    <glyph glyph-name="currency" unicode="&#xa4;" horiz-adv-x="1139" 
d="M1087 358l-141 -145l-143 141q-105 -65 -234 -65q-127 0 -233 65l-143 -141l-142 145l142 138q-66 110 -66 229q0 121 66 229l-142 140l142 145l143 -141q106 65 233 65q129 0 234 -65l143 141l141 -145l-141 -140q68 -111 68 -229q0 -115 -68 -229zM569 965
q-100 0 -169.5 -69.5t-69.5 -168.5t69.5 -168.5t169.5 -69.5t171 69.5t71 168.5q0 98 -73 168t-169 70z" />
    <glyph glyph-name="yen" unicode="&#xa5;" horiz-adv-x="1178" 
d="M1157 1434l-354 -641h252v-189h-305v-153h305v-189h-305v-262h-308v262h-315v189h315v153h-315v189h256l-342 641h321l246 -570h4q4 11 37 90l203 480h305z" />
    <glyph glyph-name="brokenbar" unicode="&#xa6;" horiz-adv-x="668" 
d="M461 684h-252v883h252v-883zM461 -481h-252v895h252v-895z" />
    <glyph glyph-name="section" unicode="&#xa7;" horiz-adv-x="994" 
d="M752 434q82 -75 82 -174q0 -149 -108.5 -237.5t-285.5 -88.5q-163 0 -290 68v248q180 -105 311 -105q127 0 127 99q0 61 -96 108q-141 65 -210 112.5t-110 116.5t-41 150q0 143 125 234q-88 88 -88 215q0 140 102.5 225.5t274.5 85.5q139 0 260 -55v-250q-139 96 -260 96
q-123 0 -123 -94q0 -45 40.5 -77.5t184.5 -96.5q254 -112 254 -309q0 -167 -149 -271zM432 864q-65 -38 -65 -110q0 -57 51 -102t178 -99q66 44 66 123q0 62 -53.5 100.5t-176.5 87.5z" />
    <glyph glyph-name="dieresis" unicode="&#xa8;" horiz-adv-x="946" 
d="M698 1186q-67 0 -110 39t-43 98q0 61 43 99t110 38t110.5 -38.5t43.5 -98.5t-43 -98.5t-111 -38.5zM240 1186q-68 0 -111 39.5t-43 97.5q0 60 44 98.5t110 38.5q68 0 110.5 -38.5t42.5 -98.5q0 -61 -42.5 -99t-110.5 -38z" />
    <glyph glyph-name="copyright" unicode="&#xa9;" horiz-adv-x="1790" 
d="M893 -25q-333 0 -547.5 207t-214.5 531q0 317 220.5 531t549.5 214q328 0 544 -208.5t216 -532.5q0 -317 -221.5 -529.5t-546.5 -212.5zM897 1346q-275 0 -454 -180t-179 -449q0 -272 181.5 -450.5t451.5 -178.5q265 0 448 179.5t183 447.5q0 272 -180 451.5t-451 179.5z
M1204 295q-125 -68 -274 -68q-209 0 -346.5 134t-137.5 335q0 231 143.5 370.5t373.5 139.5q125 0 239 -55v-236q-98 76 -244 76q-115 0 -192.5 -76.5t-77.5 -205.5q0 -122 78.5 -197.5t198.5 -75.5q141 0 239 76v-217z" />
    <glyph glyph-name="ordfeminine" unicode="&#xaa;" horiz-adv-x="840" 
d="M739 717h-213v86h-4q-87 -107 -219 -107q-101 0 -166 61t-65 158q0 211 262 244l192 25q0 114 -139 114q-118 0 -246 -77v176q124 57 287 57q311 0 311 -299v-438zM526 985v70l-123 -17q-116 -16 -116 -96q0 -88 104 -88q54 0 94.5 38.5t40.5 92.5z" />
    <glyph glyph-name="guillemotleft" unicode="&#xab;" horiz-adv-x="1190" 
d="M1137 201h-269l-327 336l327 344h269l-334 -344zM651 201h-268l-330 336l330 344h266l-334 -344z" />
    <glyph glyph-name="logicalnot" unicode="&#xac;" horiz-adv-x="1448" 
d="M1212 266h-202v389h-772v203h974v-592z" />
    <glyph glyph-name="registered" unicode="&#xae;" horiz-adv-x="1790" 
d="M893 -25q-333 0 -547.5 207t-214.5 531q0 317 220.5 531t549.5 214q328 0 544 -208.5t216 -532.5q0 -317 -221.5 -529.5t-546.5 -212.5zM897 1346q-275 0 -454 -180t-179 -449q0 -272 181.5 -450.5t451.5 -178.5q265 0 448 179.5t183 447.5q0 272 -180 451.5t-451 179.5z
M1288 264h-254l-76 232q-40 122 -110 122h-74v-354h-211v922h320q370 0 370 -262q0 -189 -217 -244v-4q90 -20 142 -146zM774 1010v-230h111q139 0 139 119q0 111 -160 111h-90z" />
    <glyph glyph-name="macron" unicode="&#xaf;" horiz-adv-x="850" 
d="M850 1396h-850v120h850v-120z" />
    <glyph glyph-name="degree" unicode="&#xb0;" horiz-adv-x="778" 
d="M399 895q-119 0 -201.5 82.5t-82.5 200.5t82.5 199t201.5 81q118 0 201.5 -81t83.5 -199t-83.5 -200.5t-201.5 -82.5zM399 1307q-54 0 -91.5 -37.5t-37.5 -91.5t37.5 -92.5t91.5 -38.5q53 0 91 38.5t38 92.5t-37.5 91.5t-91.5 37.5z" />
    <glyph glyph-name="plusminus" unicode="&#xb1;" horiz-adv-x="1448" 
d="M1212 694h-385v-387h-202v387h-383v203h383v391h202v-391h385v-203zM1210 0h-972v203h972v-203z" />
    <glyph glyph-name="uni00B2" unicode="&#xb2;" horiz-adv-x="828" 
d="M721 884h-604v157l248 234q77 73 95.5 110t18.5 82q0 42 -28.5 69.5t-75.5 27.5q-98 0 -211 -103v215q118 78 250 78q136 0 215.5 -68.5t79.5 -189.5q0 -70 -37.5 -141t-179.5 -197l-105 -92v-4h334v-178z" />
    <glyph glyph-name="uni00B3" unicode="&#xb3;" horiz-adv-x="828" 
d="M131 916v181q107 -68 221 -68q150 0 150 102q0 103 -172 103h-117v166h113q149 0 149 96q0 90 -119 90q-107 0 -198 -65v176q99 57 239 57q134 0 211.5 -60.5t77.5 -160.5q0 -147 -143 -195v-4q172 -41 172 -198q0 -123 -98 -198t-257 -75q-133 0 -229 53z" />
    <glyph glyph-name="acute" unicode="&#xb4;" horiz-adv-x="621" 
d="M596 1509l-313 -323h-228l260 323h281z" />
    <glyph glyph-name="mu" unicode="&#xb5;" horiz-adv-x="1255" 
d="M1161 0h-324q-25 70 -25 154h-4q-57 -177 -216 -177q-97 0 -140 64h-3v-436h-316v1419h316v-589q0 -207 170 -207q184 0 184 254v542h319v-710q0 -236 39 -314z" />
    <glyph glyph-name="paragraph" unicode="&#xb6;" horiz-adv-x="1043" 
d="M946 1272h-117v-1272h-174v1272h-118v-1272h-177v836q-115 7 -191.5 92t-76.5 211q0 129 85.5 212t211.5 83h557v-162z" />
    <glyph glyph-name="periodcentered" unicode="&#xb7;" horiz-adv-x="555" 
d="M274 487q-78 0 -130 48t-52 118q0 72 53.5 118t133.5 46q81 0 132.5 -46.5t51.5 -117.5q0 -73 -52.5 -119.5t-136.5 -46.5z" />
    <glyph glyph-name="cedilla" unicode="&#xb8;" horiz-adv-x="441" 
d="M51 -451v138q35 -6 72 -6q123 0 123 73q0 66 -111 66q-13 0 -37 -2v182h172v-82q187 -8 187 -166q0 -207 -318 -207q-46 0 -88 4z" />
    <glyph glyph-name="uni00B9" unicode="&#xb9;" horiz-adv-x="807" 
d="M721 884h-563v172h176v477l-191 -41v180l406 82v-698h172v-172z" />
    <glyph glyph-name="ordmasculine" unicode="&#xba;" horiz-adv-x="934" 
d="M459 696q-185 0 -287 99.5t-102 277.5q0 179 108.5 280t292.5 101q181 0 284 -101.5t103 -265.5q0 -184 -106.5 -287.5t-292.5 -103.5zM465 1280q-164 0 -164 -203q0 -207 164 -207q160 0 160 209q0 201 -160 201z" />
    <glyph glyph-name="guillemotright" unicode="&#xbb;" horiz-adv-x="1190" 
d="M1137 537l-328 -336h-268l333 336l-331 344h266zM651 537l-329 -336h-269l336 336l-334 344h267z" />
    <glyph glyph-name="onequarter" unicode="&#xbc;" horiz-adv-x="1950" 
d="M676 584h-563v172h176v477l-191 -41v180l406 82v-698h172v-172zM1505 1434l-891 -1434h-244l891 1434h244zM1845 176h-110v-176h-213v176h-395v141l350 533h258v-519h110v-155zM1526 678h-8q-14 -36 -39 -76l-168 -271h211v263q0 47 4 84z" />
    <glyph glyph-name="onehalf" unicode="&#xbd;" horiz-adv-x="1977" 
d="M676 584h-563v172h176v477l-191 -41v180l406 82v-698h172v-172zM1506 1434l-891 -1434h-244l891 1434h244zM1843 0h-604v157l248 234q77 73 95.5 110t18.5 82q0 42 -28.5 69.5t-75.5 27.5q-98 0 -211 -103v215q118 78 250 78q136 0 215.5 -68.5t79.5 -189.5
q0 -70 -37.5 -141t-179.5 -197l-105 -92v-4h334v-178z" />
    <glyph glyph-name="threequarters" unicode="&#xbe;" horiz-adv-x="2005" 
d="M131 616v181q107 -68 221 -68q150 0 150 102q0 103 -172 103h-117v166h113q149 0 149 96q0 90 -119 90q-107 0 -198 -65v176q99 57 239 57q134 0 211.5 -60.5t77.5 -160.5q0 -147 -143 -195v-4q172 -41 172 -198q0 -123 -98 -198t-257 -75q-133 0 -229 53zM1565 1434
l-891 -1434h-244l891 1434h244zM1892 176h-110v-176h-213v176h-395v141l350 533h258v-519h110v-155zM1573 678h-8q-14 -36 -39 -76l-168 -271h211v263q0 47 4 84z" />
    <glyph glyph-name="questiondown" unicode="&#xbf;" horiz-adv-x="897" 
d="M647 611q10 -26 15.5 -58.5t5.5 -61.5q0 -46 -9 -84t-27 -71.5t-45 -64t-63 -60.5q-37 -32 -66 -59.5t-49 -55t-30 -57t-10 -65.5q0 -31 11 -57.5t31.5 -45.5t50 -30t65.5 -11q78 0 162 32.5t159 98.5v-301q-77 -46 -168 -69t-188 -23q-93 0 -173 20.5t-139.5 64.5
t-93 112.5t-33.5 164.5q0 61 14 110.5t41 93.5t67 84.5t92 83.5q35 29 61.5 54t44 49.5t26.5 52t9 62.5q0 24 -6.5 49t-17.5 42h263zM501 1049q81 0 133 -48q53 -50 53 -118q0 -70 -53 -117t-133 -47q-79 0 -131 47q-52 46 -52 117q0 73 51 119q52 47 132 47z" />
    <glyph glyph-name="Agrave" unicode="&#xc0;" horiz-adv-x="1440" 
d="M1425 0h-352l-102 319h-510l-101 -319h-350l522 1434h383zM897 567l-154 482q-17 54 -24 129h-8q-5 -63 -25 -125l-156 -486h367zM916 1567h-227l-314 323h281z" />
    <glyph glyph-name="Aacute" unicode="&#xc1;" horiz-adv-x="1440" 
d="M1425 0h-352l-102 319h-510l-101 -319h-350l522 1434h383zM897 567l-154 482q-17 54 -24 129h-8q-5 -63 -25 -125l-156 -486h367zM1036 1890l-313 -323h-228l260 323h281z" />
    <glyph glyph-name="Acircumflex" unicode="&#xc2;" horiz-adv-x="1440" 
d="M1425 0h-352l-102 319h-510l-101 -319h-350l522 1434h383zM897 567l-154 482q-17 54 -24 129h-8q-5 -63 -25 -125l-156 -486h367zM1078 1567h-207l-158 188l-147 -188h-207l235 325h248z" />
    <glyph glyph-name="Atilde" unicode="&#xc3;" horiz-adv-x="1440" 
d="M1425 0h-352l-102 319h-510l-101 -319h-350l522 1434h383zM897 567l-154 482q-17 54 -24 129h-8q-5 -63 -25 -125l-156 -486h367zM1077 1878q0 -140 -55.5 -216.5t-151.5 -76.5q-86 0 -168 43q-89 47 -123 47q-80 0 -80 -108h-141q0 139 55 216t154 77q81 0 168 -49
q79 -44 120 -44q78 0 78 111h144z" />
    <glyph glyph-name="Adieresis" unicode="&#xc4;" horiz-adv-x="1440" 
d="M1425 0h-352l-102 319h-510l-101 -319h-350l522 1434h383zM897 567l-154 482q-17 54 -24 129h-8q-5 -63 -25 -125l-156 -486h367zM945 1567q-67 0 -110 39t-43 98q0 61 43 99t110 38t110.5 -38.5t43.5 -98.5t-43 -98.5t-111 -38.5zM487 1567q-68 0 -111 39.5t-43 97.5
q0 60 44 98.5t110 38.5q68 0 110.5 -38.5t42.5 -98.5q0 -61 -42.5 -99t-110.5 -38z" />
    <glyph glyph-name="Aring" unicode="&#xc5;" horiz-adv-x="1440" 
d="M1425 0h-352l-102 319h-510l-101 -319h-350l512 1407q-53 54 -53 137q0 106 73.5 169t180.5 63q114 0 184 -63.5t70 -164.5q0 -80 -53 -137zM719 1645q-47 0 -75 -28.5t-28 -70.5q0 -98 103 -98q48 0 77 28.5t29 69.5q0 43 -29.5 71t-76.5 28zM893 584l-152 465
q-13 40 -22 120h-8q-7 -68 -23 -116l-153 -469h358z" />
    <glyph glyph-name="AE" unicode="&#xc6;" horiz-adv-x="1915" 
d="M1849 0h-858v319h-471l-147 -319h-375l725 1434h1094v-263h-504v-319h469v-262h-469v-328h536v-262zM991 567v604h-78l-282 -604h360z" />
    <glyph glyph-name="Ccedilla" unicode="&#xc7;" horiz-adv-x="1278" 
d="M1192 51q-157 -76 -410 -76q-330 0 -519 194t-189 517q0 344 212.5 558t551.5 214q210 0 354 -53v-311q-144 86 -328 86q-202 0 -326 -127t-124 -344q0 -208 117 -331.5t315 -123.5q189 0 346 92v-295zM610 -451v138q35 -6 72 -6q123 0 123 73q0 66 -111 66q-13 0 -37 -2
v182h172v-82q187 -8 187 -166q0 -207 -318 -207q-46 0 -88 4z" />
    <glyph glyph-name="Egrave" unicode="&#xc8;" horiz-adv-x="1090" 
d="M1024 0h-860v1434h827v-263h-504v-319h469v-262h-469v-328h537v-262zM766 1567h-227l-314 323h281z" />
    <glyph glyph-name="Eacute" unicode="&#xc9;" horiz-adv-x="1090" 
d="M1024 0h-860v1434h827v-263h-504v-319h469v-262h-469v-328h537v-262zM934 1890l-313 -323h-228l260 323h281z" />
    <glyph glyph-name="Ecircumflex" unicode="&#xca;" horiz-adv-x="1090" 
d="M1024 0h-860v1434h827v-263h-504v-319h469v-262h-469v-328h537v-262zM932 1567h-207l-158 188l-147 -188h-207l235 325h248z" />
    <glyph glyph-name="Edieresis" unicode="&#xcb;" horiz-adv-x="1090" 
d="M1024 0h-860v1434h827v-263h-504v-319h469v-262h-469v-328h537v-262zM812 1567q-67 0 -110 39t-43 98q0 61 43 99t110 38t110.5 -38.5t43.5 -98.5t-43 -98.5t-111 -38.5zM354 1567q-68 0 -111 39.5t-43 97.5q0 60 44 98.5t110 38.5q68 0 110.5 -38.5t42.5 -98.5
q0 -61 -42.5 -99t-110.5 -38z" />
    <glyph glyph-name="Igrave" unicode="&#xcc;" horiz-adv-x="649" 
d="M607 1434v-250h-120v-934h120v-250h-563v250h120v934h-120v250h563zM532 1567h-227l-314 323h281z" />
    <glyph glyph-name="Iacute" unicode="&#xcd;" horiz-adv-x="649" 
d="M607 1434v-250h-120v-934h120v-250h-563v250h120v934h-120v250h563zM651 1890l-313 -323h-228l260 323h281z" />
    <glyph glyph-name="Icircumflex" unicode="&#xce;" horiz-adv-x="649" 
d="M607 1434v-250h-120v-934h120v-250h-563v250h120v934h-120v250h563zM691 1567h-207l-158 188l-147 -188h-207l235 325h248z" />
    <glyph glyph-name="Idieresis" unicode="&#xcf;" horiz-adv-x="649" 
d="M607 1434v-250h-120v-934h120v-250h-563v250h120v934h-120v250h563zM559 1567q-67 0 -110 39t-43 98q0 61 43 99t110 38t110.5 -38.5t43.5 -98.5t-43 -98.5t-111 -38.5zM101 1567q-68 0 -111 39.5t-43 97.5q0 60 44 98.5t110 38.5q68 0 110.5 -38.5t42.5 -98.5
q0 -61 -42.5 -99t-110.5 -38z" />
    <glyph glyph-name="Eth" unicode="&#xd0;" horiz-adv-x="1510" 
d="M164 0v586h-164v266h164v582h508q764 0 764 -699q0 -335 -208.5 -535t-555.5 -200h-508zM487 1171v-319h271v-266h-271v-324h160q210 0 329.5 126t119.5 343q0 205 -118.5 322.5t-332.5 117.5h-158z" />
    <glyph glyph-name="Ntilde" unicode="&#xd1;" horiz-adv-x="1618" 
d="M1454 0h-326l-591 901q-52 79 -72 119h-4q8 -76 8 -232v-788h-305v1434h348l569 -873q39 -59 72 -117h4q-8 50 -8 197v793h305v-1434zM1206 1878q0 -140 -55.5 -216.5t-151.5 -76.5q-86 0 -168 43q-89 47 -123 47q-80 0 -80 -108h-141q0 139 55 216t154 77q81 0 168 -49
q79 -44 120 -44q78 0 78 111h144z" />
    <glyph glyph-name="Ograve" unicode="&#xd2;" horiz-adv-x="1553" 
d="M770 -25q-308 0 -502 200.5t-194 522.5q0 340 197 550t522 210q307 0 496.5 -201t189.5 -530q0 -338 -196.5 -545t-512.5 -207zM784 1180q-170 0 -270 -127.5t-100 -337.5q0 -213 100 -337t262 -124q167 0 265 120.5t98 334.5q0 223 -95 347t-260 124zM971 1567h-227
l-314 323h281z" />
    <glyph glyph-name="Oacute" unicode="&#xd3;" horiz-adv-x="1553" 
d="M770 -25q-308 0 -502 200.5t-194 522.5q0 340 197 550t522 210q307 0 496.5 -201t189.5 -530q0 -338 -196.5 -545t-512.5 -207zM784 1180q-170 0 -270 -127.5t-100 -337.5q0 -213 100 -337t262 -124q167 0 265 120.5t98 334.5q0 223 -95 347t-260 124zM1110 1890
l-313 -323h-228l260 323h281z" />
    <glyph glyph-name="Ocircumflex" unicode="&#xd4;" horiz-adv-x="1553" 
d="M770 -25q-308 0 -502 200.5t-194 522.5q0 340 197 550t522 210q307 0 496.5 -201t189.5 -530q0 -338 -196.5 -545t-512.5 -207zM784 1180q-170 0 -270 -127.5t-100 -337.5q0 -213 100 -337t262 -124q167 0 265 120.5t98 334.5q0 223 -95 347t-260 124zM1149 1567h-207
l-158 188l-147 -188h-207l235 325h248z" />
    <glyph glyph-name="Otilde" unicode="&#xd5;" horiz-adv-x="1553" 
d="M770 -25q-308 0 -502 200.5t-194 522.5q0 340 197 550t522 210q307 0 496.5 -201t189.5 -530q0 -338 -196.5 -545t-512.5 -207zM784 1180q-170 0 -270 -127.5t-100 -337.5q0 -213 100 -337t262 -124q167 0 265 120.5t98 334.5q0 223 -95 347t-260 124zM1147 1878
q0 -140 -55.5 -216.5t-151.5 -76.5q-86 0 -168 43q-89 47 -123 47q-80 0 -80 -108h-141q0 139 55 216t154 77q81 0 168 -49q79 -44 120 -44q78 0 78 111h144z" />
    <glyph glyph-name="Odieresis" unicode="&#xd6;" horiz-adv-x="1553" 
d="M770 -25q-308 0 -502 200.5t-194 522.5q0 340 197 550t522 210q307 0 496.5 -201t189.5 -530q0 -338 -196.5 -545t-512.5 -207zM784 1180q-170 0 -270 -127.5t-100 -337.5q0 -213 100 -337t262 -124q167 0 265 120.5t98 334.5q0 223 -95 347t-260 124zM1004 1567
q-67 0 -110 39t-43 98q0 61 43 99t110 38t110.5 -38.5t43.5 -98.5t-43 -98.5t-111 -38.5zM546 1567q-68 0 -111 39.5t-43 97.5q0 60 44 98.5t110 38.5q68 0 110.5 -38.5t42.5 -98.5q0 -61 -42.5 -99t-110.5 -38z" />
    <glyph glyph-name="multiply" unicode="&#xd7;" horiz-adv-x="1448" 
d="M1210 248l-145 -144l-338 340l-340 -340l-145 146l340 336l-340 340l141 145l344 -340l342 340l139 -151l-338 -334z" />
    <glyph glyph-name="Oslash" unicode="&#xd8;" horiz-adv-x="1553" 
d="M348 109l-143 -170l-125 104l149 176q-155 192 -155 479q0 340 196.5 550t522.5 210q234 0 401 -119l129 150l125 -103l-135 -157q166 -196 166 -502q0 -338 -196.5 -545t-512.5 -207q-240 0 -422 134zM1016 1130q-97 76 -232 76q-181 0 -287 -136.5t-106 -360.5
q0 -146 47 -252zM1110 995l-578 -676q101 -92 244 -92q175 0 281 128.5t106 351.5q0 164 -53 288z" />
    <glyph glyph-name="Ugrave" unicode="&#xd9;" horiz-adv-x="1481" 
d="M1333 621q0 -646 -602 -646q-584 0 -584 631v828h324v-832q0 -348 272 -348q267 0 267 336v844h323v-813zM920 1567h-227l-314 323h281z" />
    <glyph glyph-name="Uacute" unicode="&#xda;" horiz-adv-x="1481" 
d="M1333 621q0 -646 -602 -646q-584 0 -584 631v828h324v-832q0 -348 272 -348q267 0 267 336v844h323v-813zM1088 1890l-313 -323h-228l260 323h281z" />
    <glyph glyph-name="Ucircumflex" unicode="&#xdb;" horiz-adv-x="1481" 
d="M1333 621q0 -646 -602 -646q-584 0 -584 631v828h324v-832q0 -348 272 -348q267 0 267 336v844h323v-813zM1099 1567h-207l-158 188l-147 -188h-207l235 325h248z" />
    <glyph glyph-name="Udieresis" unicode="&#xdc;" horiz-adv-x="1481" 
d="M1333 621q0 -646 -602 -646q-584 0 -584 631v828h324v-832q0 -348 272 -348q267 0 267 336v844h323v-813zM969 1567q-67 0 -110 39t-43 98q0 61 43 99t110 38t110.5 -38.5t43.5 -98.5t-43 -98.5t-111 -38.5zM511 1567q-68 0 -111 39.5t-43 97.5q0 60 44 98.5t110 38.5
q68 0 110.5 -38.5t42.5 -98.5q0 -61 -42.5 -99t-110.5 -38z" />
    <glyph glyph-name="Yacute" unicode="&#xdd;" horiz-adv-x="1243" 
d="M1245 1434l-467 -924v-510h-323v504l-455 930h369l231 -535q6 -15 33 -117h4q13 72 31 113l235 539h342zM903 1857l-313 -323h-228l260 323h281z" />
    <glyph glyph-name="Thorn" unicode="&#xde;" horiz-adv-x="1258" 
d="M487 281v-281h-323v1434h323v-211h183q542 0 542 -457q0 -216 -155.5 -350.5t-415.5 -134.5h-154zM487 975v-447h127q258 0 258 226q0 221 -258 221h-127z" />
    <glyph glyph-name="germandbls" unicode="&#xdf;" horiz-adv-x="1286" 
d="M545 8v262q83 -53 176 -53q83 0 132.5 52.5t49.5 144.5q0 116 -89 183.5t-251 72.5v221q111 8 172.5 68t61.5 159q0 84 -44.5 132t-119.5 48q-184 0 -184 -245v-1053h-316v1049q0 223 137 357t381 134q217 0 343 -109.5t126 -281.5q0 -122 -71.5 -214t-184.5 -126v-4
q363 -69 363 -399q0 -180 -126.5 -305.5t-342.5 -125.5q-105 0 -213 33z" />
    <glyph glyph-name="agrave" unicode="&#xe0;" horiz-adv-x="1102" 
d="M985 0h-299v147h-4q-103 -172 -305 -172q-149 0 -234.5 84.5t-85.5 225.5q0 298 353 344l278 37q0 168 -182 168q-183 0 -348 -109v238q66 34 180.5 60t208.5 26q438 0 438 -437v-612zM688 416v69l-186 -24q-154 -20 -154 -139q0 -54 37.5 -88.5t101.5 -34.5
q89 0 145 61.5t56 155.5zM775 1186h-227l-314 323h281z" />
    <glyph glyph-name="aacute" unicode="&#xe1;" horiz-adv-x="1102" 
d="M985 0h-299v147h-4q-103 -172 -305 -172q-149 0 -234.5 84.5t-85.5 225.5q0 298 353 344l278 37q0 168 -182 168q-183 0 -348 -109v238q66 34 180.5 60t208.5 26q438 0 438 -437v-612zM688 416v69l-186 -24q-154 -20 -154 -139q0 -54 37.5 -88.5t101.5 -34.5
q89 0 145 61.5t56 155.5zM891 1509l-313 -323h-228l260 323h281z" />
    <glyph glyph-name="acircumflex" unicode="&#xe2;" horiz-adv-x="1102" 
d="M985 0h-299v147h-4q-103 -172 -305 -172q-149 0 -234.5 84.5t-85.5 225.5q0 298 353 344l278 37q0 168 -182 168q-183 0 -348 -109v238q66 34 180.5 60t208.5 26q438 0 438 -437v-612zM688 416v69l-186 -24q-154 -20 -154 -139q0 -54 37.5 -88.5t101.5 -34.5
q89 0 145 61.5t56 155.5zM914 1186h-207l-158 188l-147 -188h-207l235 325h248z" />
    <glyph glyph-name="atilde" unicode="&#xe3;" horiz-adv-x="1102" 
d="M985 0h-299v147h-4q-103 -172 -305 -172q-149 0 -234.5 84.5t-85.5 225.5q0 298 353 344l278 37q0 168 -182 168q-183 0 -348 -109v238q66 34 180.5 60t208.5 26q438 0 438 -437v-612zM688 416v69l-186 -24q-154 -20 -154 -139q0 -54 37.5 -88.5t101.5 -34.5
q89 0 145 61.5t56 155.5zM907 1497q0 -140 -55.5 -216.5t-151.5 -76.5q-86 0 -168 43q-89 47 -123 47q-80 0 -80 -108h-141q0 139 55 216t154 77q81 0 168 -49q79 -44 120 -44q78 0 78 111h144z" />
    <glyph glyph-name="adieresis" unicode="&#xe4;" horiz-adv-x="1102" 
d="M985 0h-299v147h-4q-103 -172 -305 -172q-149 0 -234.5 84.5t-85.5 225.5q0 298 353 344l278 37q0 168 -182 168q-183 0 -348 -109v238q66 34 180.5 60t208.5 26q438 0 438 -437v-612zM688 416v69l-186 -24q-154 -20 -154 -139q0 -54 37.5 -88.5t101.5 -34.5
q89 0 145 61.5t56 155.5zM787 1186q-67 0 -110 39t-43 98q0 61 43 99t110 38t110.5 -38.5t43.5 -98.5t-43 -98.5t-111 -38.5zM329 1186q-68 0 -111 39.5t-43 97.5q0 60 44 98.5t110 38.5q68 0 110.5 -38.5t42.5 -98.5q0 -61 -42.5 -99t-110.5 -38z" />
    <glyph glyph-name="aring" unicode="&#xe5;" horiz-adv-x="1102" 
d="M985 0h-299v147h-4q-103 -172 -305 -172q-149 0 -234.5 84.5t-85.5 225.5q0 298 353 344l278 37q0 168 -182 168q-183 0 -348 -109v238q66 34 180.5 60t208.5 26q438 0 438 -437v-612zM688 416v69l-186 -24q-154 -20 -154 -139q0 -54 37.5 -88.5t101.5 -34.5
q89 0 145 61.5t56 155.5zM573 1186q-102 0 -168.5 59.5t-66.5 155.5q0 101 69.5 161t170.5 60q107 0 173 -59.5t66 -155.5q0 -98 -71.5 -159.5t-172.5 -61.5zM573 1499q-96 0 -96 -94t96 -94q45 0 74 27.5t29 66.5q0 41 -28.5 67.5t-74.5 26.5z" />
    <glyph glyph-name="ae" unicode="&#xe6;" horiz-adv-x="1696" 
d="M1640 422h-667q20 -223 282 -223q160 0 297 80v-226q-156 -78 -378 -78q-269 0 -398 179h-4q-141 -179 -362 -179q-166 0 -259.5 82.5t-93.5 229.5q0 146 96.5 234t276.5 102l256 20q0 191 -184 191q-174 0 -344 -107v236q187 86 370 86q234 0 324 -134h4
q132 134 326 134q214 0 336 -133t122 -365v-129zM1348 616q0 220 -177 220q-75 0 -131.5 -62t-66.5 -158h375zM686 414v45l-156 -13q-184 -15 -184 -131q0 -50 39 -83t102 -33q86 0 142.5 59.5t56.5 155.5z" />
    <glyph glyph-name="ccedilla" unicode="&#xe7;" horiz-adv-x="983" 
d="M909 37q-107 -62 -309 -62q-236 0 -382 143t-146 369q0 261 156.5 411.5t418.5 150.5q181 0 262 -48v-268q-99 74 -221 74q-136 0 -215.5 -79.5t-79.5 -219.5q0 -136 76 -213.5t209 -77.5q118 0 231 74v-254zM426 -451v138q35 -6 72 -6q123 0 123 73q0 66 -111 66
q-13 0 -37 -2v182h172v-82q187 -8 187 -166q0 -207 -318 -207q-46 0 -88 4z" />
    <glyph glyph-name="egrave" unicode="&#xe8;" horiz-adv-x="1108" 
d="M1053 422h-668q16 -223 281 -223q169 0 297 80v-228q-142 -76 -369 -76q-248 0 -385 137.5t-137 383.5q0 255 148 404t364 149q224 0 346.5 -133t122.5 -361v-133zM760 616q0 220 -178 220q-76 0 -131.5 -63t-67.5 -157h377zM795 1186h-227l-314 323h281z" />
    <glyph glyph-name="eacute" unicode="&#xe9;" horiz-adv-x="1108" 
d="M1053 422h-668q16 -223 281 -223q169 0 297 80v-228q-142 -76 -369 -76q-248 0 -385 137.5t-137 383.5q0 255 148 404t364 149q224 0 346.5 -133t122.5 -361v-133zM760 616q0 220 -178 220q-76 0 -131.5 -63t-67.5 -157h377zM921 1509l-313 -323h-228l260 323h281z" />
    <glyph glyph-name="ecircumflex" unicode="&#xea;" horiz-adv-x="1108" 
d="M1053 422h-668q16 -223 281 -223q169 0 297 80v-228q-142 -76 -369 -76q-248 0 -385 137.5t-137 383.5q0 255 148 404t364 149q224 0 346.5 -133t122.5 -361v-133zM760 616q0 220 -178 220q-76 0 -131.5 -63t-67.5 -157h377zM949 1186h-207l-158 188l-147 -188h-207
l235 325h248z" />
    <glyph glyph-name="edieresis" unicode="&#xeb;" horiz-adv-x="1108" 
d="M1053 422h-668q16 -223 281 -223q169 0 297 80v-228q-142 -76 -369 -76q-248 0 -385 137.5t-137 383.5q0 255 148 404t364 149q224 0 346.5 -133t122.5 -361v-133zM760 616q0 220 -178 220q-76 0 -131.5 -63t-67.5 -157h377zM808 1186q-67 0 -110 39t-43 98q0 61 43 99
t110 38t110.5 -38.5t43.5 -98.5t-43 -98.5t-111 -38.5zM350 1186q-68 0 -111 39.5t-43 97.5q0 60 44 98.5t110 38.5q68 0 110.5 -38.5t42.5 -98.5q0 -61 -42.5 -99t-110.5 -38z" />
    <glyph glyph-name="igrave" unicode="&#xec;" horiz-adv-x="582" 
d="M449 0h-316v1024h316v-1024zM514 1186h-227l-314 323h281z" />
    <glyph glyph-name="iacute" unicode="&#xed;" horiz-adv-x="582" 
d="M449 0h-316v1024h316v-1024zM612 1509l-313 -323h-228l260 323h281z" />
    <glyph glyph-name="icircumflex" unicode="&#xee;" horiz-adv-x="582" 
d="M449 0h-316v1024h316v-1024zM657 1186h-207l-158 188l-147 -188h-207l235 325h248z" />
    <glyph glyph-name="idieresis" unicode="&#xef;" horiz-adv-x="582" 
d="M449 0h-316v1024h316v-1024zM526 1186q-67 0 -110 39t-43 98q0 61 43 99t110 38t110.5 -38.5t43.5 -98.5t-43 -98.5t-111 -38.5zM68 1186q-68 0 -111 39.5t-43 97.5q0 60 44 98.5t110 38.5q68 0 110.5 -38.5t42.5 -98.5q0 -61 -42.5 -99t-110.5 -38z" />
    <glyph glyph-name="eth" unicode="&#xf0;" horiz-adv-x="1215" 
d="M756 965l4 2q-84 147 -195 237l-291 -143l-81 141l241 115q-157 125 -270 199h352q11 -6 131 -97l273 133l77 -137l-215 -104q361 -291 361 -748q0 -260 -150 -424t-395 -164q-248 0 -387 144.5t-139 394.5q0 231 132.5 378.5t346.5 147.5q117 0 205 -75zM612 807
q-103 0 -161 -78.5t-58 -214.5q0 -140 57 -218.5t158 -78.5q98 0 155.5 81.5t57.5 221.5q0 287 -209 287z" />
    <glyph glyph-name="ntilde" unicode="&#xf1;" horiz-adv-x="1239" 
d="M1122 0h-315v569q0 238 -170 238q-82 0 -135 -63t-53 -160v-584h-316v1024h316v-162h4q113 187 329 187q340 0 340 -422v-627zM982 1497q0 -140 -55.5 -216.5t-151.5 -76.5q-86 0 -168 43q-89 47 -123 47q-80 0 -80 -108h-141q0 139 55 216t154 77q81 0 168 -49
q79 -44 120 -44q78 0 78 111h144z" />
    <glyph glyph-name="ograve" unicode="&#xf2;" horiz-adv-x="1252" 
d="M621 -25q-256 0 -402.5 143.5t-146.5 389.5q0 254 152 397.5t411 143.5q255 0 400 -143.5t145 -379.5q0 -255 -149.5 -403t-409.5 -148zM629 807q-112 0 -174 -77t-62 -218q0 -295 238 -295q227 0 227 303q0 287 -229 287zM852 1186h-227l-314 323h281z" />
    <glyph glyph-name="oacute" unicode="&#xf3;" horiz-adv-x="1252" 
d="M621 -25q-256 0 -402.5 143.5t-146.5 389.5q0 254 152 397.5t411 143.5q255 0 400 -143.5t145 -379.5q0 -255 -149.5 -403t-409.5 -148zM629 807q-112 0 -174 -77t-62 -218q0 -295 238 -295q227 0 227 303q0 287 -229 287zM968 1509l-313 -323h-228l260 323h281z" />
    <glyph glyph-name="ocircumflex" unicode="&#xf4;" horiz-adv-x="1252" 
d="M621 -25q-256 0 -402.5 143.5t-146.5 389.5q0 254 152 397.5t411 143.5q255 0 400 -143.5t145 -379.5q0 -255 -149.5 -403t-409.5 -148zM629 807q-112 0 -174 -77t-62 -218q0 -295 238 -295q227 0 227 303q0 287 -229 287zM988 1186h-207l-158 188l-147 -188h-207
l235 325h248z" />
    <glyph glyph-name="otilde" unicode="&#xf5;" horiz-adv-x="1252" 
d="M621 -25q-256 0 -402.5 143.5t-146.5 389.5q0 254 152 397.5t411 143.5q255 0 400 -143.5t145 -379.5q0 -255 -149.5 -403t-409.5 -148zM629 807q-112 0 -174 -77t-62 -218q0 -295 238 -295q227 0 227 303q0 287 -229 287zM985 1497q0 -140 -55.5 -216.5t-151.5 -76.5
q-86 0 -168 43q-89 47 -123 47q-80 0 -80 -108h-141q0 139 55 216t154 77q81 0 168 -49q79 -44 120 -44q78 0 78 111h144z" />
    <glyph glyph-name="odieresis" unicode="&#xf6;" horiz-adv-x="1252" 
d="M621 -25q-256 0 -402.5 143.5t-146.5 389.5q0 254 152 397.5t411 143.5q255 0 400 -143.5t145 -379.5q0 -255 -149.5 -403t-409.5 -148zM629 807q-112 0 -174 -77t-62 -218q0 -295 238 -295q227 0 227 303q0 287 -229 287zM859 1186q-67 0 -110 39t-43 98q0 61 43 99
t110 38t110.5 -38.5t43.5 -98.5t-43 -98.5t-111 -38.5zM401 1186q-68 0 -111 39.5t-43 97.5q0 60 44 98.5t110 38.5q68 0 110.5 -38.5t42.5 -98.5q0 -61 -42.5 -99t-110.5 -38z" />
    <glyph glyph-name="divide" unicode="&#xf7;" horiz-adv-x="1448" 
d="M731 846q-59 0 -100 40t-41 97q0 62 39.5 103.5t101.5 41.5t99.5 -40t37.5 -103q0 -61 -40.5 -100t-96.5 -39zM1212 485h-974v203h974v-203zM727 47q-59 0 -100 39t-41 96q0 62 39.5 104t101.5 42t99.5 -40.5t37.5 -103.5q0 -61 -40 -99t-97 -38z" />
    <glyph glyph-name="oslash" unicode="&#xf8;" horiz-adv-x="1252" 
d="M1206 1010l-139 -146q113 -143 113 -338q0 -259 -148 -404t-411 -145q-198 0 -328 86l-135 -141l-119 107l137 143q-104 141 -104 338q0 253 152.5 397t412.5 144q179 0 311 -82l139 147zM772 791q-56 40 -141 40q-258 0 -258 -317q0 -73 18 -121zM862 651l-393 -409
q61 -45 160 -45q252 0 252 323q0 74 -19 131z" />
    <glyph glyph-name="ugrave" unicode="&#xf9;" horiz-adv-x="1239" 
d="M1106 0h-315v156h-5q-117 -181 -313 -181q-356 0 -356 431v618h315v-590q0 -217 172 -217q85 0 136 59.5t51 161.5v586h315v-1024zM784 1186h-227l-314 323h281z" />
    <glyph glyph-name="uacute" unicode="&#xfa;" horiz-adv-x="1239" 
d="M1106 0h-315v156h-5q-117 -181 -313 -181q-356 0 -356 431v618h315v-590q0 -217 172 -217q85 0 136 59.5t51 161.5v586h315v-1024zM977 1509l-313 -323h-228l260 323h281z" />
    <glyph glyph-name="ucircumflex" unicode="&#xfb;" horiz-adv-x="1239" 
d="M1106 0h-315v156h-5q-117 -181 -313 -181q-356 0 -356 431v618h315v-590q0 -217 172 -217q85 0 136 59.5t51 161.5v586h315v-1024zM970 1186h-207l-158 188l-147 -188h-207l235 325h248z" />
    <glyph glyph-name="udieresis" unicode="&#xfc;" horiz-adv-x="1239" 
d="M1106 0h-315v156h-5q-117 -181 -313 -181q-356 0 -356 431v618h315v-590q0 -217 172 -217q85 0 136 59.5t51 161.5v586h315v-1024zM844 1186q-67 0 -110 39t-43 98q0 61 43 99t110 38t110.5 -38.5t43.5 -98.5t-43 -98.5t-111 -38.5zM386 1186q-68 0 -111 39.5t-43 97.5
q0 60 44 98.5t110 38.5q68 0 110.5 -38.5t42.5 -98.5q0 -61 -42.5 -99t-110.5 -38z" />
    <glyph glyph-name="yacute" unicode="&#xfd;" horiz-adv-x="1102" 
d="M1108 1024l-416 -1106q-150 -399 -452 -399q-115 0 -189 26v252q63 -37 137 -37q122 0 170 115l54 127l-416 1022h350l191 -623q18 -58 28 -137h4q9 58 33 135l193 625h313zM834 1509l-313 -323h-228l260 323h281z" />
    <glyph glyph-name="thorn" unicode="&#xfe;" horiz-adv-x="1270" 
d="M453 119h-4v-590h-316v1987h316v-646h4q117 179 329 179q199 0 307.5 -136.5t108.5 -371.5q0 -256 -126.5 -411t-336.5 -155q-185 0 -282 144zM444 539v-82q0 -106 56 -173t147 -67q108 0 167.5 83.5t59.5 236.5q0 270 -210 270q-97 0 -158.5 -73.5t-61.5 -194.5z" />
    <glyph glyph-name="ydieresis" unicode="&#xff;" horiz-adv-x="1102" 
d="M1108 1024l-416 -1106q-150 -399 -452 -399q-115 0 -189 26v252q63 -37 137 -37q122 0 170 115l54 127l-416 1022h350l191 -623q18 -58 28 -137h4q9 58 33 135l193 625h313zM793 1186q-67 0 -110 39t-43 98q0 61 43 99t110 38t110.5 -38.5t43.5 -98.5t-43 -98.5
t-111 -38.5zM335 1186q-68 0 -111 39.5t-43 97.5q0 60 44 98.5t110 38.5q68 0 110.5 -38.5t42.5 -98.5q0 -61 -42.5 -99t-110.5 -38z" />
    <glyph glyph-name="dotlessi" unicode="&#x131;" horiz-adv-x="582" 
d="M449 0h-316v1024h316v-1024z" />
    <glyph glyph-name="OE" unicode="&#x152;" horiz-adv-x="1925" 
d="M1860 0h-828q-26 0 -117 -12q-90 -13 -157 -13q-307 0 -495.5 203t-188.5 520q0 342 194 551t516 209q63 0 151 -12q89 -12 109 -12h783v-263h-504v-323h469v-264h-469v-322h537v-262zM991 305v823q-86 52 -209 52q-168 0 -267 -129.5t-99 -339.5q0 -208 101 -332.5
t261 -124.5q116 0 213 51z" />
    <glyph glyph-name="oe" unicode="&#x153;" horiz-adv-x="1893" 
d="M1837 422h-670q14 -223 283 -223q167 0 295 80v-228q-142 -76 -346 -76q-252 0 -391 189h-4q-137 -187 -408 -187q-234 0 -379 143t-145 388q0 251 147 397t389 146q134 0 238.5 -49.5t154.5 -127.5h5q118 175 376 175q213 0 334 -134t121 -358v-135zM1542 616
q0 220 -174 220q-80 0 -135 -63.5t-66 -156.5h375zM631 807q-113 0 -175.5 -77.5t-62.5 -217.5q0 -293 236 -293q229 0 229 297q0 138 -59.5 214.5t-167.5 76.5z" />
    <glyph glyph-name="Scaron" unicode="&#x160;" horiz-adv-x="1148" 
d="M98 55v320q87 -73 189 -109.5t206 -36.5q61 0 106.5 11t76 30.5t45.5 46t15 57.5q0 42 -24 75t-65.5 61t-98.5 54t-123 53q-168 70 -250.5 171t-82.5 244q0 112 45 192.5t122.5 132.5t179.5 76.5t216 24.5q112 0 198.5 -13.5t159.5 -41.5v-299q-36 25 -78.5 44
t-87.5 31.5t-89.5 18.5t-84.5 6q-55 0 -100 -10.5t-76 -29.5t-48 -45.5t-17 -59.5q0 -36 19 -64.5t54 -54t85 -50t113 -50.5q86 -36 154.5 -76.5t117.5 -91.5t75 -116.5t26 -152.5q0 -120 -45.5 -201.5t-123.5 -132t-181.5 -72.5t-218.5 -22q-118 0 -224.5 20t-184.5 60z
M973 1861l-238 -325h-248l-235 325h205l155 -188l156 188h205z" />
    <glyph glyph-name="scaron" unicode="&#x161;" horiz-adv-x="901" 
d="M66 27v256q78 -47 155.5 -70t146.5 -23q84 0 132.5 23t48.5 70q0 30 -22 50t-56.5 35t-75.5 27t-79 27q-61 23 -107.5 49.5t-78 61.5t-48 81t-16.5 109q0 86 37.5 148t100 101.5t143 58t167.5 18.5q68 0 138 -10.5t138 -30.5v-244q-60 35 -128.5 52.5t-134.5 17.5
q-31 0 -58.5 -5.5t-48.5 -16t-33 -27t-12 -37.5q0 -28 18 -48t47 -34.5t64.5 -26t70.5 -23.5q63 -22 114 -48t87.5 -61t56 -82t19.5 -112q0 -91 -39.5 -155.5t-105 -105t-151 -59t-177.5 -18.5q-169 0 -313 52zM811 1511l-238 -325h-248l-235 325h205l155 -188l156 188h205z
" />
    <glyph glyph-name="Ydieresis" unicode="&#x178;" horiz-adv-x="1243" 
d="M1245 1434l-467 -924v-510h-323v504l-455 930h369l231 -535q6 -15 33 -117h4q13 72 31 113l235 539h342zM858 1567q-67 0 -110 39t-43 98q0 61 43 99t110 38t110.5 -38.5t43.5 -98.5t-43 -98.5t-111 -38.5zM400 1567q-68 0 -111 39.5t-43 97.5q0 60 44 98.5t110 38.5
q68 0 110.5 -38.5t42.5 -98.5q0 -61 -42.5 -99t-110.5 -38z" />
    <glyph glyph-name="Zcaron" unicode="&#x17d;" horiz-adv-x="1243" 
d="M1196 0h-1155v186l735 985h-682v263h1100v-181l-719 -991h721v-262zM990 1858l-238 -325h-248l-235 325h205l155 -188l156 188h205z" />
    <glyph glyph-name="zcaron" unicode="&#x17e;" horiz-adv-x="981" 
d="M944 0h-919v131l514 660h-463v233h864v-156l-487 -635h491v-233zM872 1511l-238 -325h-248l-235 325h205l155 -188l156 188h205z" />
    <glyph glyph-name="florin" unicode="&#x192;" horiz-adv-x="1178" 
d="M1044 1174q-64 30 -133 30q-124 0 -147 -137l-23 -137h158v-215h-192l-91 -594q-30 -196 -140 -311t-277 -115q-50 0 -121 20v242q39 -20 92 -20q123 0 154 202l88 576h-105v215h142l22 149q25 167 135 267t279 100q82 0 159 -23v-249z" />
    <glyph glyph-name="circumflex" unicode="&#x2c6;" horiz-adv-x="785" 
d="M750 1186h-207l-158 188l-147 -188h-207l235 325h248z" />
    <glyph glyph-name="caron" unicode="&#x2c7;" horiz-adv-x="785" 
d="M754 1511l-238 -325h-248l-235 325h205l155 -188l156 188h205z" />
    <glyph glyph-name="ring" unicode="&#x2da;" horiz-adv-x="555" 
d="M274 1186q-102 0 -168.5 59.5t-66.5 155.5q0 101 69.5 161t170.5 60q107 0 173 -59.5t66 -155.5q0 -98 -71.5 -159.5t-172.5 -61.5zM274 1499q-96 0 -96 -94t96 -94q45 0 74 27.5t29 66.5q0 41 -28.5 67.5t-74.5 26.5z" />
    <glyph glyph-name="tilde" unicode="&#x2dc;" horiz-adv-x="785" 
d="M754 1497q0 -140 -55.5 -216.5t-151.5 -76.5q-86 0 -168 43q-89 47 -123 47q-80 0 -80 -108h-141q0 139 55 216t154 77q81 0 168 -49q79 -44 120 -44q78 0 78 111h144z" />
    <glyph glyph-name="uni1780" unicode="&#x1780;" horiz-adv-x="1689" 
d="M1638 1232l-136 -187h-60l-339 151l-233 -151h-69l-386 151l-109 -63v-29l297 -118h622q108 0 188 -47q96 -55 96 -155v-531h-250v395q0 65 -56 98q-46 28 -114 28h-500q-63 0 -108 -32q-51 -36 -51 -96v-393h-250v534q0 122 106 167l-213 76v141l400 243h69l370 -164
l244 164h64l279 -123q16 -7 46 -7q28 0 54 9z" />
    <glyph glyph-name="uni1781" unicode="&#x1781;" horiz-adv-x="1672" 
d="M1492 463q0 -108 -97 -164q-80 -46 -198 -46h-728q-107 0 -189 43q-100 52 -100 147v103q0 155 311 229l678 161q73 17 73 88v69q0 78 -110 78h-615q-87 0 -87 -68v-146q0 -37 42 -37q53 0 53 43q0 12 -30 27q-40 15 -40 54q0 87 97 87q99 0 99 -104q0 -194 -248 -194
h-127q-40 0 -68 28t-28 67v248q0 91 99 152q88 54 187 54h728q114 0 199 -52q99 -61 99 -167v-154q0 -185 -289 -253l-662 -155q-111 -26 -111 -63v-24q0 -49 81 -49h614q117 0 117 91v77l46 27h160l44 -27v-170z" />
    <glyph glyph-name="uni1782" unicode="&#x1782;" horiz-adv-x="1689" 
d="M1638 1232l-136 -187h-60l-339 151l-233 -151h-69l-386 151l-109 -63v-29l297 -118h622q108 0 188 -47q96 -55 96 -155v-531h-250v395q0 65 -56 98q-46 28 -114 28h-500q-63 0 -108 -32q-51 -36 -51 -96v-184q27 55 68 104q82 99 154 99q83 0 83 -94q0 -81 -57 -81
q-7 0 -24.5 4t-29.5 4q-67 0 -130.5 -71.5t-63.5 -150.5v-23h-250v534q0 122 106 167l-213 76v141l400 243h69l370 -164l244 164h64l279 -123q16 -7 46 -7q28 0 54 9z" />
    <glyph glyph-name="uni1783" unicode="&#x1783;" horiz-adv-x="1884" 
d="M1853 1300l-111 -153q-69 49 -146 49q-64 0 -111 -55l5 -9q42 7 59 7q55 0 100 -24q55 -30 55 -83v-560q0 -93 -91 -159q-82 -60 -176 -60h-254q-135 0 -225 73q-95 -73 -196 -73h-204q-104 0 -188 57q-95 64 -95 165v711q0 53 -42 53q-50 0 -50 -67q0 -23 37.5 -64
t37.5 -77q0 -109 -108 -109q-140 0 -140 180q0 133 92 210q78 66 187 66h117q119 0 119 -134v-653q0 -126 129 -126h48q61 0 100 31q42 35 42 95v373q0 50 -63 50q-10 0 -27.5 -4t-27.5 -4q-13 0 -22 19l-54 114l328 275h29l153 -77q14 -7 30 -7q25 0 33 2l20 -32l-111 -153
q-69 49 -146 49q-64 0 -111 -55l5 -9q42 7 59 7q55 0 100 -24q55 -30 55 -83v-441q0 -126 154 -126h87q119 0 119 126v373q0 50 -63 50q-10 0 -27.5 -4t-27.5 -4q-13 0 -22 19l-54 114l328 275h29l153 -77q14 -7 30 -7q25 0 33 2z" />
    <glyph glyph-name="uni1784" unicode="&#x1784;" horiz-adv-x="1663" 
d="M1483 253h-315l-289 185l-289 -185h-315v339q0 43 -42 43q-50 0 -50 -57q0 -23 37.5 -59t37.5 -72q0 -99 -108 -99q-140 0 -140 170q0 236 279 236h117q119 0 119 -125v-214l354 235l354 -235v385q0 156 -384 156q-147 0 -249 -18q-118 -20 -118 -54v-48h-250v459
q0 32 -55 59q-55 25 -55 69q0 43 34 71.5t95 28.5q81 0 148 -44q83 -55 83 -151v-218q91 58 378 58q35 0 182 -11q-3 19 -3 35q0 92 65 157t157 65t157 -65t65 -157q0 -93 -66 -158q66 -65 66 -158v-623zM1330 1192q0 29 -20 49t-49 20t-49 -20t-20 -49t20 -49t49 -20t49 20
t20 49z" />
    <glyph glyph-name="uni1785" unicode="&#x1785;" horiz-adv-x="1687" 
d="M1608 1232l-136 -187h-60l-339 151l-233 -151h-69l-386 151l-109 -63v-35l154 -124v-381q0 -60 51 -96q46 -32 108 -32h498q69 0 115 28q55 34 55 98v169q0 52 -42 52q-50 0 -50 -57q0 -15 37.5 -49t37.5 -72q0 -99 -108 -99q-140 0 -140 160q0 121 92 188q78 58 187 58
h117q119 0 119 -134v-352q0 -101 -95 -156q-79 -46 -187 -46h-778q-93 0 -174 52q-93 59 -93 147v470l-137 113v136l400 243h69l370 -164l244 164h64l279 -123q16 -7 46 -7q28 0 54 9z" />
    <glyph glyph-name="uni1786" unicode="&#x1786;" horiz-adv-x="1732" 
d="M1653 1232l-136 -187h-60l-339 151l-233 -151h-69l-314 151l-109 -63v-35l154 -124v-198l565 -311h90q100 0 100 86v209q0 52 -42 52q-50 0 -50 -57q0 -15 37.5 -49t37.5 -72q0 -99 -108 -99q-140 0 -140 160q0 121 92 188q78 58 187 58h117q119 0 119 -134v-372
q0 -182 -304 -182h-213l-488 272v-164q0 -107 -84 -107h-166q-119 0 -203 84.5t-84 203.5t84 202t203 83v95l-137 113v136l400 243h69l298 -164l244 164h64l279 -123q16 -7 46 -7q28 0 54 9zM297 465v151q-31 0 -53.5 -22t-22.5 -53t22.5 -53.5t53.5 -22.5z" />
    <glyph glyph-name="uni1787" unicode="&#x1787;" horiz-adv-x="1470" 
d="M1335 1362q0 -161 -82 -265q-90 -114 -250 -114q-153 0 -265 55l-323 158l-139 -76v-24l154 -124v-557l305 235l305 -235v435h250v-597h-315l-240 185l-240 -185h-315v669l-137 113v151l430 228h69l292 -153q126 -66 221 -66q141 0 141 94q0 56 -52 56q-6 0 -20.5 -2.5
t-20.5 -2.5q-87 0 -87 89q0 57 39 93t92 36q84 0 136 -57.5t52 -138.5z" />
    <glyph glyph-name="uni1788" unicode="&#x1788;" horiz-adv-x="2515" 
d="M2484 1300l-111 -153q-69 49 -146 49q-64 0 -111 -55l5 -9q42 7 59 7q55 0 100 -24q55 -30 55 -83v-560q0 -93 -91 -159q-82 -60 -176 -60h-254q-135 0 -225 73q-95 -73 -196 -73h-254q-104 0 -188 57q-95 64 -95 165v569q0 120 -129 120h-168q-129 0 -129 -123v-596
q0 -53 42 -53q50 0 50 67q0 23 -37.5 64t-37.5 77q0 109 108 109q140 0 140 -180q0 -133 -91 -210q-79 -66 -188 -66h-117q-119 0 -119 134v764q0 101 95 167q85 58 188 58h357q104 0 189 -58q97 -66 97 -167v-560q0 -126 129 -126h98q61 0 100 31q42 35 42 95v373
q0 50 -63 50q-10 0 -27.5 -4t-27.5 -4q-13 0 -22 19l-54 114l328 275h29l153 -77q14 -7 30 -7q25 0 33 2l20 -32l-111 -153q-69 49 -146 49q-64 0 -111 -55l5 -9q42 7 59 7q55 0 100 -24q55 -30 55 -83v-441q0 -126 154 -126h87q119 0 119 126v373q0 50 -63 50
q-10 0 -27.5 -4t-27.5 -4q-13 0 -22 19l-54 114l328 275h29l153 -77q14 -7 30 -7q25 0 33 2z" />
    <glyph glyph-name="uni1789" unicode="&#x1789;" horiz-adv-x="1962" 
d="M1782 253h-250v786q0 128 -169 128h-27q-69 0 -115 -28q-54 -34 -54 -98v-788h-250v807q0 109 -65 109q-24 0 -88.5 -53.5t-90.5 -53.5t-90 53.5t-88 53.5q-65 0 -65 -108v-616q0 -53 42 -53q50 0 50 67q0 23 -37.5 64t-37.5 77q0 109 108 109q140 0 140 -180
q0 -133 -91 -210q-79 -66 -188 -66h-117q-119 0 -119 134v720q0 126 72.5 199t195.5 73q64 0 139 -53t86 -53t86.5 53t139.5 53q102 0 158 -63q81 63 209 63h204q122 0 209 -53q103 -63 103 -176v-897zM322 -163q35 39 79 63t98.5 37.5t112.5 18t110 4.5q27 0 62.5 -3.5
t82 -15t102 -34.5t148.5 -64q144 -63 237 -63q70 0 111.5 11.5t64 28t30.5 35t8 32.5q0 39 -31.5 66.5t-109.5 27.5q-99 0 -99 48q0 27 32.5 49.5t99.5 24.5q69 0 114 -21.5t70.5 -51t35.5 -57t10 -61.5q0 -36 -11.5 -73t-51.5 -76q-30 -26 -68 -45t-73.5 -28t-65 -12
t-57.5 -3q-44 0 -87.5 6t-107.5 23q-66 21 -114 42t-100 42.5t-113.5 36.5t-148.5 15q-79 0 -148.5 -15.5t-121 -39.5t-87.5 -42t-49 -18q-11 0 -11 15q0 35 47 97z" />
    <glyph glyph-name="uni178A" unicode="&#x178a;" horiz-adv-x="1545" 
d="M1365 1233q0 -399 -593 -399q-592 0 -592 319q0 94 57 162q70 84 201 84q129 0 194 -61q49 -46 49 -108v-95h-180v46q0 55 -63 55q-59 0 -59 -56q0 -134 393 -134q414 0 414 139q0 51 -52 51q-6 0 -20.5 -2.5t-20.5 -2.5q-87 0 -87 89q0 55 55 94q49 35 106 35
q87 0 142.5 -60t55.5 -156zM1365 253h-315l-277 185l-278 -185h-315v537h250v-375l342 235l343 -235v375h250v-537z" />
    <glyph glyph-name="uni178B" unicode="&#x178b;" horiz-adv-x="1492" 
d="M1521 1444q0 -96 -76 -174l-109 -112h-16q-53 38 -116 38q-64 0 -111 -55l5 -9q42 7 59 7q55 0 100 -24q55 -30 55 -83v-577q0 -101 -95 -156q-79 -46 -187 -46h-472q-104 0 -188 57q-95 64 -95 165v711q0 53 -42 53q-50 0 -50 -67q0 -23 37.5 -64t37.5 -77
q0 -109 -108 -109q-140 0 -140 180q0 133 92 210q78 66 187 66h117q119 0 119 -134v-653q0 -126 129 -126h238q69 0 115 28q55 34 55 98v373q0 50 -63 50q-10 0 -27.5 -4t-27.5 -4q-13 0 -22 19l-54 114l328 275h29l113 -57q14 -7 31 -7q54 0 54 46q0 37 -38 37
q-7 0 -20.5 -3t-21.5 -3q-70 0 -70 77q0 43 30 71.5t80 28.5q60 0 99 -43.5t39 -116.5z" />
    <glyph glyph-name="uni178C" unicode="&#x178c;" horiz-adv-x="1672" 
d="M1492 214l-44 -45h-154l-52 45v94q-56 -55 -155 -55h-618q-107 0 -189 43q-100 52 -100 147v103q0 155 311 229l678 161q73 17 73 88v109l-55 48l-334 -95h-33l-335 95l-55 -48v-176q0 -37 42 -37q53 0 53 38q0 12 -35 24.5t-35 51.5q0 77 97 77q99 0 99 -94
q0 -184 -248 -184h-127q-40 0 -68 28t-28 67v288l221 166h41l394 -130l394 130h41l221 -166v-207q0 -185 -289 -253l-662 -155q-111 -26 -111 -63v-24q0 -49 81 -49h511q71 0 137 32q83 40 83 109v32l46 32h160l44 -32v-424z" />
    <glyph glyph-name="uni178D" unicode="&#x178d;" horiz-adv-x="1998" 
d="M1967 1300l-111 -153q-69 49 -146 49q-64 0 -111 -55l5 -9q42 7 59 7q55 0 100 -24q55 -30 55 -83v-779h-250q-43 99 -115 192q-80 106 -151 140v-224q0 -107 -84 -107h-166q-119 0 -203 84.5t-84 203.5t84 202t203 83v183q0 154 -134 154q-121 0 -224 -125
q-90 125 -219 125q-49 0 -87 -27t-38 -68q0 -48 32 -95q24 -29 48 -59v-470q0 -53 42 -53q50 0 50 67q0 23 -37.5 64t-37.5 77q0 109 108 109q140 0 140 -180q0 -133 -91 -210q-79 -66 -188 -66h-117q-119 0 -119 134v528q-80 98 -80 211q0 120 128 193q101 57 212 57
q143 0 254 -79q106 79 246 79q148 0 248 -69q114 -78 114 -220v-271q179 -69 266 -200v348q0 50 -63 50q-10 0 -27.5 -4t-27.5 -4q-13 0 -22 19l-54 114l328 275h29l153 -77q14 -7 30 -7q25 0 33 2zM1052 465v151q-31 0 -53.5 -22t-22.5 -53t22.5 -53.5t53.5 -22.5z" />
    <glyph glyph-name="uni178E" unicode="&#x178e;" horiz-adv-x="2464" 
d="M2284 253h-250v786q0 128 -169 128h-21q-168 0 -168 -128v-786h-250l-194 155l-194 -155h-250v786q0 128 -168 128h-21q-169 0 -169 -128v-594q0 -53 42 -53q50 0 50 67q0 23 -37.5 64t-37.5 77q0 109 108 109q140 0 140 -180q0 -133 -91 -210q-79 -66 -188 -66h-117
q-119 0 -119 134v766q0 113 103 174q87 52 209 52h234q122 0 209 -53q103 -63 103 -176v-665l194 175l194 -175v665q0 113 103 176q87 53 209 53h234q122 0 209 -53q103 -63 103 -176v-897z" />
    <glyph glyph-name="uni178F" unicode="&#x178f;" horiz-adv-x="1689" 
d="M1638 1232l-136 -187h-60l-339 151l-233 -151h-69l-386 151l-109 -63v-29l297 -118h622q108 0 188 -47q96 -55 96 -155v-531h-250v395q0 65 -56 98q-46 28 -114 28h-500q-63 0 -108 -32q-51 -37 -51 -96v-201q0 -53 42 -53q50 0 50 67q0 23 -37.5 64t-37.5 77
q0 109 108 109q140 0 140 -180q0 -133 -91 -210q-79 -66 -188 -66h-117q-119 0 -119 134v403q0 119 106 164l-213 76v141l400 243h69l370 -164l244 164h64l279 -123q16 -7 46 -7q28 0 54 9z" />
    <glyph glyph-name="uni1790" unicode="&#x1790;" horiz-adv-x="1515" 
d="M1335 455q0 -101 -95 -156q-79 -46 -187 -46h-606q-93 0 -174 52q-93 59 -93 147v470l-137 113v151l430 228h69l292 -153q126 -66 221 -66q141 0 141 94q0 56 -52 56q-6 0 -20.5 -2.5t-20.5 -2.5q-87 0 -87 89q0 57 39 93t92 36q84 0 136 -57.5t52 -138.5
q0 -161 -82 -265q-90 -114 -250 -114q-153 0 -265 55l-323 158l-139 -76v-24l154 -124v-382q0 -60 51 -95q45 -30 108 -30h326q69 0 115 28q55 34 55 98v169q0 52 -42 52q-50 0 -50 -57q0 -15 37.5 -49t37.5 -72q0 -99 -108 -99q-140 0 -140 160q0 121 92 188q78 58 187 58
h117q119 0 119 -134v-352z" />
    <glyph glyph-name="uni1791" unicode="&#x1791;" horiz-adv-x="1582" 
d="M1402 928q0 -39 -28 -67t-68 -28h-127q-248 0 -248 194q0 104 99 104q97 0 97 -87q0 -39 -35 -54t-35 -27q0 -43 53 -43q42 0 42 37v146q0 68 -87 68h-525q-110 0 -110 -78v-84q0 -65 50 -85l527 -209h45q38 80 141 80q61 0 100 -43q34 -38 34 -85q0 -98 -85 -133v-91
q0 -95 -100 -147q-82 -43 -189 -43h-328q-118 0 -198 46q-97 56 -97 164v110l44 27h160l46 -27v-17q0 -91 117 -91h214q81 0 81 49v20h-36l-510 190q-116 43 -151 66q-115 74 -115 194v179q0 106 99 167q85 52 199 52h638q99 0 187 -54q99 -61 99 -152v-248z" />
    <glyph glyph-name="uni1792" unicode="&#x1792;" horiz-adv-x="1687" 
d="M1608 1232l-136 -187h-60l-339 151l-233 -151h-69l-386 151l-109 -63v-35l154 -124v-549l413 175l414 -175v335q0 52 -42 52q-50 0 -50 -57q0 -15 37.5 -49t37.5 -72q0 -99 -108 -99q-140 0 -140 160q0 121 92 188q78 58 187 58h117q119 0 119 -134v-554h-335l-329 135
l-328 -135h-335v669l-137 113v136l400 243h69l370 -164l244 164h64l279 -123q16 -7 46 -7q28 0 54 9z" />
    <glyph glyph-name="uni1793" unicode="&#x1793;" horiz-adv-x="1672" 
d="M1492 443q0 -95 -100 -147q-82 -43 -189 -43h-349q-62 0 -149 33l-269 102v-174h-256v484l44 32h160l46 -32v-42q0 -35 34 -49l241 -97q112 -45 195 -45h261q81 0 81 49v24q0 30 -110 63l-663 200q-118 36 -163 61q-126 72 -126 192v109q0 106 99 167q85 52 199 52h728
q99 0 187 -54q99 -61 99 -152v-248q0 -39 -28 -67t-68 -28h-127q-248 0 -248 194q0 104 99 104q97 0 97 -87q0 -39 -35 -54t-35 -27q0 -43 53 -43q42 0 42 37v146q0 68 -87 68h-615q-110 0 -110 -78v-24q0 -66 73 -88l678 -206q142 -43 201 -77q110 -62 110 -152v-103z" />
    <glyph glyph-name="uni1794" unicode="&#x1794;" horiz-adv-x="1713" 
d="M1682 1300l-111 -153q-69 49 -146 49q-64 0 -111 -55l5 -9q42 7 59 7q55 0 100 -24q55 -30 55 -83v-560q0 -93 -91 -159q-82 -60 -176 -60h-798q-93 0 -173 52q-91 59 -91 147v512q0 50 -63 50q-10 0 -27.5 -4t-27.5 -4q-13 0 -22 19l-54 114l328 275h29l153 -77
q14 -7 30 -7q25 0 33 2l20 -32l-111 -153q-69 49 -146 49q-64 0 -111 -55l5 -9q42 7 59 7q54 0 100 -26q55 -32 55 -84v-436q0 -60 50 -96q44 -32 106 -32h554q119 0 119 126v373q0 50 -63 50q-10 0 -27.5 -4t-27.5 -4q-13 0 -22 19l-54 114l328 275h29l153 -77q14 -7 30 -7
q25 0 33 2z" />
    <glyph glyph-name="uni1795" unicode="&#x1795;" horiz-adv-x="1515" 
d="M1335 1362q0 -161 -82 -265q-90 -114 -250 -114q-153 0 -265 55l-323 158l-139 -76v-24l154 -124v-542l305 130l305 -130v330q0 62 -42 62q-50 0 -50 -47q0 -15 37.5 -45t37.5 -68q0 -89 -108 -89q-140 0 -140 150q0 218 279 218h117q119 0 119 -135v-553h-315l-240 102
l-240 -102h-315v669l-137 113v151l430 228h69l292 -153q126 -66 221 -66q141 0 141 94q0 56 -52 56q-6 0 -20.5 -2.5t-20.5 -2.5q-87 0 -87 89q0 57 39 93t92 36q84 0 136 -57.5t52 -138.5z" />
    <glyph glyph-name="uni1796" unicode="&#x1796;" horiz-adv-x="1747" 
d="M1567 253h-250v812l-242 131l-276 -151h-96l-294 151l-109 -63v-29q130 -48 130 -155v-504q0 -53 42 -53q50 0 50 67q0 23 -37.5 64t-37.5 77q0 109 108 109q140 0 140 -180q0 -133 -91 -210q-79 -66 -188 -66h-117q-119 0 -119 134v510q0 51 -31.5 88t-81.5 45v141
l400 243h69l290 -164l289 164h51l401 -220v-941z" />
    <glyph glyph-name="uni1797" unicode="&#x1797;" horiz-adv-x="1784" 
d="M1733 1232l-136 -187h-60l-339 151l-233 -151h-69l-386 151l-109 -63v-29l297 -118h622q108 0 188 -47q96 -55 96 -155v-531h-250v395q0 65 -56 98q-46 28 -114 28h-500q-63 0 -108 -32q-51 -36 -51 -96v-262q0 -131 -119 -131h-117q-109 0 -187 66q-92 77 -92 210
q0 180 140 180q108 0 108 -109q0 -36 -37.5 -77t-37.5 -64q0 -67 50 -67q42 0 42 53v342q0 122 106 167l-213 76v141l400 243h69l370 -164l244 164h64l279 -123q16 -7 46 -7q28 0 54 9z" />
    <glyph glyph-name="uni1798" unicode="&#x1798;" horiz-adv-x="1713" 
d="M1682 1300l-111 -153q-69 49 -146 49q-64 0 -111 -55l5 -9q42 7 59 7q55 0 100 -24q55 -30 55 -83v-560q0 -93 -91 -159q-82 -60 -176 -60h-798q-93 0 -173 52q-91 59 -91 147v512q0 50 -63 50q-10 0 -27.5 -4t-27.5 -4q-13 0 -22 19l-54 114l328 275h29l153 -77
q14 -7 30 -7q25 0 33 2l20 -32l-111 -153q-69 49 -146 49q-64 0 -111 -55l5 -9q42 7 59 7q54 0 100 -26q55 -32 55 -84v-159h829v94q0 50 -63 50q-10 0 -27.5 -4t-27.5 -4q-13 0 -22 19l-54 114l328 275h29l153 -77q14 -7 30 -7q25 0 33 2zM1283 591v87h-829v-85
q0 -60 50 -96q44 -32 106 -32h554q119 0 119 126z" />
    <glyph glyph-name="uni1799" unicode="&#x1799;" horiz-adv-x="2059" 
d="M2028 1300l-111 -153q-69 49 -146 49q-64 0 -111 -55l5 -9q42 7 59 7q55 0 100 -24q55 -30 55 -83v-560q0 -93 -91 -159q-82 -60 -176 -60h-334q-135 0 -225 73q-95 -73 -196 -73h-394q-104 0 -188 57q-95 64 -95 165v769q0 134 119 134h117q109 0 188 -66
q91 -77 91 -210q0 -180 -140 -180q-108 0 -108 109q0 36 37.5 77t37.5 64q0 67 -50 67q-42 0 -42 -53v-595q0 -126 129 -126h238q61 0 100 31q42 35 42 95v373q0 50 -63 50q-10 0 -27.5 -4t-27.5 -4q-13 0 -22 19l-54 114l328 275h29l153 -77q14 -7 30 -7q25 0 33 2l20 -32
l-111 -153q-69 49 -146 49q-64 0 -111 -55l5 -9q42 7 59 7q55 0 100 -24q55 -30 55 -83v-441q0 -126 154 -126h167q119 0 119 126v373q0 50 -63 50q-10 0 -27.5 -4t-27.5 -4q-13 0 -22 19l-54 114l328 275h29l153 -77q14 -7 30 -7q25 0 33 2z" />
    <glyph glyph-name="uni179A" unicode="&#x179a;" horiz-adv-x="705" 
d="M674 1300l-111 -153q-69 49 -146 49q-64 0 -111 -55l5 -9q42 7 59 7q54 0 100 -26q55 -32 55 -84v-646q0 -130 -119 -130h-117q-112 0 -187 56q-92 68 -92 200q0 170 140 170q108 0 108 -99q0 -36 -37.5 -72t-37.5 -59q0 -57 50 -57q42 0 42 53v519q0 50 -63 50
q-10 0 -27.5 -4t-27.5 -4q-13 0 -22 19l-54 114l328 275h29l153 -77q14 -7 30 -7q25 0 33 2z" />
    <glyph glyph-name="uni179B" unicode="&#x179b;" horiz-adv-x="1952" 
d="M1921 1300l-111 -153q-69 49 -146 49q-64 0 -111 -55l5 -9q42 7 59 7q55 0 100 -24q55 -30 55 -83v-560q0 -93 -91 -159q-82 -60 -176 -60h-363q-104 0 -189 57q-97 64 -97 165v569q0 120 -129 120h-168q-129 0 -129 -123v-596q0 -53 42 -53q50 0 50 67q0 23 -37.5 64
t-37.5 77q0 109 108 109q140 0 140 -180q0 -133 -91 -210q-79 -66 -188 -66h-117q-119 0 -119 134v764q0 101 95 167q85 58 188 58h357q104 0 189 -58q97 -66 97 -167v-560q0 -126 129 -126h168q119 0 119 126v373q0 50 -63 50q-10 0 -27.5 -4t-27.5 -4q-13 0 -22 19
l-54 114l328 275h29l153 -77q14 -7 30 -7q25 0 33 2z" />
    <glyph glyph-name="uni179C" unicode="&#x179c;" horiz-adv-x="705" 
d="M734 1444q0 -96 -76 -174l-109 -112h-16q-53 38 -116 38q-64 0 -111 -55l5 -9q42 7 59 7q54 0 100 -26q55 -31 55 -84v-646q0 -130 -119 -130h-117q-112 0 -187 56q-92 68 -92 200q0 170 140 170q108 0 108 -99q0 -36 -37.5 -72t-37.5 -59q0 -57 50 -57q42 0 42 53v519
q0 50 -63 50q-10 0 -27.5 -4t-27.5 -4q-13 0 -22 19l-54 114l328 275h29l113 -57q14 -7 31 -7q54 0 54 46q0 37 -38 37q-7 0 -20.5 -3t-21.5 -3q-70 0 -70 77q0 43 30 71.5t80 28.5q60 0 99 -43.5t39 -116.5z" />
    <glyph glyph-name="uni179D" unicode="&#x179d;" horiz-adv-x="1689" 
d="M1680 561q0 -63 -57 -104q-50 -36 -114 -36v-168h-250v168q-72 6 -126 35q-70 40 -70 107q0 79 73 79q38 0 69 -39q38 -49 54 -57v102q0 65 -56 98q-46 28 -114 28h-500q-63 0 -108 -32q-51 -36 -51 -96v-184q27 55 68 104q82 99 154 99q83 0 83 -94q0 -81 -57 -81
q-7 0 -24.5 4t-29.5 4q-67 0 -130.5 -71.5t-63.5 -150.5v-23h-250v534q0 122 106 167l-213 76v141l400 243h69l370 -164l244 164h64l279 -123q16 -7 46 -7q28 0 54 9l39 -61l-136 -187h-60l-339 151l-233 -151h-69l-386 151l-109 -63v-29l297 -118h622q108 0 188 -47
q96 -55 96 -155v-257q53 0 90.5 35t50.5 35q30 0 30 -36z" />
    <glyph glyph-name="uni179E" unicode="&#x179e;" horiz-adv-x="1713" 
d="M1704 790q0 -63 -57 -104q-50 -36 -114 -36v-178q0 -93 -91 -159q-82 -60 -176 -60h-798q-93 0 -173 52q-91 59 -91 147v512q0 50 -63 50q-10 0 -27.5 -4t-27.5 -4q-13 0 -22 19l-54 114l328 275h29l153 -77q14 -7 30 -7q25 0 33 2l20 -32l-111 -153q-69 49 -146 49
q-64 0 -111 -55l5 -9q42 7 59 7q54 0 100 -26q55 -32 55 -84v-436q0 -60 50 -96q44 -32 106 -32h554q119 0 119 126v59q-72 6 -126 35q-70 40 -70 107q0 79 73 79q38 0 69 -39q38 -49 54 -57v189q0 50 -63 50q-10 0 -27.5 -4t-27.5 -4q-13 0 -22 19l-54 114l328 275h29
l153 -77q14 -7 30 -7q25 0 33 2l20 -32l-111 -153q-69 49 -146 49q-64 0 -111 -55l5 -9q42 7 59 7q55 0 100 -24q55 -30 55 -83v-276q53 0 90.5 35t50.5 35q30 0 30 -36z" />
    <glyph glyph-name="uni179F" unicode="&#x179f;" horiz-adv-x="1952" 
d="M1921 1300l-111 -153q-69 49 -146 49q-64 0 -111 -55l5 -9q42 7 59 7q55 0 100 -24q55 -30 55 -83v-560q0 -93 -91 -159q-82 -60 -176 -60h-363q-104 0 -189 57q-97 64 -97 165v189q0 120 -129 120h-168q-129 0 -129 -123v-216q0 -53 42 -53q50 0 50 67q0 23 -37.5 64
t-37.5 77q0 109 108 109q140 0 140 -180q0 -133 -91 -210q-79 -66 -188 -66h-117q-119 0 -119 134v384q0 78 60 137q52 52 134 75q-1 13 -21.5 27t-41.5 14q-10 0 -27.5 -4t-27.5 -4q-12 0 -22 19l-54 104l328 275h29l153 -77q14 -7 30 -7q25 0 33 2l20 -32l-111 -153
q-69 49 -146 49q-64 0 -111 -55l5 -9q24 4 54 4q59 0 112 -70t128 -70h116q104 0 189 -58q97 -66 97 -167v-180q0 -126 129 -126h168q119 0 119 126v373q0 50 -63 50q-10 0 -27.5 -4t-27.5 -4q-13 0 -22 19l-54 114l328 275h29l153 -77q14 -7 30 -7q25 0 33 2z" />
    <glyph glyph-name="uni17A0" unicode="&#x17a0;" horiz-adv-x="1975" 
d="M1795 253h-250v785q0 126 -119 126h-168q-129 0 -129 -126v-560q0 -101 -97 -167q-85 -58 -189 -58h-375q-93 0 -173 52q-91 59 -91 147v512q0 50 -63 50q-10 0 -27.5 -4t-27.5 -4q-13 0 -22 19l-54 114l328 275h29l153 -77q14 -7 30 -7q25 0 33 2l20 -32l-111 -153
q-69 49 -146 49q-64 0 -111 -55l5 -9q42 7 59 7q54 0 100 -26q55 -32 55 -84v-436q0 -60 50 -96q44 -32 106 -32h140q129 0 129 120v569q0 101 97 165q85 57 189 57h363q94 0 176 -60q91 -66 91 -159v-904z" />
    <glyph glyph-name="uni17A1" unicode="&#x17a1;" horiz-adv-x="2222" 
d="M1402 928q0 -39 -28 -67t-68 -28h-127q-248 0 -248 194q0 104 99 104q97 0 97 -87q0 -39 -35 -54t-35 -27q0 -43 53 -43q42 0 42 37v146q0 68 -87 68h-525q-110 0 -110 -78v-84q0 -65 50 -85l527 -209h45q38 80 141 80q61 0 100 -43q34 -38 34 -85q0 -98 -85 -133v-91
q0 -95 -100 -147q-82 -43 -189 -43h-328q-118 0 -198 46q-97 56 -97 164v110l44 27h160l46 -27v-17q0 -91 117 -91h214q81 0 81 49v20h-36l-510 190q-116 43 -151 66q-115 74 -115 194v179q0 106 99 167q85 52 199 52h638q99 0 187 -54q99 -61 99 -152v-248zM2191 1300
l-111 -153q-69 49 -146 49q-64 0 -111 -55l5 -9q42 7 59 7q55 0 100 -24q55 -30 55 -83v-1454h-315l-210 185l-210 -185h-315v444q0 53 -42 53q-50 0 -50 -67q0 -23 37.5 -64t37.5 -77q0 -109 -108 -109q-140 0 -140 180q0 133 91 210q79 66 188 66h117q119 0 119 -134v-323
l275 238l275 -238v1207q0 50 -63 50q-10 0 -27.5 -4t-27.5 -4q-13 0 -22 19l-54 114l328 275h29l153 -77q14 -7 30 -7q25 0 33 2z" />
    <glyph glyph-name="uni17A2" unicode="&#x17a2;" horiz-adv-x="1648" 
d="M1617 1300l-111 -153q-69 49 -146 49q-64 0 -111 -55l5 -9q42 7 59 7q54 0 100 -26q55 -32 55 -84v-646q0 -130 -119 -130h-117q-114 0 -187 51q-92 64 -92 195q0 160 140 160q108 0 108 -99q0 -36 -37.5 -67t-37.5 -54q0 -47 50 -47q42 0 42 53v272h-693v-334
q0 -130 -119 -130h-117q-114 0 -187 51q-92 64 -92 195q0 160 140 160q108 0 108 -99q0 -36 -37.5 -67t-37.5 -54q0 -47 50 -47q42 0 42 53v519q0 50 -63 50q-10 0 -27.5 -4t-27.5 -4q-13 0 -22 19l-54 114l328 275h29l153 -77q14 -7 30 -7q25 0 33 2l20 -32l-111 -153
q-69 49 -146 49q-64 0 -111 -55l5 -9q42 7 59 7q54 0 100 -26q55 -32 55 -84v-140h693v75q0 50 -63 50q-10 0 -27.5 -4t-27.5 -4q-13 0 -22 19l-54 114l328 275h29l153 -77q14 -7 30 -7q25 0 33 2z" />
    <glyph glyph-name="uni17A3" unicode="&#x17a3;" horiz-adv-x="1648" 
d="M1617 1300l-111 -153q-69 49 -146 49q-64 0 -111 -55l5 -9q42 7 59 7q54 0 100 -26q55 -32 55 -84v-646q0 -130 -119 -130h-117q-114 0 -187 51q-92 64 -92 195q0 160 140 160q108 0 108 -99q0 -36 -37.5 -67t-37.5 -54q0 -47 50 -47q42 0 42 53v272h-693v-334
q0 -130 -119 -130h-117q-114 0 -187 51q-92 64 -92 195q0 160 140 160q108 0 108 -99q0 -36 -37.5 -67t-37.5 -54q0 -47 50 -47q42 0 42 53v519q0 50 -63 50q-10 0 -27.5 -4t-27.5 -4q-13 0 -22 19l-54 114l328 275h29l153 -77q14 -7 30 -7q25 0 33 2l20 -32l-111 -153
q-69 49 -146 49q-64 0 -111 -55l5 -9q42 7 59 7q54 0 100 -26q55 -32 55 -84v-140h693v75q0 50 -63 50q-10 0 -27.5 -4t-27.5 -4q-13 0 -22 19l-54 114l328 275h29l153 -77q14 -7 30 -7q25 0 33 2z" />
    <glyph glyph-name="uni17A4" unicode="&#x17a4;" horiz-adv-x="2317" 
d="M2137 253h-250v812l-354 154l-173 -57q-48 -16 -66 -23q-33 -14 -45 -28l5 -9q42 7 59 7q54 0 100 -26q55 -31 55 -84v-616q0 -130 -119 -130h-117q-114 0 -187 51q-92 64 -92 195q0 160 140 160q108 0 108 -99q0 -36 -37.5 -67t-37.5 -54q0 -47 50 -47q42 0 42 53v272
h-693v-334q0 -130 -119 -130h-117q-114 0 -187 51q-92 64 -92 195q0 160 140 160q108 0 108 -99q0 -36 -37.5 -67t-37.5 -54q0 -47 50 -47q42 0 42 53v519q0 50 -63 50q-10 0 -27.5 -4t-27.5 -4q-13 0 -22 19l-54 114l328 275h29l153 -77q14 -7 30 -7q25 0 33 2l20 -32
l-111 -153q-69 49 -146 49q-64 0 -111 -55l5 -9q42 7 59 7q54 0 100 -26q55 -32 55 -84v-140h693v45q0 50 -57 50q-10 0 -26 -3.5t-26 -3.5q-18 0 -22 19l-48 208l586 210h51l461 -210v-951z" />
    <glyph glyph-name="uni17A5" unicode="&#x17a5;" horiz-adv-x="1689" 
d="M1509 253h-250v370q0 65 -56 98q-46 28 -114 28h-500q-63 0 -108 -32q-51 -37 -51 -96v-176q0 -53 42 -53q50 0 50 47q0 24 -37.5 61.5t-37.5 71.5q0 46 30 76.5t80 30.5q138 0 138 -160q0 -133 -91 -205q-78 -61 -188 -61h-117q-119 0 -119 134v378q0 119 106 164
l-213 96v172l430 229h69l401 -128q160 -51 266 -51q131 0 131 64q0 46 -52 46q-6 0 -20.5 -2.5t-20.5 -2.5q-87 0 -87 89q0 57 39 93t92 36q84 0 136 -57.5t52 -138.5q0 -155 -84 -245q-89 -94 -253 -94q-129 0 -295 48l-432 125l-139 -75v-32l297 -140h622q108 0 188 -47
q96 -55 96 -155v-506z" />
    <glyph glyph-name="uni17A6" unicode="&#x17a6;" horiz-adv-x="1860" 
d="M1680 -422h-250q-53 160 -178 222v-114q0 -107 -84 -107h-166q-262 0 -262 203q0 210 262 210v13q0 45 -89 45h-394q-89 0 -89 -102v-198q0 -53 42 -53q50 0 50 47q0 24 -37.5 59t-37.5 67q0 96 108 96q130 0 130 -152q0 -123 -86 -185q-72 -51 -183 -51h-117
q-119 0 -119 134v280q0 93 91 159q83 61 176 61h538q94 0 176 -58q91 -64 91 -157v-24q126 -43 178 -109v1432q0 132 -208 132q-220 0 -220 -93v-50h-250v206q0 82 -55 111t-55 66q0 80 145 80q80 0 144 -56q60 -53 69 -117q80 65 312 65q142 0 242 -51q126 -65 126 -190
v-1821zM1252 253h-250v504q0 120 -125 120h-318q-129 0 -129 -123v-309q0 -53 42 -53q50 0 50 67q0 23 -37.5 64t-37.5 77q0 109 108 109q140 0 140 -180q0 -133 -91 -210q-79 -66 -188 -66h-117q-119 0 -119 134v477q0 101 95 167q85 58 188 58h503q104 0 189 -58
q97 -66 97 -167v-611zM1002 -270v111q-71 0 -71 -60q0 -51 71 -51z" />
    <glyph glyph-name="uni17A7" unicode="&#x17a7;" horiz-adv-x="1672" 
d="M1492 137l-44 -45h-160l-52 45v171q-56 -55 -149 -55h-618q-107 0 -189 43q-100 52 -100 147v103q0 155 311 229l678 161q73 17 73 88v69q0 78 -110 78h-615q-87 0 -87 -68v-146q0 -37 42 -37q53 0 53 43q0 12 -35 27t-35 54q0 87 97 87q99 0 99 -104q0 -194 -248 -194
h-127q-40 0 -68 28t-28 67v248q0 91 99 152q88 54 187 54h728q114 0 199 -52q99 -61 99 -167v-154q0 -185 -289 -253l-662 -155q-111 -26 -111 -63v-24q0 -49 81 -49h511q71 0 137 32q83 40 83 109v32l46 32h160l44 -32v-501z" />
    <glyph glyph-name="uni17A8" unicode="&#x17a8;" horiz-adv-x="1672" 
d="M1492 137l-44 -45h-160l-52 45v171q-56 -55 -149 -55h-618q-107 0 -189 43q-100 52 -100 147v103q0 155 311 229l678 161q73 17 73 88v69q0 78 -110 78h-615q-87 0 -87 -68v-146q0 -37 42 -37q53 0 53 43q0 12 -35 27t-35 54q0 87 97 87q99 0 99 -104q0 -194 -248 -194
h-127q-40 0 -68 28t-28 67v248q0 91 99 152q88 54 187 54h728q114 0 199 -52q99 -61 99 -167v-154q0 -185 -289 -253l-662 -155q-111 -26 -111 -63v-24q0 -49 81 -49h511q71 0 137 32q83 40 83 109v32l46 32h160l44 -32v-501zM1486 1659l-160 -157h-12l-317 141l-190 -133
h-47l-318 133l-63 -53v-22l84 -36l-101 -85l-175 72v88l286 242h36l328 -150l184 150h37l309 -146q15 -7 28 -7q18 0 35 9z" />
    <glyph glyph-name="uni17A9" unicode="&#x17a9;" horiz-adv-x="1672" 
d="M1563 137l-44 -45h-154l-52 45v501l46 32h160l44 -32v-501zM1492 1009q0 -185 -289 -253l-662 -155q-111 -26 -111 -63v-24q0 -49 81 -49h261q71 0 137 32q83 40 83 109v32l46 32h160l44 -32v-501l-44 -45h-154l-52 45v171q-56 -55 -155 -55h-368q-107 0 -189 43
q-100 52 -100 147v103q0 155 311 229l678 161q73 17 73 88v69q0 78 -110 78h-615q-87 0 -87 -68v-146q0 -37 42 -37q53 0 53 43q0 12 -35 27t-35 54q0 87 97 87q99 0 99 -104q0 -194 -248 -194h-127q-40 0 -68 28t-28 67v248q0 91 99 152q88 54 187 54h728q114 0 199 -52
q99 -61 99 -167v-154z" />
    <glyph glyph-name="uni17AA" unicode="&#x17aa;" horiz-adv-x="1672" 
d="M1492 137l-44 -45h-160l-52 45v171q-56 -55 -149 -55h-618q-107 0 -189 43q-100 52 -100 147v88q0 162 311 226l678 139q73 15 73 88v59q0 78 -110 78h-615q-87 0 -87 -68v-136q0 -37 42 -37q53 0 53 43q0 12 -35 27t-35 54q0 87 97 87q99 0 99 -104q0 -194 -248 -194
h-127q-40 0 -68 28t-28 67v238q0 91 99 152l-209 94v132l430 229h69l387 -120q158 -49 266 -49q131 0 131 44q0 45 -52 45q-6 0 -20.5 -2.5t-20.5 -2.5q-87 0 -87 89q0 56 40 92q37 33 91 33q84 0 136 -57.5t52 -138.5q0 -147 -84 -212q-80 -62 -253 -62q-136 0 -295 45
l-418 118l-139 -75v-32l249 -116h642q114 0 199 -52q99 -61 99 -167v-144q0 -195 -289 -253l-662 -133q-111 -22 -111 -60v-14q0 -44 81 -44h511q220 0 220 121v32l46 32h160l44 -32v-481z" />
    <glyph glyph-name="uni17AB" unicode="&#x17ab;" horiz-adv-x="1713" 
d="M1682 1300l-111 -153q-69 49 -146 49q-64 0 -111 -55l5 -9q42 7 59 7q55 0 100 -24q55 -30 55 -83v-971q0 -160 -83 -251q-86 -95 -240 -95q-66 0 -155 33l-130 56q-182 77 -261 77q-103 0 -208.5 -56t-110.5 -56q-32 0 -32 55q0 118 129 199q112 70 233 70
q120 0 287 -80q179 -86 223 -86q59 0 80 29q18 24 18 89v231q-73 -23 -127 -23h-688q-93 0 -173 52q-91 59 -91 147v512q0 50 -63 50q-10 0 -27.5 -4t-27.5 -4q-13 0 -22 19l-54 114l328 275h29l153 -77q14 -7 30 -7q25 0 33 2l20 -32l-111 -153q-69 49 -146 49
q-64 0 -111 -55l5 -9q42 7 59 7q54 0 100 -26q55 -32 55 -84v-436q0 -60 50 -96q44 -32 106 -32h554q119 0 119 126v373q0 50 -63 50q-10 0 -27.5 -4t-27.5 -4q-13 0 -22 19l-54 114l328 275h29l153 -77q14 -7 30 -7q25 0 33 2z" />
    <glyph glyph-name="uni17AC" unicode="&#x17ac;" horiz-adv-x="1713" 
d="M1824 -35q0 -54 -49 -101q-56 -55 -142 -55q-74 0 -160 30q-85 -124 -263 -124q-66 0 -155 33l-130 56q-182 77 -261 77q-103 0 -210 -56t-109 -56q-32 0 -32 55q0 118 129 199q112 70 233 70q120 0 287 -80q179 -86 223 -86q59 0 80 29q18 24 18 89v231
q-73 -23 -127 -23h-688q-93 0 -173 52q-91 59 -91 147v512q0 50 -63 50q-10 0 -27.5 -4t-27.5 -4q-13 0 -22 19l-54 114l328 275h29l153 -77q14 -7 30 -7q25 0 33 2l20 -32l-111 -153q-69 49 -146 49q-64 0 -111 -55l5 -9q42 7 59 7q54 0 100 -26q55 -32 55 -84v-436
q0 -60 50 -96q44 -32 106 -32h554q119 0 119 126v373q0 50 -63 50q-10 0 -27.5 -4t-27.5 -4q-13 0 -22 19l-54 114l328 275h29l153 -77q14 -7 30 -7q25 0 33 2l20 -32l-111 -153q-69 49 -146 49q-64 0 -111 -55l5 -9q42 7 59 7q55 0 100 -24q55 -30 55 -83v-933
q0 -59 31.5 -96t84.5 -37q46 0 91 16.5t53 16.5q31 0 31 -34z" />
    <glyph glyph-name="uni17AD" unicode="&#x17ad;" horiz-adv-x="1747" 
d="M1567 63q0 -160 -83 -252q-86 -96 -240 -96q-66 0 -155 33l-130 56q-182 77 -261 77q-103 0 -210 -56t-109 -56q-32 0 -32 55q0 118 129 199q112 70 233 70q120 0 287 -80q179 -86 223 -86q59 0 80 29q18 24 18 89v1020l-242 131l-276 -151h-96l-294 151l-109 -63v-29
q130 -48 130 -155v-504q0 -53 42 -53q50 0 50 67q0 23 -37.5 64t-37.5 77q0 109 108 109q140 0 140 -180q0 -133 -91 -210q-79 -66 -188 -66h-117q-119 0 -119 134v510q0 51 -31.5 88t-81.5 45v141l400 243h69l290 -164l289 164h51l401 -220v-1131z" />
    <glyph glyph-name="uni17AE" unicode="&#x17ae;" horiz-adv-x="1747" 
d="M1858 -35q0 -54 -49 -101q-56 -55 -142 -55q-74 0 -160 30q-85 -124 -263 -124q-66 0 -155 33l-130 56q-182 77 -261 77q-103 0 -210 -56t-109 -56q-32 0 -32 55q0 118 129 199q112 70 233 70q120 0 287 -80q179 -86 223 -86q59 0 80 29q18 24 18 89v1020l-242 131
l-276 -151h-96l-294 151l-109 -63v-29q130 -48 130 -155v-504q0 -53 42 -53q50 0 50 67q0 23 -37.5 64t-37.5 77q0 109 108 109q140 0 140 -180q0 -133 -91 -210q-79 -66 -188 -66h-117q-119 0 -119 134v510q0 51 -31.5 88t-81.5 45v141l400 243h69l290 -164l289 164h51
l401 -220v-1095q0 -59 31.5 -96t84.5 -37q46 0 91 16.5t53 16.5q31 0 31 -34z" />
    <glyph glyph-name="uni17AF" unicode="&#x17af;" horiz-adv-x="1663" 
d="M1483 253h-315l-289 185l-289 -185h-315v409q0 43 -42 43q-50 0 -50 -57q0 -23 37.5 -59t37.5 -72q0 -99 -108 -99q-140 0 -140 170q0 236 279 236h117q119 0 119 -125v-284l354 235l354 -235v675q0 81 -110 81h-511q-87 0 -87 -69v-56h-250v489q0 32 -55 58t-55 70
q0 43 34 71.5t95 28.5q81 0 148 -44q83 -55 83 -151v-247q47 61 166 61h494q115 0 199 -50q99 -60 99 -166v-913z" />
    <glyph glyph-name="uni17B0" unicode="&#x17b0;" horiz-adv-x="1747" 
d="M1567 -202q0 -93 -91 -160q-83 -60 -176 -60h-144q-95 0 -185 73q-95 -73 -196 -73h-100q-103 0 -183 57q-90 64 -90 165v96q0 118 119 132l796 91v946l-242 131l-276 -151h-96l-294 151l-109 -63v-29q130 -48 130 -155v-504q0 -53 42 -53q50 0 50 67q0 23 -37.5 64
t-37.5 77q0 109 108 109q140 0 140 -180q0 -133 -91 -210q-79 -66 -188 -66h-117q-119 0 -119 134v510q0 51 -31.5 88t-81.5 45v141l400 243h69l290 -164l289 164h51l401 -220v-1396zM1317 -155v140l-623 -71q-42 -5 -42 -53v-25q0 -96 89 -96h14q52 0 85 47q27 38 27 79
h230q0 -43 23 -79q29 -47 81 -47h27q89 0 89 105z" />
    <glyph glyph-name="uni17B1" unicode="&#x17b1;" horiz-adv-x="1672" 
d="M1492 137l-44 -45h-160l-52 45v171q-56 -55 -149 -55h-618q-107 0 -189 43q-100 52 -100 147v103q0 155 311 229l678 161q73 17 73 88v69q0 78 -110 78h-615q-87 0 -87 -68v-146q0 -37 42 -37q53 0 53 43q0 12 -35 27t-35 54q0 87 97 87q99 0 99 -104q0 -194 -248 -194
h-127q-40 0 -68 28t-28 67v248q0 91 99 152q88 54 187 54h31q-30 89 -132 89q-51 0 -94 -34h-127v83q0 134 131 229q128 93 305 93q308 0 638 -233l174 -123l-75 -86l-171 105q-293 180 -556 180q-175 0 -231 -87q29 7 80 7h23q86 0 155 -57q74 -62 95 -166h482
q114 0 199 -52q99 -61 99 -167v-154q0 -185 -289 -253l-662 -155q-111 -26 -111 -63v-24q0 -49 81 -49h511q71 0 137 32q83 40 83 109v32l46 32h160l44 -32v-501z" />
    <glyph glyph-name="uni17B2" unicode="&#x17b2;" horiz-adv-x="1522" 
d="M1342 498q0 -121 -119 -190q-97 -55 -218 -55h-617q-103 0 -160 80q-48 67 -48 160v802q0 139 115 217q99 67 241 67h457q118 0 215 -45q113 -53 113 -137q0 -94 -89 -94q-12 0 -85.5 32t-147.5 32h-387q-182 0 -182 -166v-627q0 -109 105 -109h467q140 0 140 70
q0 59 -66 85q-45 -42 -93 -42q-84 0 -84 91q0 20 8 67q81 17 147 70q79 62 79 137q0 68 -64 104q-55 31 -138 31q-184 0 -184 -97q0 -58 40 -58q8 0 25 29t60 29q30 0 59.5 -34t29.5 -64q0 -57 -42.5 -88t-104.5 -31q-99 0 -152 58t-53 157q0 122 99 204q91 76 212 76h75
q122 0 216 -70q110 -83 110 -224q0 -86 -36 -145q-23 -37 -88 -94q76 -34 107 -77q38 -53 38 -151z" />
    <glyph glyph-name="uni17B3" unicode="&#x17b3;" horiz-adv-x="1672" 
d="M1492 137l-44 -45h-160l-52 45v171q-56 -55 -149 -55h-618q-107 0 -189 43q-100 52 -100 147v103q0 155 311 229l678 161q73 17 73 88v69q0 78 -110 78h-615q-87 0 -87 -68v-146q0 -37 42 -37q53 0 53 43q0 12 -35 27t-35 54q0 87 97 87q99 0 99 -104q0 -194 -248 -194
h-127q-40 0 -68 28t-28 67v248q0 91 99 152q88 54 187 54h31q-30 89 -132 89q-51 0 -94 -34h-127v83q0 134 131 229q128 93 305 93q188 0 334 -94q63 -46 127.5 -92.5t116.5 -46.5q42 0 81.5 59t79.5 59q86 0 86 -101q0 -65 -65 -110q-71 -49 -185 -49q-123 0 -290 123
q-129 95 -275 95q-175 0 -231 -87q29 7 80 7h23q86 0 155 -57q74 -62 95 -166h482q114 0 199 -52q99 -61 99 -167v-154q0 -185 -289 -253l-662 -155q-111 -26 -111 -63v-24q0 -49 81 -49h511q71 0 137 32q83 40 83 109v32l46 32h160l44 -32v-501z" />
    <glyph glyph-name="uni17B4" unicode="&#x17b4;" horiz-adv-x="760" 
d="M457 1482h-180v287h180v-287zM580 253h-250v782l-321 131l-189 -76v199l229 89h51l480 -204v-921z" />
    <glyph glyph-name="uni17B5" unicode="&#x17b5;" horiz-adv-x="760" 
d="M580 253h-250v782l-321 131l-189 -76v199l229 89h51l480 -204v-921z" />
    <glyph glyph-name="uni17B6" unicode="&#x17b6;" horiz-adv-x="760" 
d="M580 253h-250v782l-321 131l-189 -76v199l229 89h51l480 -204v-921z" />
    <glyph glyph-name="uni17B7" unicode="&#x17b7;" 
d="M-180 1520h-972q14 168 107 263q97 99 261 99q131 0 267 -60q83 -36 203 -116q104 -68 134 -76v-110zM-399 1630q-192 120 -363 120q-195 0 -225 -120h588z" />
    <glyph glyph-name="uni17B8" unicode="&#x17b8;" 
d="M-130 1804q0 -59 -19 -122l-31 -102v-60h-972q14 168 107 263q97 99 261 99q151 0 311 -81q29 -14 219 -134q14 31 14 63q0 21 -21.5 46.5t-21.5 44.5q0 27 24 44q20 15 43 15q86 0 86 -76zM-399 1630q-192 120 -363 120q-195 0 -225 -120h588z" />
    <glyph glyph-name="uni17B9" unicode="&#x17b9;" 
d="M-73 1726q0 -113 -107 -146v-60h-972q14 168 107 263q97 99 261 99q189 0 403 -132q8 57 51.5 93t103.5 36q64 0 108.5 -44.5t44.5 -108.5zM-165 1726q0 62 -62 62q-64 0 -64 -62t64 -62q62 0 62 62zM-399 1630q-192 120 -363 120q-195 0 -225 -120h588z" />
    <glyph glyph-name="uni17BA" unicode="&#x17ba;" 
d="M-106 1799q0 -60 -32 -129l-42 -90v-60h-972q14 168 107 263q97 99 261 99q187 0 414 -162q3 11 3 20q0 22 -16.5 43.5t-16.5 37.5q0 59 54 59q79 0 79 -81q0 -52 -34 -129q27 -20 44 -31q46 55 46 91q0 21 -16.5 46.5t-16.5 44.5q0 59 55 59q83 0 83 -81zM-399 1630
q-192 120 -363 120q-195 0 -225 -120h588z" />
    <glyph glyph-name="uni17BB" unicode="&#x17bb;" 
d="M-180 -315q0 -107 -116 -107q-73 0 -73 43v28q0 11 7 19l22 26v241q0 38 -26 38q-25 0 -25 -30q0 -5 1 -9q41 -10 41 -71q0 -54 -55 -54q-60 0 -60 83q0 61 39 104q44 47 116 47q47 0 83 -22q46 -28 46 -82v-254z" />
    <glyph glyph-name="uni17BC" unicode="&#x17bc;" 
d="M-180 -223q0 -86 -93 -146q-82 -53 -174 -53h-104q-108 0 -188 47q-95 56 -95 155v175q0 38 -26 38q-25 0 -25 -30q0 -5 1 -9q41 -10 41 -71q0 -54 -55 -54q-60 0 -60 83q0 61 39 104q44 47 116 47q47 0 83 -22q46 -28 46 -82v-115q0 -127 138 -127h69q129 0 129 128v181
h158v-249z" />
    <glyph glyph-name="uni17BD" unicode="&#x17bd;" 
d="M-180 -422h-128l-207 113l-190 -113h-129v377q0 38 -26 38q-25 0 -25 -30q0 -5 1 -9q41 -10 41 -71q0 -54 -55 -54q-60 0 -60 83q0 61 39 104q44 47 116 47q48 0 83 -22q46 -28 46 -82v-249l147 84h32l157 -84v316h158v-448z" />
    <glyph glyph-name="uni17BE" unicode="&#x17be;" horiz-adv-x="1718" 
d="M719 529q0 -133 -91 -210q-79 -66 -188 -66h-117q-119 0 -119 132v579q0 50 -63 50q-10 0 -27.5 -4t-27.5 -4q-13 0 -22 19l-54 114l328 275h29l153 -77q14 -7 30 -7q25 0 33 2l20 -32l-111 -153q-69 49 -146 49q-64 0 -111 -55l5 -9q42 7 59 7q54 0 100 -26
q55 -32 55 -84v-584q0 -53 42 -53q50 0 50 67q0 23 -37.5 64t-37.5 77q0 109 108 109q140 0 140 -180zM1118 328q0 22 16 38t38 16q23 0 39.5 -16t16.5 -38q0 -23 -16.5 -38.5t-39.5 -15.5q-22 0 -38 15.5t-16 38.5zM1123 1319q0 23 15 39.5t37 16.5q24 0 39 -16.5t15 -39.5
q0 -22 -15 -37t-39 -15q-22 0 -37 15t-15 37zM1039 310q-23 0 -38.5 15t-15.5 37q0 23 15.5 39.5t38.5 16.5q22 0 38 -16.5t16 -39.5q0 -22 -16 -37t-38 -15zM926 391q-22 0 -38 15t-16 37q0 23 16 38.5t38 15.5q23 0 38.5 -15.5t15.5 -38.5q0 -22 -15.5 -37t-38.5 -15z
M848 509q-22 0 -37 16t-15 38q0 23 15 38.5t37 15.5q23 0 39.5 -15.5t16.5 -38.5q0 -22 -16.5 -38t-39.5 -16zM808 638q-24 0 -39 16t-15 38q0 23 15 38.5t39 15.5q22 0 37 -15.5t15 -38.5q0 -22 -15 -38t-37 -16zM782 770q-24 0 -40 15t-16 38q0 22 16 38.5t40 16.5
q23 0 37.5 -16.5t14.5 -38.5q0 -23 -14.5 -38t-37.5 -15zM808 899q-24 0 -39 15t-15 38q0 22 15 38.5t39 16.5q22 0 37 -16.5t15 -38.5q0 -23 -15 -38t-37 -15zM853 1028q-23 0 -39.5 15t-16.5 38q0 24 16.5 39.5t39.5 15.5q22 0 37 -15.5t15 -39.5q0 -23 -15 -38t-37 -15z
M925 1147q-23 0 -38.5 15.5t-15.5 38.5q0 22 15.5 38.5t38.5 16.5q22 0 38 -16.5t16 -38.5q0 -23 -16 -38.5t-38 -15.5zM1037 1234q-22 0 -38.5 15t-16.5 37q0 23 16.5 38.5t38.5 15.5q23 0 38 -15.5t15 -38.5q0 -22 -15 -37t-38 -15zM1252 362q0 23 15 39.5t37 16.5
q23 0 38.5 -16.5t15.5 -39.5q0 -22 -15.5 -37t-38.5 -15q-22 0 -37 15t-15 37zM1364 443q0 23 15 38.5t38 15.5q22 0 38 -15.5t16 -38.5q0 -22 -16 -37t-38 -15q-23 0 -38 15t-15 37zM1441 563q0 23 15 38.5t39 15.5q22 0 38 -15.5t16 -38.5q0 -22 -16 -38t-38 -16
q-24 0 -39 16t-15 38zM1483 692q0 23 15.5 38.5t38.5 15.5q22 0 38 -15.5t16 -38.5q0 -22 -16 -38t-38 -16q-23 0 -38.5 16t-15.5 38zM1492 823q0 22 15.5 38.5t38.5 16.5q22 0 38.5 -16.5t16.5 -38.5q0 -23 -16.5 -38t-38.5 -15q-23 0 -38.5 15t-15.5 38zM1483 952
q0 22 15.5 38.5t38.5 16.5q22 0 38 -16.5t16 -38.5q0 -23 -16 -38t-38 -15q-23 0 -38.5 15t-15.5 38zM1438 1081q0 24 15.5 39.5t38.5 15.5q22 0 38 -15.5t16 -39.5q0 -23 -16 -38t-38 -15q-23 0 -38.5 15t-15.5 38zM1364 1201q0 22 16 37t38 15q23 0 39.5 -15t16.5 -37
q0 -23 -16.5 -38.5t-39.5 -15.5q-22 0 -38 15.5t-16 38.5zM1255 1286q0 23 15 38.5t37 15.5q23 0 38.5 -15.5t15.5 -38.5q0 -22 -15.5 -37t-38.5 -15q-22 0 -37 15t-15 37zM1715 1804q0 -59 -19 -122l-31 -102v-60h-972q14 168 107 263q97 99 261 99q151 0 311 -81
q29 -14 219 -134q14 31 14 63q0 21 -21.5 46.5t-21.5 44.5q0 27 24 44q20 15 43 15q86 0 86 -76zM1446 1630q-192 120 -363 120q-195 0 -225 -120h588z" />
    <glyph glyph-name="uni17BF" unicode="&#x17bf;" horiz-adv-x="2218" 
d="M719 529q0 -133 -91 -210q-79 -66 -188 -66h-117q-119 0 -119 132v579q0 50 -63 50q-10 0 -27.5 -4t-27.5 -4q-13 0 -22 19l-54 114l328 275h29l153 -77q14 -7 30 -7q25 0 33 2l20 -32l-111 -153q-69 49 -146 49q-64 0 -111 -55l5 -9q42 7 59 7q54 0 100 -26
q55 -32 55 -84v-584q0 -53 42 -53q50 0 50 67q0 23 -37.5 64t-37.5 77q0 109 108 109q140 0 140 -180zM1118 328q0 22 16 38t38 16q23 0 39.5 -16t16.5 -38q0 -23 -16.5 -38.5t-39.5 -15.5q-22 0 -38 15.5t-16 38.5zM1123 1319q0 23 15 39.5t37 16.5q24 0 39 -16.5t15 -39.5
q0 -22 -15 -37t-39 -15q-22 0 -37 15t-15 37zM1039 310q-23 0 -38.5 15t-15.5 37q0 23 15.5 39.5t38.5 16.5q22 0 38 -16.5t16 -39.5q0 -22 -16 -37t-38 -15zM926 391q-22 0 -38 15t-16 37q0 23 16 38.5t38 15.5q23 0 38.5 -15.5t15.5 -38.5q0 -22 -15.5 -37t-38.5 -15z
M848 509q-22 0 -37 16t-15 38q0 23 15 38.5t37 15.5q23 0 39.5 -15.5t16.5 -38.5q0 -22 -16.5 -38t-39.5 -16zM808 638q-24 0 -39 16t-15 38q0 23 15 38.5t39 15.5q22 0 37 -15.5t15 -38.5q0 -22 -15 -38t-37 -16zM782 770q-24 0 -40 15t-16 38q0 22 16 38.5t40 16.5
q23 0 37.5 -16.5t14.5 -38.5q0 -23 -14.5 -38t-37.5 -15zM808 899q-24 0 -39 15t-15 38q0 22 15 38.5t39 16.5q22 0 37 -16.5t15 -38.5q0 -23 -15 -38t-37 -15zM853 1028q-23 0 -39.5 15t-16.5 38q0 24 16.5 39.5t39.5 15.5q22 0 37 -15.5t15 -39.5q0 -23 -15 -38t-37 -15z
M925 1147q-23 0 -38.5 15.5t-15.5 38.5q0 22 15.5 38.5t38.5 16.5q22 0 38 -16.5t16 -38.5q0 -23 -16 -38.5t-38 -15.5zM1037 1234q-22 0 -38.5 15t-16.5 37q0 23 16.5 38.5t38.5 15.5q23 0 38 -15.5t15 -38.5q0 -22 -15 -37t-38 -15zM1252 362q0 23 15 39.5t37 16.5
q23 0 38.5 -16.5t15.5 -39.5q0 -22 -15.5 -37t-38.5 -15q-22 0 -37 15t-15 37zM1364 443q0 23 15 38.5t38 15.5q22 0 38 -15.5t16 -38.5q0 -22 -16 -37t-38 -15q-23 0 -38 15t-15 37zM1441 563q0 23 15 38.5t39 15.5q22 0 38 -15.5t16 -38.5q0 -22 -16 -38t-38 -16
q-24 0 -39 16t-15 38zM1483 692q0 23 15.5 38.5t38.5 15.5q22 0 38 -15.5t16 -38.5q0 -22 -16 -38t-38 -16q-23 0 -38.5 16t-15.5 38zM1492 823q0 22 15.5 38.5t38.5 16.5q22 0 38.5 -16.5t16.5 -38.5q0 -23 -16.5 -38t-38.5 -15q-23 0 -38.5 15t-15.5 38zM1483 952
q0 22 15.5 38.5t38.5 16.5q22 0 38 -16.5t16 -38.5q0 -23 -16 -38t-38 -15q-23 0 -38.5 15t-15.5 38zM1438 1081q0 24 15.5 39.5t38.5 15.5q22 0 38 -15.5t16 -39.5q0 -23 -16 -38t-38 -15q-23 0 -38.5 15t-15.5 38zM1364 1201q0 22 16 37t38 15q23 0 39.5 -15t16.5 -37
q0 -23 -16.5 -38.5t-39.5 -15.5q-22 0 -38 15.5t-16 38.5zM1255 1286q0 23 15 38.5t37 15.5q23 0 38.5 -15.5t15.5 -38.5q0 -22 -15.5 -37t-38.5 -15q-22 0 -37 15t-15 37zM2038 -203q0 -93 -91 -159q-82 -60 -176 -60h-404q-103 0 -183 57q-90 64 -90 165v121h250v-55
q0 -126 116 -126h239q89 0 89 106v1518q-97 156 -362 156h-785q14 168 107 263q97 99 261 99q187 0 414 -162q3 11 3 20q0 22 -16.5 43.5t-16.5 37.5q0 59 54 59q79 0 79 -81q0 -51 -30 -119l54 -22q32 42 32 72q0 21 -16.5 46.5t-16.5 44.5q0 59 55 59q83 0 83 -81
q0 -59 -32 -129l-16 -35q324 -39 399 -223v-1615zM1394 1630q-192 120 -363 120q-195 0 -225 -120h588z" />
    <glyph glyph-name="uni17C0" unicode="&#x17c0;" horiz-adv-x="2218" 
d="M719 529q0 -133 -91 -210q-79 -66 -188 -66h-117q-119 0 -119 132v579q0 50 -63 50q-10 0 -27.5 -4t-27.5 -4q-13 0 -22 19l-54 114l328 275h29l153 -77q14 -7 30 -7q25 0 33 2l20 -32l-111 -153q-69 49 -146 49q-64 0 -111 -55l5 -9q42 7 59 7q54 0 100 -26
q55 -32 55 -84v-584q0 -53 42 -53q50 0 50 67q0 23 -37.5 64t-37.5 77q0 109 108 109q140 0 140 -180zM1118 328q0 22 16 38t38 16q23 0 39.5 -16t16.5 -38q0 -23 -16.5 -38.5t-39.5 -15.5q-22 0 -38 15.5t-16 38.5zM1123 1319q0 23 15 39.5t37 16.5q24 0 39 -16.5t15 -39.5
q0 -22 -15 -37t-39 -15q-22 0 -37 15t-15 37zM1039 310q-23 0 -38.5 15t-15.5 37q0 23 15.5 39.5t38.5 16.5q22 0 38 -16.5t16 -39.5q0 -22 -16 -37t-38 -15zM926 391q-22 0 -38 15t-16 37q0 23 16 38.5t38 15.5q23 0 38.5 -15.5t15.5 -38.5q0 -22 -15.5 -37t-38.5 -15z
M848 509q-22 0 -37 16t-15 38q0 23 15 38.5t37 15.5q23 0 39.5 -15.5t16.5 -38.5q0 -22 -16.5 -38t-39.5 -16zM808 638q-24 0 -39 16t-15 38q0 23 15 38.5t39 15.5q22 0 37 -15.5t15 -38.5q0 -22 -15 -38t-37 -16zM782 770q-24 0 -40 15t-16 38q0 22 16 38.5t40 16.5
q23 0 37.5 -16.5t14.5 -38.5q0 -23 -14.5 -38t-37.5 -15zM808 899q-24 0 -39 15t-15 38q0 22 15 38.5t39 16.5q22 0 37 -16.5t15 -38.5q0 -23 -15 -38t-37 -15zM853 1028q-23 0 -39.5 15t-16.5 38q0 24 16.5 39.5t39.5 15.5q22 0 37 -15.5t15 -39.5q0 -23 -15 -38t-37 -15z
M925 1147q-23 0 -38.5 15.5t-15.5 38.5q0 22 15.5 38.5t38.5 16.5q22 0 38 -16.5t16 -38.5q0 -23 -16 -38.5t-38 -15.5zM1037 1234q-22 0 -38.5 15t-16.5 37q0 23 16.5 38.5t38.5 15.5q23 0 38 -15.5t15 -38.5q0 -22 -15 -37t-38 -15zM1252 362q0 23 15 39.5t37 16.5
q23 0 38.5 -16.5t15.5 -39.5q0 -22 -15.5 -37t-38.5 -15q-22 0 -37 15t-15 37zM1364 443q0 23 15 38.5t38 15.5q22 0 38 -15.5t16 -38.5q0 -22 -16 -37t-38 -15q-23 0 -38 15t-15 37zM1441 563q0 23 15 38.5t39 15.5q22 0 38 -15.5t16 -38.5q0 -22 -16 -38t-38 -16
q-24 0 -39 16t-15 38zM1483 692q0 23 15.5 38.5t38.5 15.5q22 0 38 -15.5t16 -38.5q0 -22 -16 -38t-38 -16q-23 0 -38.5 16t-15.5 38zM1492 823q0 22 15.5 38.5t38.5 16.5q22 0 38.5 -16.5t16.5 -38.5q0 -23 -16.5 -38t-38.5 -15q-23 0 -38.5 15t-15.5 38zM1483 952
q0 22 15.5 38.5t38.5 16.5q22 0 38 -16.5t16 -38.5q0 -23 -16 -38t-38 -15q-23 0 -38.5 15t-15.5 38zM1438 1081q0 24 15.5 39.5t38.5 15.5q22 0 38 -15.5t16 -39.5q0 -23 -16 -38t-38 -15q-23 0 -38.5 15t-15.5 38zM1364 1201q0 22 16 37t38 15q23 0 39.5 -15t16.5 -37
q0 -23 -16.5 -38.5t-39.5 -15.5q-22 0 -38 15.5t-16 38.5zM1255 1286q0 23 15 38.5t37 15.5q23 0 38.5 -15.5t15.5 -38.5q0 -22 -15.5 -37t-38.5 -15q-22 0 -37 15t-15 37zM2038 -203q0 -93 -91 -159q-82 -60 -176 -60h-404q-103 0 -183 57q-90 64 -90 165v121h250v-55
q0 -126 116 -126h239q89 0 89 106v1508q0 134 -224 134q-220 0 -220 -93v-10h-250v166q0 82 -55 111t-55 66q0 80 145 80q80 0 144 -56q60 -53 69 -117q80 65 312 65q144 0 250 -51q134 -66 134 -190v-1662z" />
    <glyph glyph-name="uni17C1" unicode="&#x17c1;" horiz-adv-x="719" 
d="M719 529q0 -133 -91 -210q-79 -66 -188 -66h-117q-119 0 -119 132v579q0 50 -63 50q-10 0 -27.5 -4t-27.5 -4q-13 0 -22 19l-54 114l328 275h29l153 -77q14 -7 30 -7q25 0 33 2l20 -32l-111 -153q-69 49 -146 49q-64 0 -111 -55l5 -9q42 7 59 7q54 0 100 -26
q55 -32 55 -84v-584q0 -53 42 -53q50 0 50 67q0 23 -37.5 64t-37.5 77q0 109 108 109q140 0 140 -180z" />
    <glyph glyph-name="uni17C2" unicode="&#x17c2;" horiz-adv-x="719" 
d="M719 529q0 -133 -91 -210q-79 -66 -188 -66h-117q-119 0 -119 132v579q0 50 -63 50q-10 0 -27.5 -4t-27.5 -4q-13 0 -22 19l-54 114l328 275h29l153 -77q14 -7 30 -7q25 0 33 2l20 -32l-111 -153q-69 49 -146 49q-64 0 -111 -55l5 -9q42 7 59 7q54 0 100 -26
q55 -32 55 -84v-584q0 -53 42 -53q50 0 50 67q0 23 -37.5 64t-37.5 77q0 109 108 109q140 0 140 -180zM720 1741q0 -147 -115 -198q-79 -36 -265 -36q-164 0 -248 24q-148 42 -148 162q0 105 124 105q42 0 75 -19q39 -23 39 -62q0 -46 -41 -46q-12 0 -24 9t-17 9
q-9 0 -9 -12q0 -58 255 -58q236 0 236 95q0 32 -20 62.5t-20 48.5q0 54 81 54q97 0 97 -138z" />
    <glyph glyph-name="uni17C3" unicode="&#x17c3;" horiz-adv-x="719" 
d="M658 1609q0 -86 -58.5 -138.5t-141.5 -52.5q-155 0 -155 110q0 87 90 87q30 0 56.5 -24.5t40.5 -24.5q42 0 42 49q0 26 -28 45q-31 21 -77 21q-139 0 -139 -54q0 -6 4 -17.5t4 -14.5q0 -49 -78 -49q-51 0 -92 109q-15 39 -77 73q-54 30 -54 65q0 75 104 75q91 0 124 -108
q46 69 182 69q120 0 188 -61q65 -59 65 -159zM719 529q0 -133 -91 -210q-79 -66 -188 -66h-117q-119 0 -119 132v579q0 50 -63 50q-10 0 -27.5 -4t-27.5 -4q-13 0 -22 19l-54 114l328 275h29l153 -77q14 -7 30 -7q25 0 33 2l20 -32l-111 -153q-69 49 -146 49q-64 0 -111 -55
l5 -9q42 7 59 7q54 0 100 -26q55 -32 55 -84v-584q0 -53 42 -53q50 0 50 67q0 23 -37.5 64t-37.5 77q0 109 108 109q140 0 140 -180z" />
    <glyph glyph-name="uni17C4" unicode="&#x17c4;" horiz-adv-x="2656" 
d="M719 529q0 -133 -91 -210q-79 -66 -188 -66h-117q-119 0 -119 132v579q0 50 -63 50q-10 0 -27.5 -4t-27.5 -4q-13 0 -22 19l-54 114l328 275h29l153 -77q14 -7 30 -7q25 0 33 2l20 -32l-111 -153q-69 49 -146 49q-64 0 -111 -55l5 -9q42 7 59 7q54 0 100 -26
q55 -32 55 -84v-584q0 -53 42 -53q50 0 50 67q0 23 -37.5 64t-37.5 77q0 109 108 109q140 0 140 -180zM1118 328q0 22 16 38t38 16q23 0 39.5 -16t16.5 -38q0 -23 -16.5 -38.5t-39.5 -15.5q-22 0 -38 15.5t-16 38.5zM1123 1319q0 23 15 39.5t37 16.5q24 0 39 -16.5t15 -39.5
q0 -22 -15 -37t-39 -15q-22 0 -37 15t-15 37zM1039 310q-23 0 -38.5 15t-15.5 37q0 23 15.5 39.5t38.5 16.5q22 0 38 -16.5t16 -39.5q0 -22 -16 -37t-38 -15zM926 391q-22 0 -38 15t-16 37q0 23 16 38.5t38 15.5q23 0 38.5 -15.5t15.5 -38.5q0 -22 -15.5 -37t-38.5 -15z
M848 509q-22 0 -37 16t-15 38q0 23 15 38.5t37 15.5q23 0 39.5 -15.5t16.5 -38.5q0 -22 -16.5 -38t-39.5 -16zM808 638q-24 0 -39 16t-15 38q0 23 15 38.5t39 15.5q22 0 37 -15.5t15 -38.5q0 -22 -15 -38t-37 -16zM782 770q-24 0 -40 15t-16 38q0 22 16 38.5t40 16.5
q23 0 37.5 -16.5t14.5 -38.5q0 -23 -14.5 -38t-37.5 -15zM808 899q-24 0 -39 15t-15 38q0 22 15 38.5t39 16.5q22 0 37 -16.5t15 -38.5q0 -23 -15 -38t-37 -15zM853 1028q-23 0 -39.5 15t-16.5 38q0 24 16.5 39.5t39.5 15.5q22 0 37 -15.5t15 -39.5q0 -23 -15 -38t-37 -15z
M925 1147q-23 0 -38.5 15.5t-15.5 38.5q0 22 15.5 38.5t38.5 16.5q22 0 38 -16.5t16 -38.5q0 -23 -16 -38.5t-38 -15.5zM1037 1234q-22 0 -38.5 15t-16.5 37q0 23 16.5 38.5t38.5 15.5q23 0 38 -15.5t15 -38.5q0 -22 -15 -37t-38 -15zM1252 362q0 23 15 39.5t37 16.5
q23 0 38.5 -16.5t15.5 -39.5q0 -22 -15.5 -37t-38.5 -15q-22 0 -37 15t-15 37zM1364 443q0 23 15 38.5t38 15.5q22 0 38 -15.5t16 -38.5q0 -22 -16 -37t-38 -15q-23 0 -38 15t-15 37zM1441 563q0 23 15 38.5t39 15.5q22 0 38 -15.5t16 -38.5q0 -22 -16 -38t-38 -16
q-24 0 -39 16t-15 38zM1483 692q0 23 15.5 38.5t38.5 15.5q22 0 38 -15.5t16 -38.5q0 -22 -16 -38t-38 -16q-23 0 -38.5 16t-15.5 38zM1492 823q0 22 15.5 38.5t38.5 16.5q22 0 38.5 -16.5t16.5 -38.5q0 -23 -16.5 -38t-38.5 -15q-23 0 -38.5 15t-15.5 38zM1483 952
q0 22 15.5 38.5t38.5 16.5q22 0 38 -16.5t16 -38.5q0 -23 -16 -38t-38 -15q-23 0 -38.5 15t-15.5 38zM1438 1081q0 24 15.5 39.5t38.5 15.5q22 0 38 -15.5t16 -39.5q0 -23 -16 -38t-38 -15q-23 0 -38.5 15t-15.5 38zM1364 1201q0 22 16 37t38 15q23 0 39.5 -15t16.5 -37
q0 -23 -16.5 -38.5t-39.5 -15.5q-22 0 -38 15.5t-16 38.5zM1255 1286q0 23 15 38.5t37 15.5q23 0 38.5 -15.5t15.5 -38.5q0 -22 -15.5 -37t-38.5 -15q-22 0 -37 15t-15 37zM2476 253h-250v772l-408 141l-209 -76v199l249 89h51l567 -204v-921z" />
    <glyph glyph-name="uni17C5" unicode="&#x17c5;" horiz-adv-x="2656" 
d="M719 529q0 -133 -91 -210q-79 -66 -188 -66h-117q-119 0 -119 132v579q0 50 -63 50q-10 0 -27.5 -4t-27.5 -4q-13 0 -22 19l-54 114l328 275h29l153 -77q14 -7 30 -7q25 0 33 2l20 -32l-111 -153q-69 49 -146 49q-64 0 -111 -55l5 -9q42 7 59 7q54 0 100 -26
q55 -32 55 -84v-584q0 -53 42 -53q50 0 50 67q0 23 -37.5 64t-37.5 77q0 109 108 109q140 0 140 -180zM1118 328q0 22 16 38t38 16q23 0 39.5 -16t16.5 -38q0 -23 -16.5 -38.5t-39.5 -15.5q-22 0 -38 15.5t-16 38.5zM1123 1319q0 23 15 39.5t37 16.5q24 0 39 -16.5t15 -39.5
q0 -22 -15 -37t-39 -15q-22 0 -37 15t-15 37zM1039 310q-23 0 -38.5 15t-15.5 37q0 23 15.5 39.5t38.5 16.5q22 0 38 -16.5t16 -39.5q0 -22 -16 -37t-38 -15zM926 391q-22 0 -38 15t-16 37q0 23 16 38.5t38 15.5q23 0 38.5 -15.5t15.5 -38.5q0 -22 -15.5 -37t-38.5 -15z
M848 509q-22 0 -37 16t-15 38q0 23 15 38.5t37 15.5q23 0 39.5 -15.5t16.5 -38.5q0 -22 -16.5 -38t-39.5 -16zM808 638q-24 0 -39 16t-15 38q0 23 15 38.5t39 15.5q22 0 37 -15.5t15 -38.5q0 -22 -15 -38t-37 -16zM782 770q-24 0 -40 15t-16 38q0 22 16 38.5t40 16.5
q23 0 37.5 -16.5t14.5 -38.5q0 -23 -14.5 -38t-37.5 -15zM808 899q-24 0 -39 15t-15 38q0 22 15 38.5t39 16.5q22 0 37 -16.5t15 -38.5q0 -23 -15 -38t-37 -15zM853 1028q-23 0 -39.5 15t-16.5 38q0 24 16.5 39.5t39.5 15.5q22 0 37 -15.5t15 -39.5q0 -23 -15 -38t-37 -15z
M925 1147q-23 0 -38.5 15.5t-15.5 38.5q0 22 15.5 38.5t38.5 16.5q22 0 38 -16.5t16 -38.5q0 -23 -16 -38.5t-38 -15.5zM1037 1234q-22 0 -38.5 15t-16.5 37q0 23 16.5 38.5t38.5 15.5q23 0 38 -15.5t15 -38.5q0 -22 -15 -37t-38 -15zM1252 362q0 23 15 39.5t37 16.5
q23 0 38.5 -16.5t15.5 -39.5q0 -22 -15.5 -37t-38.5 -15q-22 0 -37 15t-15 37zM1364 443q0 23 15 38.5t38 15.5q22 0 38 -15.5t16 -38.5q0 -22 -16 -37t-38 -15q-23 0 -38 15t-15 37zM1441 563q0 23 15 38.5t39 15.5q22 0 38 -15.5t16 -38.5q0 -22 -16 -38t-38 -16
q-24 0 -39 16t-15 38zM1483 692q0 23 15.5 38.5t38.5 15.5q22 0 38 -15.5t16 -38.5q0 -22 -16 -38t-38 -16q-23 0 -38.5 16t-15.5 38zM1492 823q0 22 15.5 38.5t38.5 16.5q22 0 38.5 -16.5t16.5 -38.5q0 -23 -16.5 -38t-38.5 -15q-23 0 -38.5 15t-15.5 38zM1483 952
q0 22 15.5 38.5t38.5 16.5q22 0 38 -16.5t16 -38.5q0 -23 -16 -38t-38 -15q-23 0 -38.5 15t-15.5 38zM1438 1081q0 24 15.5 39.5t38.5 15.5q22 0 38 -15.5t16 -39.5q0 -23 -16 -38t-38 -15q-23 0 -38.5 15t-15.5 38zM1364 1201q0 22 16 37t38 15q23 0 39.5 -15t16.5 -37
q0 -23 -16.5 -38.5t-39.5 -15.5q-22 0 -38 15.5t-16 38.5zM1255 1286q0 23 15 38.5t37 15.5q23 0 38.5 -15.5t15.5 -38.5q0 -22 -15.5 -37t-38.5 -15q-22 0 -37 15t-15 37zM2509 1463q0 -115 -33 -297v-913h-250v772l-408 141l-209 -76v199l249 89h51l439 -158q34 95 34 184
q0 118 -52 118q-8 0 -26.5 -2t-30.5 -2q-32 0 -54.5 26.5t-22.5 62.5q0 51 30 89q35 43 94 43q89 0 141 -84q48 -77 48 -192z" />
    <glyph glyph-name="uni17C6" unicode="&#x17c6;" 
d="M-398 1680q0 -69 -48.5 -117.5t-117.5 -48.5q-66 0 -114.5 49.5t-48.5 116.5q0 68 48 118.5t115 50.5q70 0 118 -49.5t48 -119.5zM-508 1681q0 56 -55 56q-54 0 -54 -56q0 -55 54 -55q55 0 55 55z" />
    <glyph glyph-name="uni17C7" unicode="&#x17c7;" horiz-adv-x="811" 
d="M631 1123q0 -94 -66.5 -163t-160.5 -69q-96 0 -160 67.5t-64 164.5q0 93 65.5 161t158.5 68q90 0 158.5 -69.5t68.5 -159.5zM631 474q0 -94 -66.5 -163t-160.5 -69q-96 0 -160 67.5t-64 164.5q0 93 65.5 161t158.5 68q90 0 158.5 -69.5t68.5 -159.5zM474 1122
q0 27 -21 48.5t-48 21.5q-28 0 -48 -21t-20 -49q0 -71 68 -71q28 0 48.5 21t20.5 50zM474 473q0 27 -21 48.5t-48 21.5q-28 0 -48 -21t-20 -49q0 -71 68 -71q28 0 48.5 21t20.5 50z" />
    <glyph glyph-name="uni17C8" unicode="&#x17c8;" horiz-adv-x="718" 
d="M538 1123q0 -74 -52.5 -126.5t-126.5 -52.5t-126.5 52.5t-52.5 126.5t52.5 126.5t126.5 52.5t126.5 -52.5t52.5 -126.5zM538 473q0 -74 -52.5 -126.5t-126.5 -52.5t-126.5 52.5t-52.5 126.5t52.5 126.5t126.5 52.5t126.5 -52.5t52.5 -126.5z" />
    <glyph glyph-name="uni17C9" unicode="&#x17c9;" 
d="M-366 1686l-19 -204h-136l-19 204v122l28 26h116l30 -26v-122zM-619 1686l-19 -204h-136l-19 204v122l28 26h116l30 -26v-122z" />
    <glyph glyph-name="uni17CA" unicode="&#x17ca;" 
d="M-94 1659l-160 -157h-12l-217 141l-180 -133h-47l-213 133l-63 -46l60 -57l-88 -78l-159 145l276 242h36l228 -150l174 150h37l209 -146q10 -7 28 -7t35 9z" />
    <glyph glyph-name="uni17CB" unicode="&#x17cb;" 
d="M-564 1686l-19 -204h-136l-19 204v122l28 26h116l30 -26v-122z" />
    <glyph glyph-name="uni17CC" unicode="&#x17cc;" 
d="M-73 1805q0 -130 -160 -130q-62 0 -148.5 31.5t-137.5 31.5q-52 0 -93 -21q-47 -25 -47 -66q44 30 109 30q177 0 177 -117q0 -62 -92 -62q-43 0 -73.5 37.5t-73.5 37.5q-74 0 -111 -51q-94 0 -94 105q0 97 88 165q83 64 192 64q88 0 177 -30t104 -30q51 0 51 39
q0 10 -6 16q15 23 68 23q70 0 70 -73z" />
    <glyph glyph-name="uni17CD" unicode="&#x17cd;" 
d="M-337 1848q0 -93 -59 -130q-45 -29 -158 -38q-71 -5 -142 -11q-56 -9 -56 -42q0 -28 47 -28q33 0 57 38q8 12 42 12q69 0 69 -37q0 -51 -57 -83q-49 -27 -107 -27q-180 0 -180 127q0 138 235 144q194 5 194 76q0 24 55 24q60 0 60 -25z" />
    <glyph glyph-name="uni17CE" unicode="&#x17ce;" 
d="M-348 1638h-144v-132h-125v132h-143v123h143v121h125v-121h144v-123z" />
    <glyph glyph-name="uni17CF" unicode="&#x17cf;" 
d="M-286 1851q0 -158 -218 -169q-115 -6 -138 -10q-61 -10 -61 -42q0 -31 43 -31q33 0 48 40q3 9 35 9h7q76 0 76 -16q0 -3 -1 -9.5t-1 -9.5q0 -15 23 -15q24 0 24 19q0 5 -3 13.5t-3 12.5q0 27 63 27q72 0 72 -49q0 -116 -156 -116q-41 0 -85 20q-46 -23 -99 -23
q-166 0 -166 123q0 146 257 149q163 2 163 77q0 23 65 23q55 0 55 -23z" />
    <glyph glyph-name="uni17D0" unicode="&#x17d0;" 
d="M-180 1741q0 -147 -115 -198q-79 -36 -265 -36q-164 0 -248 24q-148 42 -148 162q0 105 124 105q42 0 75 -19q39 -23 39 -62q0 -46 -41 -46q-12 0 -24 9t-17 9q-9 0 -9 -12q0 -58 255 -58q236 0 236 95q0 32 -20 62.5t-20 48.5q0 54 81 54q97 0 97 -138z" />
    <glyph glyph-name="uni17D1" unicode="&#x17d1;" 
d="M-236 1603h-619v145h619v-145z" />
    <glyph glyph-name="uni17D2" unicode="&#x17d2;" 
d="M-172 -94h-144v-132h-125v132h-143v123h143v121h125v-121h144v-123z" />
    <glyph glyph-name="uni17D3" unicode="&#x17d3;" horiz-adv-x="1338" 
d="M1158 835q0 -203 -143 -346t-346 -143t-346 143t-143 346t143 346t346 143t346 -143t143 -346zM914 835q0 101 -72 173t-173 72t-173 -72t-72 -173t72 -173t173 -72t173 72t72 173z" />
    <glyph glyph-name="uni17D4" unicode="&#x17d4;" horiz-adv-x="1214" 
d="M1034 253h-250v618q-25 -39 -89 -69q-78 -37 -171 -37q-142 0 -238 84q-106 92 -106 251q0 118 72 193q81 85 232 85q79 0 136 -33q71 -41 71 -122q0 -126 -113 -126q-110 0 -110 105q0 4 1.5 13.5t1.5 13.5q0 16 -17 16q-62 0 -62 -114q0 -73 53 -115q48 -39 121 -39
q89 0 155 73q63 70 63 160v160h250v-1117z" />
    <glyph glyph-name="uni17D5" unicode="&#x17d5;" horiz-adv-x="1585" 
d="M1034 253h-250v618q-25 -39 -89 -69q-78 -37 -171 -37q-142 0 -238 84q-106 92 -106 251q0 118 72 193q81 85 232 85q79 0 136 -33q71 -41 71 -122q0 -126 -113 -126q-110 0 -110 105q0 4 1.5 13.5t1.5 13.5q0 16 -17 16q-62 0 -62 -114q0 -73 53 -115q48 -39 121 -39
q89 0 155 73q63 70 63 160v160h250v-1117zM1405 253h-250v1123h250v-1123z" />
    <glyph glyph-name="uni17D6" unicode="&#x17d6;" horiz-adv-x="811" 
d="M631 1122q0 -94 -66.5 -163t-160.5 -69q-96 0 -160 67.5t-64 164.5q0 93 65.5 161t158.5 68q90 0 158.5 -69.5t68.5 -159.5zM631 695h-451v115h451v-115zM631 383q0 -94 -66.5 -163t-160.5 -69q-96 0 -160 67.5t-64 164.5q0 93 65.5 161t158.5 68q90 0 158.5 -69.5
t68.5 -159.5zM474 1121q0 27 -21 48.5t-48 21.5q-28 0 -48 -21t-20 -49q0 -71 68 -71q28 0 48.5 21t20.5 50zM474 382q0 27 -21 48.5t-48 21.5q-28 0 -48 -21t-20 -49q0 -71 68 -71q28 0 48.5 21t20.5 50z" />
    <glyph glyph-name="uni17D7" unicode="&#x17d7;" horiz-adv-x="1467" 
d="M1287 232q0 -104 -90 -171q-81 -61 -182 -61h-472q-137 0 -252 79q-111 76 -111 160q0 36 20 64q25 34 70 34q49 0 134 -62.5t145 -62.5h348q140 0 140 116v805l-55 48l-224 -95h-33l-240 95l-55 -48v-226q0 -47 42 -47q53 0 53 48q0 12 -35 29.5t-35 56.5q0 87 97 87
q99 0 99 -104q0 -204 -248 -204h-127q-40 0 -68 28t-28 67v348l221 166h41l299 -130l284 130h41l221 -166v-984z" />
    <glyph glyph-name="uni17D8" unicode="&#x17d8;" horiz-adv-x="3900" 
d="M1034 253h-250v618q-25 -39 -89 -69q-78 -37 -171 -37q-142 0 -238 84q-106 92 -106 251q0 118 72 193q81 85 232 85q79 0 136 -33q71 -41 71 -122q0 -126 -113 -126q-110 0 -110 105q0 4 1.5 13.5t1.5 13.5q0 16 -17 16q-62 0 -62 -114q0 -73 53 -115q48 -39 121 -39
q89 0 155 73q63 70 63 160v160h250v-1117zM2895 1300l-111 -153q-69 49 -146 49q-64 0 -111 -55l5 -9q42 7 59 7q55 0 100 -24q55 -30 55 -83v-560q0 -93 -91 -159q-82 -60 -176 -60h-363q-104 0 -189 57q-97 64 -97 165v569q0 120 -129 120h-168q-129 0 -129 -123v-596
q0 -53 42 -53q50 0 50 67q0 23 -37.5 64t-37.5 77q0 109 108 109q140 0 140 -180q0 -133 -91 -210q-79 -66 -188 -66h-117q-119 0 -119 134v764q0 101 95 167q85 58 188 58h357q104 0 189 -58q97 -66 97 -167v-560q0 -126 129 -126h168q119 0 119 126v373q0 50 -63 50
q-10 0 -27.5 -4t-27.5 -4q-13 0 -22 19l-54 114l328 275h29l153 -77q14 -7 30 -7q25 0 33 2zM3720 253h-250v618q-25 -39 -89 -69q-78 -37 -171 -37q-142 0 -238 84q-106 92 -106 251q0 118 72 193q81 85 232 85q79 0 136 -33q71 -41 71 -122q0 -126 -113 -126
q-110 0 -110 105q0 4 1.5 13.5t1.5 13.5q0 16 -17 16q-62 0 -62 -114q0 -73 53 -115q48 -39 121 -39q89 0 155 73q63 70 63 160v160h250v-1117z" />
    <glyph glyph-name="uni17D9" unicode="&#x17d9;" horiz-adv-x="1421" 
d="M1241 721q0 -234 -148 -403q-154 -177 -383 -177t-383 177q-147 169 -147 403t148 403q154 176 383 176t383 -176q147 -169 147 -403zM1056 721q0 155 -96 276q-102 128 -249 128q-148 0 -250 -128q-96 -121 -96 -276t96 -276q102 -129 249 -129t250 129q96 121 96 276z
M951 721q0 -108 -67 -192q-72 -90 -174 -90t-173 90q-67 84 -67 192t67 192q72 89 174 89t173 -89q67 -84 67 -192zM814 721q0 46 -29.5 83t-73.5 37t-74 -37t-30 -83t29.5 -83.5t73.5 -37.5t74 37.5t30 83.5z" />
    <glyph glyph-name="uni17DA" unicode="&#x17da;" horiz-adv-x="1959" 
d="M1779 878q0 -44 -5 -51q-8 -12 -53.5 -17.5t-50.5 -14.5q-30 -57 -61 -114q-51 -85 -84 -85q-34 0 -76 118l-34 -195q-11 -61 -87 -61q-101 0 -101 86v124q-42 -167 -158 -275q-148 -137 -379 -137q-244 0 -380 159q-130 151 -130 409q0 228 111 380q122 166 332 166
q211 0 316 -156q82 -122 82 -300q0 -159 -89 -260q-83 -95 -202 -95q-106 0 -176 62q-83 74 -83 212q0 126 102 126q29 0 53 -18.5t24 -47.5q0 -8 -4.5 -27.5t-4.5 -34.5q0 -38 22.5 -66t59.5 -28q100 0 100 176q0 113 -47 185q-53 83 -153 83q-116 0 -178 -130
q-48 -101 -48 -227q0 -153 64 -254q80 -124 236 -124q186 0 305 150q105 133 105 296q0 16 -3 63.5t-3 63.5q0 35 23.5 63.5t60.5 28.5q69 0 93 -81l55 -188q10 63 38 130q39 95 83 95q56 0 105 -189q10 24 33 49q25 30 41 30q22 0 72 -8q56 -9 65 -17.5t9 -53.5z" />
    <glyph glyph-name="uni17DB" unicode="&#x17db;" horiz-adv-x="675" 
d="M733 882q-76 -138 -238 -173v-326q0 -130 -119 -130h-117q-249 0 -249 256q0 70 33 115t77 45q108 0 108 -99q0 -36 -37.5 -67t-37.5 -54q0 -57 50 -57q42 0 42 53v258q-92 9 -148 30q-48 0 -81 29t-33 76q0 45 30 75t75 30q89 0 105 -78q11 -7 52 -22v121q0 50 -63 50
q-10 0 -27.5 -4t-27.5 -4q-13 0 -22 19l-54 114l328 275h29l153 -77q14 -7 30 -7q25 0 33 2l20 -32l-111 -153q-69 49 -146 49q-64 0 -111 -55l5 -9q42 7 59 7q54 0 100 -26q55 -32 55 -84v-200q109 18 184 105z" />
    <glyph glyph-name="uni17DC" unicode="&#x17dc;" horiz-adv-x="1247" 
d="M1067 424q0 -97 -181 -141q-118 -29 -268 -29q-438 0 -438 249v136q0 17 34.5 30.5t84.5 13.5q131 0 131 -44v-82q0 -91 188 -91q199 0 199 91v32q0 35 -116 88q-81 34 -161 67l-208 88q-152 76 -152 148v242q0 81 183 128q134 35 258 35q149 0 271 -35q175 -52 175 -158
v-185q0 -51 -120 -51q-130 0 -130 51v91q0 75 -196 75q-191 0 -191 -75v-34q0 -55 105 -108q8 -4 173 -71q160 -65 215 -97q144 -83 144 -172v-192z" />
    <glyph glyph-name="uni17DD" unicode="&#x17dd;" 
d="M-107 1581q0 -68 -70 -68q-60 0 -80 67q-19 64 -89 99q-62 31 -143 31t-143 -31q-70 -35 -89 -99q-20 -67 -80 -67q-70 0 -70 68q0 101 117 183t265 82t265 -82t117 -183z" />
    <glyph glyph-name="uni17E0" unicode="&#x17e0;" horiz-adv-x="1285" 
d="M1105 472q0 -101 -97 -164q-84 -55 -189 -55h-375q-89 0 -173 62q-91 68 -91 157v686q0 89 91 159q84 65 173 65h375q104 0 189 -58q97 -65 97 -166v-686zM855 585v454q0 131 -119 131h-180q-126 0 -126 -131v-454q0 -120 126 -120h180q119 0 119 120z" />
    <glyph glyph-name="uni17E1" unicode="&#x17e1;" horiz-adv-x="1467" 
d="M1287 485q0 -104 -90 -171q-81 -61 -182 -61h-472q-137 0 -252 79q-111 76 -111 160q0 36 20 64q25 34 70 34q49 0 134 -62.5t145 -62.5h348q140 0 140 116v455q0 134 -119 134h-362q-126 0 -126 -134v-129q0 -47 42 -47q53 0 53 48q0 12 -35 29.5t-35 56.5q0 87 97 87
q99 0 99 -104q0 -204 -248 -204h-127q-40 0 -68 28t-28 67v288q0 90 91 160q85 66 173 66h557q104 0 189 -58q97 -65 97 -166v-673z" />
    <glyph glyph-name="uni17E2" unicode="&#x17e2;" horiz-adv-x="1754" 
d="M1574 485q0 -104 -85 -171q-77 -61 -177 -61q-66 0 -206.5 30t-222.5 30q-91 0 -244.5 -30t-206.5 -30q-88 0 -167 62q-85 67 -85 157v953q0 32 -51.5 58t-51.5 70q0 100 125 100q81 0 147 -44q81 -55 81 -151v-871q0 -122 106 -122q44 0 156 23t191 23q76 0 178 -23
t143 -23q64 0 90 23q30 26 30 93v552l-55 48l-174 -95h-33l-170 95l-55 -48v-378q0 -47 42 -47q53 0 53 48q0 12 -35 29.5t-35 56.5q0 87 97 87q99 0 99 -104q0 -204 -248 -204h-127q-40 0 -68 28t-28 67v500l221 166h41l229 -130l234 130h41l221 -166v-731z" />
    <glyph glyph-name="uni17E3" unicode="&#x17e3;" horiz-adv-x="1840" 
d="M1660 253h-250v786q0 128 -169 128h-27q-69 0 -115 -28q-54 -34 -54 -98v-788h-250v786q0 128 -169 128h-27q-68 0 -115 -30q-54 -35 -54 -99v-593q0 -53 42 -53q50 0 50 67q0 23 -37.5 64t-37.5 77q0 109 108 109q140 0 140 -180q0 -133 -91 -210q-79 -66 -188 -66h-117
q-59 0 -91 44q-28 37 -28 93v764q0 101 96 167q86 58 189 58h268q125 0 212 -55q78 55 199 55h204q122 0 209 -53q103 -63 103 -176v-897z" />
    <glyph glyph-name="uni17E4" unicode="&#x17e4;" horiz-adv-x="1600" 
d="M1420 1524q0 -146 -284 -222l-506 -135q-135 -36 -171 -89q-29 -45 -29 -182v-277q0 -83 36 -118.5t122 -35.5h118q94 0 259 27q-91 40 -153 128q-65 93 -65 196q0 162 103.5 261.5t274.5 99.5q131 0 210.5 -86t79.5 -223q0 -109 -47.5 -173.5t-127.5 -64.5
q-145 0 -145 139q0 40 33 77t77 37q6 0 20 -1.5t20 -1.5q9 0 9 16q0 44 -34.5 70t-81.5 26q-161 0 -161 -185q0 -122 132 -229q127 -102 254 -102q11 -10 21.5 -48.5t10.5 -57.5q0 -84 -53 -125q-180 36 -232 36q-90 0 -290 -14t-271 -14q-154 0 -256 74q-113 82 -113 224
v397q0 206 139 314q102 80 336 134l386 90q70 16 93 35q36 29 36 99q0 80 132 80q118 0 118 -78v-98z" />
    <glyph glyph-name="uni17E5" unicode="&#x17e5;" horiz-adv-x="1600" 
d="M1420 1474q0 -145 -284 -222l-506 -138q-136 -37 -170 -88q-30 -44 -30 -180v-227q0 -83 36 -118.5t122 -35.5h118q74 0 239 27q-73 24 -132 100q-66 85 -66 184q0 162 103.5 261.5t274.5 99.5q131 0 210.5 -86t79.5 -223q0 -109 -47.5 -173.5t-127.5 -64.5
q-145 0 -145 139q0 40 33 77t77 37q6 0 20 -1.5t20 -1.5q9 0 9 16q0 44 -34.5 70t-81.5 26q-161 0 -161 -185q0 -119 132 -209q122 -82 254 -82q11 -10 21.5 -48.5t10.5 -57.5q0 -84 -53 -125q-180 36 -232 36q-90 0 -290 -14t-271 -14q-154 0 -256 74q-113 82 -113 224v347
q0 253 221 362q-52 66 -52 149q0 100 71 171t171 71t171 -71t71 -171q0 -13 -1 -23l209 50q69 17 93 44q36 40 36 144q0 80 132 80q118 0 118 -78v-152zM668 1409q0 32 -22.5 54.5t-54.5 22.5t-54.5 -22.5t-22.5 -54.5t22.5 -54.5t54.5 -22.5t54.5 22.5t22.5 54.5z" />
    <glyph glyph-name="uni17E6" unicode="&#x17e6;" horiz-adv-x="1467" 
d="M1287 477q0 -101 -97 -166q-85 -58 -189 -58h-557q-88 0 -173 66q-91 70 -91 160v328q0 39 28 67t68 28h127q248 0 248 -204q0 -104 -99 -104q-97 0 -97 87q0 39 35 56.5t35 29.5q0 48 -53 48q-42 0 -42 -47v-169q0 -134 126 -134h362q119 0 119 134v455q0 116 -140 116
h-348q-75 0 -211 -108q-39 11 -49 16q-26 12 -55 43q-14 15 -38 97q46 53 46 193v31q0 72 -30 121t-30 78q0 107 121 107q59 0 104 -31q54 -36 54 -99q0 -24 -4 -60l-21 -190q55 14 107 14h472q101 0 182 -61q90 -67 90 -171v-673z" />
    <glyph glyph-name="uni17E7" unicode="&#x17e7;" horiz-adv-x="1776" 
d="M1596 487q0 -113 -97 -175q-91 -59 -243 -59t-243 60q-96 63 -96 176v644l-55 48l-174 -95h-33l-170 95l-55 -48v-686q0 -55 42 -55q50 0 50 67q0 23 -37.5 64t-37.5 77q0 109 108 109q140 0 140 -180q0 -133 -91 -210q-79 -66 -188 -66h-117q-119 0 -119 135v828
l221 166h41l229 -130l234 130h41l221 -166v-707q0 -32 31 -54q28 -20 58 -20t58 20q32 22 32 54v916q0 32 -51.5 58t-51.5 70q0 100 125 100q81 0 147 -44q81 -55 81 -151v-971z" />
    <glyph glyph-name="uni17E8" unicode="&#x17e8;" horiz-adv-x="1750" 
d="M1680 1637q0 -44 -55 -70t-55 -58v-365q0 -39 -28 -66.5t-68 -27.5h-154q0 120 -239 120h-511q-140 0 -140 -116v-455q0 -134 109 -134h44l263 160h62l244 -160h42q126 0 126 134v169q0 47 -42 47q-53 0 -53 -48q0 -12 35 -29.5t35 -56.5q0 -87 -97 -87q-99 0 -99 104
q0 204 248 204h127q40 0 68 -28t28 -67v-328q0 -90 -91 -160q-85 -66 -173 -66h-144l-288 185l-290 -185h-118q-104 0 -189 58q-97 65 -97 166v673q0 104 89 171q81 61 183 61h630q153 0 238 -58v218q0 96 83 151q67 44 148 44q61 0 95 -28.5t34 -71.5z" />
    <glyph glyph-name="uni17E9" unicode="&#x17e9;" horiz-adv-x="1600" 
d="M1530 1642q0 -53 -55 -91t-55 -62v-345q0 -39 -28 -66.5t-68 -27.5h-154q0 120 -239 120h-401q-100 0 -100 -89q0 -90 100 -90h250q29 0 49 -31t20 -78q0 -43 -18.5 -73t-45.5 -30h-245q-110 0 -110 -113v-67q0 -134 109 -134h505q126 0 126 134v89q0 47 -42 47
q-53 0 -53 -48q0 -12 35 -29.5t35 -56.5q0 -87 -97 -87q-99 0 -99 104q0 204 248 204h127q40 0 68 -28t28 -67v-248q0 -90 -91 -160q-85 -66 -173 -66h-690q-104 0 -189 58q-97 65 -97 166v233q0 135 146 182q-63 24 -103 83q-43 62 -43 142q0 126 99 201q85 64 193 64h460
q153 0 238 -58v218q0 96 83 151q67 44 148 44q129 0 129 -95z" />
    <glyph glyph-name="uni17F0" unicode="&#x17f0;" horiz-adv-x="1326" 
d="M1146 564q0 -154 -144 -236q-129 -75 -339 -75t-339 75q-144 82 -144 236v504q0 154 144 238q129 75 339 75t339 -75q144 -84 144 -238v-504zM896 636v364q0 169 -233 169t-233 -169v-364q0 -171 233 -171t233 171z" />
    <glyph glyph-name="uni17F1" unicode="&#x17f1;" horiz-adv-x="1321" 
d="M1141 253h-250l-230 883l-231 -883h-250l353 1126h255z" />
    <glyph glyph-name="uni17F2" unicode="&#x17f2;" horiz-adv-x="610" 
d="M430 253h-250v1123h250v-1123z" />
    <glyph glyph-name="uni17F3" unicode="&#x17f3;" horiz-adv-x="1943" 
d="M1763 253h-250l-200 883l-191 -883h-301l-190 883l-201 -883h-250l323 1126h255l214 -883l213 883h255z" />
    <glyph glyph-name="uni17F4" unicode="&#x17f4;" horiz-adv-x="1321" 
d="M1141 1379l-353 -1126h-255l-353 1126h250l231 -883l230 883h250z" />
    <glyph glyph-name="uni17F5" unicode="&#x17f5;" horiz-adv-x="1389" 
d="M1209 1372l-347 -431q183 -104 183 -333q0 -171 -107 -268q-96 -87 -243 -87t-244 87q-107 97 -107 268q0 229 183 333l-347 431h280l234 -350l235 350h280zM795 626q0 167 -100 167q-101 0 -101 -167q0 -161 100 -161q101 0 101 161z" />
    <glyph glyph-name="uni17F6" unicode="&#x17f6;" horiz-adv-x="908" 
d="M728 253h-250l-298 1126h195z" />
    <glyph glyph-name="uni17F7" unicode="&#x17f7;" horiz-adv-x="1332" 
d="M1512 1379l-403 -1126h-288l-110 883l-281 -883h-250l403 1126h283l116 -883l280 883h250z" />
    <glyph glyph-name="uni17F8" unicode="&#x17f8;" horiz-adv-x="908" 
d="M728 1379l-298 -1126h-250l353 1126h195z" />
    <glyph glyph-name="uni17F9" unicode="&#x17f9;" horiz-adv-x="1557" 
d="M1377 67q0 -165 -106 -278q-117 -123 -316 -123h-205v212h77q300 0 300 187q0 188 -300 188h-588l-59 195l846 827l146 -155l-676 -655h459q200 0 317 -122q105 -111 105 -276z" />
    <glyph glyph-name="uni19E0" unicode="&#x19e0;" horiz-adv-x="1390" 
d="M1320 561q0 -44 -55 -70t-55 -58v-125q0 -39 -28 -66.5t-68 -27.5h-154q-25 50 -129 50h-261q-140 0 -140 -116v-224q0 -68 16 -96q22 -38 83 -38h24l113 94h62l94 -94h22q116 0 116 134v104q0 47 -42 47q-53 0 -53 -38q0 -11 35 -28t35 -48q0 -77 -97 -77q-99 0 -99 104
q0 164 248 164h127q40 0 68 -28t28 -67v-253q0 -90 -91 -160q-85 -66 -173 -66h-134l-118 125l-120 -125h-108q-104 0 -189 58q-97 65 -97 166v442q0 104 89 171q81 61 183 61h300q142 0 208 -58v48q0 96 83 151q67 44 148 44q61 0 95 -28.5t34 -71.5zM1150 1074
q0 -155 -130 -237q-119 -74 -325 -74t-325 74q-130 82 -130 237v339q0 156 130 238q119 75 325 75t325 -75q130 -82 130 -238v-339zM900 1146v199q0 96 -52 134q-47 35 -153 35t-153 -35q-52 -38 -52 -134v-199q0 -96 52 -135q47 -36 153 -36t153 36q52 39 52 135z" />
    <glyph glyph-name="uni19E1" unicode="&#x19e1;" horiz-adv-x="1270" 
d="M1090 1073q0 -154 -146 -236q-130 -74 -337 -74q-182 0 -303 49q-124 50 -124 130q0 36 20 64q25 34 70 34q40 0 137 -32.5t205 -32.5q228 0 228 172v198q0 96 -52 134q-47 35 -153 35t-153 -35q-52 -38 -52 -134v-81q0 -47 42 -47q53 0 53 48q0 12 -35 29.5t-35 56.5
q0 87 97 87q99 0 99 -104q0 -204 -248 -204q-87 0 -148 39q-75 47 -75 138v106q0 156 130 238q119 75 325 75t325 -75q130 -82 130 -238v-340zM1053 -422h-250v486q-24 -38 -89 -69q-76 -37 -161 -37q-142 0 -228 74q-96 83 -96 241q0 114 74 188q78 80 210 80q70 0 121 -40
q56 -43 56 -115q0 -46 -22 -78q-25 -38 -71 -38q-90 0 -90 95q0 4 1.5 13.5t1.5 13.5q0 16 -17 16q-23 0 -39 -37q-13 -32 -13 -67q0 -134 154 -134q92 0 150 65t58 168v138h250v-963z" />
    <glyph glyph-name="uni19E2" unicode="&#x19e2;" horiz-adv-x="1514" 
d="M1334 1005q0 -111 -71 -176.5t-191 -65.5q-68 0 -152.5 30t-156.5 30q-77 0 -176 -30t-155 -30q-109 0 -180.5 66.5t-71.5 162.5v626q0 32 -51.5 58t-51.5 70q0 100 125 100q81 0 147 -44q81 -55 81 -151v-554q0 -122 96 -122q38 0 108.5 23t128.5 23t122.5 -23t88.5 -23
q110 0 110 116v386l-55 48l-89 -65h-33l-85 65l-55 -48v-218q0 -47 42 -47q53 0 53 48q0 12 -35 29.5t-35 56.5q0 87 97 87q79 0 79 -104q0 -204 -228 -204h-127q-40 0 -68 28t-28 67v340l221 166h41l144 -100l149 100h41l221 -166v-555zM1169 -422h-250v486
q-24 -38 -89 -69q-76 -37 -161 -37q-142 0 -228 74q-96 83 -96 241q0 114 74 188q78 80 210 80q70 0 121 -40q56 -43 56 -115q0 -46 -22 -78q-25 -38 -71 -38q-90 0 -90 95q0 4 1.5 13.5t1.5 13.5q0 16 -17 16q-23 0 -39 -37q-13 -32 -13 -67q0 -134 154 -134q92 0 150 65
t58 168v138h250v-963z" />
    <glyph glyph-name="uni19E3" unicode="&#x19e3;" horiz-adv-x="1620" 
d="M1440 763h-250v623q0 128 -128 128q-127 0 -127 -128v-623h-250v622q0 129 -127 129q-128 0 -128 -129v-490q0 -45 42 -45q53 0 53 48q0 12 -35 29.5t-35 56.5q0 87 97 87q99 0 99 -104q0 -204 -248 -204q-87 0 -148 39q-75 47 -75 138v561q0 101 96 167q86 58 189 58
h158q125 0 212 -55q78 55 169 55h124q122 0 209 -53q103 -63 103 -176v-734zM1222 -422h-250v486q-24 -38 -89 -69q-76 -37 -161 -37q-142 0 -228 74q-96 83 -96 241q0 114 74 188q78 80 210 80q70 0 121 -40q56 -43 56 -115q0 -46 -22 -78q-25 -38 -71 -38q-90 0 -90 95
q0 4 1.5 13.5t1.5 13.5q0 16 -17 16q-23 0 -39 -37q-13 -32 -13 -67q0 -134 154 -134q92 0 150 65t58 168v138h250v-963z" />
    <glyph glyph-name="uni19E4" unicode="&#x19e4;" horiz-adv-x="1405" 
d="M1225 1198q0 -148 -165 -148q-115 0 -115 89q0 74 67 74q6 0 20 -1.5t20 -1.5q17 0 17 19q0 53 -111 53q-141 0 -141 -105q0 -202 356 -202q32 -30 32 -95q0 -84 -53 -125q-180 36 -232 36q-66 0 -189 -14t-182 -14q-154 0 -256 74q-113 82 -113 224v157q0 213 121 325
q108 101 339 139l206 34q107 18 134 70q31 60 127 60q118 0 118 -116q0 -142 -284 -198l-317 -63q-194 -39 -194 -243v-97q0 -83 35.5 -118.5t122.5 -35.5q59 0 167 17q-148 51 -148 194q0 102 84 172q93 79 254 79q133 0 206.5 -62t73.5 -177zM1104 -422h-250v486
q-24 -38 -89 -69q-76 -37 -161 -37q-142 0 -228 74q-96 83 -96 241q0 114 74 188q78 80 210 80q70 0 121 -40q56 -43 56 -115q0 -46 -22 -78q-25 -38 -71 -38q-90 0 -90 95q0 4 1.5 13.5t1.5 13.5q0 16 -17 16q-23 0 -39 -37q-13 -32 -13 -67q0 -134 154 -134q92 0 150 65
t58 168v138h250v-963z" />
    <glyph glyph-name="uni19E5" unicode="&#x19e5;" horiz-adv-x="1405" 
d="M1225 1182q0 -148 -165 -148q-115 0 -115 89q0 74 67 74q6 0 20 -1.5t20 -1.5q17 0 17 19q0 53 -111 53q-141 0 -141 -105q0 -117 117 -159q77 -27 239 -27q32 -30 32 -95q0 -84 -53 -125q-180 36 -232 36q-66 0 -189 -14t-182 -14q-154 0 -256 74q-113 82 -113 224v107
q0 280 231 391q-38 49 -38 109q0 74 52 126t126 52t126 -52t52 -126q0 -5 -1 -17q229 49 259 135q16 60 120 60q118 0 118 -116q0 -89 -99 -159q-78 -54 -185 -79l-317 -73q-103 -24 -148.5 -80t-45.5 -163v-47q0 -83 35.5 -118.5t122.5 -35.5q59 0 167 17q-66 23 -107 72
t-41 106q0 100 84 167q92 74 254 74q280 0 280 -229zM613 1670q0 62 -62 62t-62 -62q0 -63 62 -63t62 63zM1104 -422h-250v486q-24 -38 -89 -69q-76 -37 -161 -37q-142 0 -228 74q-96 83 -96 241q0 114 74 188q78 80 210 80q70 0 121 -40q56 -43 56 -115q0 -46 -22 -78
q-25 -38 -71 -38q-90 0 -90 95q0 4 1.5 13.5t1.5 13.5q0 16 -17 16q-23 0 -39 -37q-13 -32 -13 -67q0 -134 154 -134q92 0 150 65t58 168v138h250v-963z" />
    <glyph glyph-name="uni19E6" unicode="&#x19e6;" horiz-adv-x="1270" 
d="M1090 1076q0 -156 -130 -237q-119 -76 -325 -76q-455 0 -455 303v106q0 91 75 138q61 39 148 39q248 0 248 -204q0 -104 -99 -104q-97 0 -97 87q0 39 35 56.5t35 29.5q0 48 -53 48q-42 0 -42 -47v-81q0 -94 52 -129q44 -30 153 -30q106 0 153 35q52 38 52 134v198
q0 173 -238 173q-166 0 -294 -95q-55 17 -90 55q-26 29 -38 72q32 38 32 89q0 24 -16 66t-16 73q0 28 32 49.5t75 21.5q53 0 90.5 -26t37.5 -68q0 -28 -15 -100q130 74 287 74q160 0 273 -74q130 -85 130 -236v-340zM1047 -422h-250v486q-24 -38 -89 -69q-76 -37 -161 -37
q-142 0 -228 74q-96 83 -96 241q0 114 74 188q78 80 210 80q70 0 121 -40q56 -43 56 -115q0 -46 -22 -78q-25 -38 -71 -38q-90 0 -90 95q0 4 1.5 13.5t1.5 13.5q0 16 -17 16q-23 0 -39 -37q-13 -32 -13 -67q0 -134 154 -134q92 0 150 65t58 168v138h250v-963z" />
    <glyph glyph-name="uni19E7" unicode="&#x19e7;" horiz-adv-x="1561" 
d="M1381 997q0 -114 -89 -176q-85 -58 -236 -58q-149 0 -234 60.5t-85 175.5v458l-45 48l-94 -85h-33l-90 85l-45 -48v-521q0 -46 42 -46q53 0 53 48q0 12 -35 29.5t-35 56.5q0 87 97 87q40 0 68 -28q31 -31 31 -83q0 -118 -81 -183q-69 -54 -167 -54q-87 0 -148 39
q-75 47 -75 138v620l211 166h41l149 -130l154 130h41l211 -166v-541q0 -74 69 -74q29 0 52 20.5t23 53.5v599q0 32 -51.5 58t-51.5 70q0 100 125 100q81 0 147 -44q81 -54 81 -151v-654zM1192 -422h-250v486q-24 -38 -89 -69q-76 -37 -161 -37q-142 0 -228 74
q-96 83 -96 241q0 114 74 188q78 80 210 80q70 0 121 -40q56 -43 56 -115q0 -46 -22 -78q-25 -38 -71 -38q-90 0 -90 95q0 4 1.5 13.5t1.5 13.5q0 16 -17 16q-23 0 -39 -37q-13 -32 -13 -67q0 -134 154 -134q92 0 150 65t58 168v138h250v-963z" />
    <glyph glyph-name="uni19E8" unicode="&#x19e8;" horiz-adv-x="1390" 
d="M1320 1746q0 -44 -55 -70t-55 -58v-125q0 -39 -28 -66.5t-68 -27.5h-154q-25 50 -129 50h-261q-140 0 -140 -116v-224q0 -68 16 -96q22 -38 83 -38h24l113 94h62l94 -94h22q116 0 116 134v104q0 47 -42 47q-53 0 -53 -38q0 -11 35 -28t35 -48q0 -77 -97 -77
q-99 0 -99 104q0 164 248 164h127q40 0 68 -28t28 -67v-253q0 -90 -91 -160q-85 -66 -173 -66h-134l-118 125l-120 -125h-108q-104 0 -189 58q-97 65 -97 166v442q0 104 89 171q81 61 183 61h300q142 0 208 -58v48q0 96 83 151q67 44 148 44q61 0 95 -28.5t34 -71.5z
M1107 -422h-250v486q-24 -38 -89 -69q-76 -37 -161 -37q-142 0 -228 74q-96 83 -96 241q0 114 74 188q78 80 210 80q70 0 121 -40q56 -43 56 -115q0 -46 -22 -78q-25 -38 -71 -38q-90 0 -90 95q0 4 1.5 13.5t1.5 13.5q0 16 -17 16q-23 0 -39 -37q-13 -32 -13 -67
q0 -134 154 -134q92 0 150 65t58 168v138h250v-963z" />
    <glyph glyph-name="uni19E9" unicode="&#x19e9;" horiz-adv-x="1272" 
d="M1202 1751q0 -53 -55 -91t-55 -62v-60q0 -39 -28 -66.5t-68 -27.5h-154q-49 70 -227 70q-185 0 -185 -98q0 -71 70 -71h32q69 0 69 -99q0 -93 -69 -93h-32q-70 0 -70 -78q0 -100 207 -100q109 0 153 30q52 35 52 129v87q0 47 -42 47q-43 0 -43 -48q0 -14 30 -36t30 -50
q0 -87 -77 -87q-89 0 -89 114q0 194 218 194q87 0 148 -39q75 -47 75 -138v-112q0 -303 -455 -303q-206 0 -326 73q-131 79 -131 229t146 191q-146 57 -146 205q0 134 134 206q111 59 270 59q169 0 258 -73q0 87 69 141q66 52 162 52q129 0 129 -95zM1048 -422h-250v486
q-24 -38 -89 -69q-76 -37 -161 -37q-142 0 -228 74q-96 83 -96 241q0 114 74 188q78 80 210 80q70 0 121 -40q56 -43 56 -115q0 -46 -22 -78q-25 -38 -71 -38q-90 0 -90 95q0 4 1.5 13.5t1.5 13.5q0 16 -17 16q-23 0 -39 -37q-13 -32 -13 -67q0 -134 154 -134q92 0 150 65
t58 168v138h250v-963z" />
    <glyph glyph-name="uni19EA" unicode="&#x19ea;" horiz-adv-x="2300" 
d="M1090 1073q0 -154 -146 -236q-130 -74 -337 -74q-182 0 -303 49q-124 50 -124 130q0 36 20 64q25 34 70 34q40 0 137 -32.5t205 -32.5q228 0 228 172v198q0 96 -52 134q-47 35 -153 35t-153 -35q-52 -38 -52 -134v-81q0 -47 42 -47q53 0 53 48q0 12 -35 29.5t-35 56.5
q0 87 97 87q99 0 99 -104q0 -204 -248 -204q-87 0 -148 39q-75 47 -75 138v106q0 156 130 238q119 75 325 75t325 -75q130 -82 130 -238v-340zM2120 1074q0 -155 -130 -237q-119 -74 -325 -74t-325 74q-130 82 -130 237v339q0 156 130 238q119 75 325 75t325 -75
q130 -82 130 -238v-339zM1870 1146v199q0 96 -52 134q-47 35 -153 35t-153 -35q-52 -38 -52 -134v-199q0 -96 52 -135q47 -36 153 -36t153 36q52 39 52 135zM1559 -422h-250v486q-24 -38 -89 -69q-76 -37 -161 -37q-142 0 -228 74q-96 83 -96 241q0 114 74 188q78 80 210 80
q70 0 121 -40q56 -43 56 -115q0 -46 -22 -78q-25 -38 -71 -38q-90 0 -90 95q0 4 1.5 13.5t1.5 13.5q0 16 -17 16q-23 0 -39 -37q-13 -32 -13 -67q0 -134 154 -134q92 0 150 65t58 168v138h250v-963z" />
    <glyph glyph-name="uni19EB" unicode="&#x19eb;" horiz-adv-x="2300" 
d="M1090 1073q0 -154 -146 -236q-130 -74 -337 -74q-182 0 -303 49q-124 50 -124 130q0 36 20 64q25 34 70 34q40 0 137 -32.5t205 -32.5q228 0 228 172v198q0 96 -52 134q-47 35 -153 35t-153 -35q-52 -38 -52 -134v-81q0 -47 42 -47q53 0 53 48q0 12 -35 29.5t-35 56.5
q0 87 97 87q99 0 99 -104q0 -204 -248 -204q-87 0 -148 39q-75 47 -75 138v106q0 156 130 238q119 75 325 75t325 -75q130 -82 130 -238v-340zM2120 1073q0 -154 -146 -236q-130 -74 -337 -74q-182 0 -303 49q-124 50 -124 130q0 36 20 64q25 34 70 34q40 0 137 -32.5
t205 -32.5q228 0 228 172v198q0 96 -52 134q-47 35 -153 35t-153 -35q-52 -38 -52 -134v-81q0 -47 42 -47q53 0 53 48q0 12 -35 29.5t-35 56.5q0 87 97 87q99 0 99 -104q0 -204 -248 -204q-87 0 -148 39q-75 47 -75 138v106q0 156 130 238q119 75 325 75t325 -75
q130 -82 130 -238v-340zM1559 -422h-250v486q-24 -38 -89 -69q-76 -37 -161 -37q-142 0 -228 74q-96 83 -96 241q0 114 74 188q78 80 210 80q70 0 121 -40q56 -43 56 -115q0 -46 -22 -78q-25 -38 -71 -38q-90 0 -90 95q0 4 1.5 13.5t1.5 13.5q0 16 -17 16q-23 0 -39 -37
q-13 -32 -13 -67q0 -134 154 -134q92 0 150 65t58 168v138h250v-963z" />
    <glyph glyph-name="uni19EC" unicode="&#x19ec;" horiz-adv-x="2544" 
d="M1090 1073q0 -154 -146 -236q-130 -74 -337 -74q-182 0 -303 49q-124 50 -124 130q0 36 20 64q25 34 70 34q40 0 137 -32.5t205 -32.5q228 0 228 172v198q0 96 -52 134q-47 35 -153 35t-153 -35q-52 -38 -52 -134v-81q0 -47 42 -47q53 0 53 48q0 12 -35 29.5t-35 56.5
q0 87 97 87q99 0 99 -104q0 -204 -248 -204q-87 0 -148 39q-75 47 -75 138v106q0 156 130 238q119 75 325 75t325 -75q130 -82 130 -238v-340zM2364 1005q0 -111 -71 -176.5t-191 -65.5q-68 0 -152.5 30t-156.5 30q-77 0 -176 -30t-155 -30q-109 0 -180.5 66.5t-71.5 162.5
v626q0 32 -51.5 58t-51.5 70q0 100 125 100q81 0 147 -44q81 -55 81 -151v-554q0 -122 96 -122q38 0 108.5 23t128.5 23t122.5 -23t88.5 -23q110 0 110 116v386l-55 48l-89 -65h-33l-85 65l-55 -48v-218q0 -47 42 -47q53 0 53 48q0 12 -35 29.5t-35 56.5q0 87 97 87
q79 0 79 -104q0 -204 -228 -204h-127q-40 0 -68 28t-28 67v340l221 166h41l144 -100l149 100h41l221 -166v-555zM1659 -422h-250v486q-24 -38 -89 -69q-76 -37 -161 -37q-142 0 -228 74q-96 83 -96 241q0 114 74 188q78 80 210 80q70 0 121 -40q56 -43 56 -115
q0 -46 -22 -78q-25 -38 -71 -38q-90 0 -90 95q0 4 1.5 13.5t1.5 13.5q0 16 -17 16q-23 0 -39 -37q-13 -32 -13 -67q0 -134 154 -134q92 0 150 65t58 168v138h250v-963z" />
    <glyph glyph-name="uni19ED" unicode="&#x19ed;" horiz-adv-x="2650" 
d="M1090 1073q0 -154 -146 -236q-130 -74 -337 -74q-182 0 -303 49q-124 50 -124 130q0 36 20 64q25 34 70 34q40 0 137 -32.5t205 -32.5q228 0 228 172v198q0 96 -52 134q-47 35 -153 35t-153 -35q-52 -38 -52 -134v-81q0 -47 42 -47q53 0 53 48q0 12 -35 29.5t-35 56.5
q0 87 97 87q99 0 99 -104q0 -204 -248 -204q-87 0 -148 39q-75 47 -75 138v106q0 156 130 238q119 75 325 75t325 -75q130 -82 130 -238v-340zM2470 763h-250v623q0 128 -128 128q-127 0 -127 -128v-623h-250v622q0 129 -127 129q-128 0 -128 -129v-490q0 -45 42 -45
q53 0 53 48q0 12 -35 29.5t-35 56.5q0 87 97 87q99 0 99 -104q0 -204 -248 -204q-87 0 -148 39q-75 47 -75 138v561q0 101 96 167q86 58 189 58h158q125 0 212 -55q78 55 169 55h124q122 0 209 -53q103 -63 103 -176v-734zM1739 -422h-250v486q-24 -38 -89 -69
q-76 -37 -161 -37q-142 0 -228 74q-96 83 -96 241q0 114 74 188q78 80 210 80q70 0 121 -40q56 -43 56 -115q0 -46 -22 -78q-25 -38 -71 -38q-90 0 -90 95q0 4 1.5 13.5t1.5 13.5q0 16 -17 16q-23 0 -39 -37q-13 -32 -13 -67q0 -134 154 -134q92 0 150 65t58 168v138h250
v-963z" />
    <glyph glyph-name="uni19EE" unicode="&#x19ee;" horiz-adv-x="2435" 
d="M1090 1073q0 -154 -146 -236q-130 -74 -337 -74q-182 0 -303 49q-124 50 -124 130q0 36 20 64q25 34 70 34q40 0 137 -32.5t205 -32.5q228 0 228 172v198q0 96 -52 134q-47 35 -153 35t-153 -35q-52 -38 -52 -134v-81q0 -47 42 -47q53 0 53 48q0 12 -35 29.5t-35 56.5
q0 87 97 87q99 0 99 -104q0 -204 -248 -204q-87 0 -148 39q-75 47 -75 138v106q0 156 130 238q119 75 325 75t325 -75q130 -82 130 -238v-340zM2255 1198q0 -148 -165 -148q-115 0 -115 89q0 74 67 74q6 0 20 -1.5t20 -1.5q17 0 17 19q0 53 -111 53q-141 0 -141 -105
q0 -202 356 -202q32 -30 32 -95q0 -84 -53 -125q-180 36 -232 36q-66 0 -189 -14t-182 -14q-154 0 -256 74q-113 82 -113 224v157q0 213 121 325q108 101 339 139l206 34q107 18 134 70q31 60 127 60q118 0 118 -116q0 -142 -284 -198l-317 -63q-194 -39 -194 -243v-97
q0 -83 35.5 -118.5t122.5 -35.5q59 0 167 17q-148 51 -148 194q0 102 84 172q93 79 254 79q133 0 206.5 -62t73.5 -177zM1619 -422h-250v486q-24 -38 -89 -69q-76 -37 -161 -37q-142 0 -228 74q-96 83 -96 241q0 114 74 188q78 80 210 80q70 0 121 -40q56 -43 56 -115
q0 -46 -22 -78q-25 -38 -71 -38q-90 0 -90 95q0 4 1.5 13.5t1.5 13.5q0 16 -17 16q-23 0 -39 -37q-13 -32 -13 -67q0 -134 154 -134q92 0 150 65t58 168v138h250v-963z" />
    <glyph glyph-name="uni19EF" unicode="&#x19ef;" horiz-adv-x="2435" 
d="M1090 1073q0 -154 -146 -236q-130 -74 -337 -74q-182 0 -303 49q-124 50 -124 130q0 36 20 64q25 34 70 34q40 0 137 -32.5t205 -32.5q228 0 228 172v198q0 96 -52 134q-47 35 -153 35t-153 -35q-52 -38 -52 -134v-81q0 -47 42 -47q53 0 53 48q0 12 -35 29.5t-35 56.5
q0 87 97 87q99 0 99 -104q0 -204 -248 -204q-87 0 -148 39q-75 47 -75 138v106q0 156 130 238q119 75 325 75t325 -75q130 -82 130 -238v-340zM2255 1182q0 -148 -165 -148q-115 0 -115 89q0 74 67 74q6 0 20 -1.5t20 -1.5q17 0 17 19q0 53 -111 53q-141 0 -141 -105
q0 -117 117 -159q77 -27 239 -27q32 -30 32 -95q0 -84 -53 -125q-180 36 -232 36q-66 0 -189 -14t-182 -14q-154 0 -256 74q-113 82 -113 224v107q0 280 231 391q-38 49 -38 109q0 74 52 126t126 52t126 -52t52 -126q0 -5 -1 -17q229 49 259 135q16 60 120 60
q118 0 118 -116q0 -89 -99 -159q-78 -54 -185 -79l-317 -73q-103 -24 -148.5 -80t-45.5 -163v-47q0 -83 35.5 -118.5t122.5 -35.5q59 0 167 17q-66 23 -107 72t-41 106q0 100 84 167q92 74 254 74q280 0 280 -229zM1643 1670q0 62 -62 62t-62 -62q0 -63 62 -63t62 63z
M1619 -422h-250v486q-24 -38 -89 -69q-76 -37 -161 -37q-142 0 -228 74q-96 83 -96 241q0 114 74 188q78 80 210 80q70 0 121 -40q56 -43 56 -115q0 -46 -22 -78q-25 -38 -71 -38q-90 0 -90 95q0 4 1.5 13.5t1.5 13.5q0 16 -17 16q-23 0 -39 -37q-13 -32 -13 -67
q0 -134 154 -134q92 0 150 65t58 168v138h250v-963z" />
    <glyph glyph-name="uni19F0" unicode="&#x19f0;" horiz-adv-x="1390" 
d="M1320 1746q0 -44 -55 -70t-55 -58v-125q0 -39 -28 -66.5t-68 -27.5h-154q-25 50 -129 50h-261q-140 0 -140 -116v-224q0 -68 16 -96q22 -38 83 -38h24l113 94h62l94 -94h22q116 0 116 134v104q0 47 -42 47q-53 0 -53 -38q0 -11 35 -28t35 -48q0 -77 -97 -77
q-99 0 -99 104q0 164 248 164h127q40 0 68 -28t28 -67v-253q0 -90 -91 -160q-85 -66 -173 -66h-134l-118 125l-120 -125h-108q-104 0 -189 58q-97 65 -97 166v442q0 104 89 171q81 61 183 61h300q142 0 208 -58v48q0 96 83 151q67 44 148 44q61 0 95 -28.5t34 -71.5z
M1320 561q0 -44 -55 -70t-55 -58v-125q0 -39 -28 -66.5t-68 -27.5h-154q-25 50 -129 50h-261q-140 0 -140 -116v-224q0 -68 16 -96q22 -38 83 -38h24l113 94h62l94 -94h22q116 0 116 134v104q0 47 -42 47q-53 0 -53 -38q0 -11 35 -28t35 -48q0 -77 -97 -77q-99 0 -99 104
q0 164 248 164h127q40 0 68 -28t28 -67v-253q0 -90 -91 -160q-85 -66 -173 -66h-134l-118 125l-120 -125h-108q-104 0 -189 58q-97 65 -97 166v442q0 104 89 171q81 61 183 61h300q142 0 208 -58v48q0 96 83 151q67 44 148 44q61 0 95 -28.5t34 -71.5z" />
    <glyph glyph-name="uni19F1" unicode="&#x19f1;" horiz-adv-x="1270" 
d="M1090 -112q0 -154 -146 -236q-130 -74 -337 -74q-182 0 -303 49q-124 50 -124 130q0 36 20 64q25 34 70 34q40 0 137 -32.5t205 -32.5q228 0 228 172v198q0 96 -52 134q-47 35 -153 35t-153 -35q-52 -38 -52 -134v-81q0 -47 42 -47q53 0 53 48q0 12 -35 29.5t-35 56.5
q0 87 97 87q99 0 99 -104q0 -204 -248 -204q-87 0 -148 39q-75 47 -75 138v106q0 156 130 238q119 75 325 75t325 -75q130 -82 130 -238v-340zM1047 763h-250v486q-24 -38 -89 -69q-76 -37 -161 -37q-142 0 -228 74q-96 83 -96 241q0 114 74 188q78 80 210 80q70 0 121 -40
q56 -43 56 -115q0 -46 -22 -78q-25 -38 -71 -38q-90 0 -90 95q0 4 1.5 13.5t1.5 13.5q0 16 -17 16q-23 0 -39 -37q-13 -32 -13 -67q0 -134 154 -134q92 0 150 65t58 168v138h250v-963z" />
    <glyph glyph-name="uni19F2" unicode="&#x19f2;" horiz-adv-x="1514" 
d="M1334 -180q0 -111 -71 -176.5t-191 -65.5q-68 0 -152.5 30t-156.5 30q-77 0 -176 -30t-155 -30q-109 0 -180.5 66.5t-71.5 162.5v626q0 32 -51.5 58t-51.5 70q0 100 125 100q81 0 147 -44q81 -55 81 -151v-554q0 -122 96 -122q38 0 108.5 23t128.5 23t122.5 -23t88.5 -23
q110 0 110 116v386l-55 48l-89 -65h-33l-85 65l-55 -48v-218q0 -47 42 -47q53 0 53 48q0 12 -35 29.5t-35 56.5q0 87 97 87q79 0 79 -104q0 -204 -228 -204h-127q-40 0 -68 28t-28 67v340l221 166h41l144 -100l149 100h41l221 -166v-555zM1169 763h-250v486q-24 -38 -89 -69
q-76 -37 -161 -37q-142 0 -228 74q-96 83 -96 241q0 114 74 188q78 80 210 80q70 0 121 -40q56 -43 56 -115q0 -46 -22 -78q-25 -38 -71 -38q-90 0 -90 95q0 4 1.5 13.5t1.5 13.5q0 16 -17 16q-23 0 -39 -37q-13 -32 -13 -67q0 -134 154 -134q92 0 150 65t58 168v138h250
v-963z" />
    <glyph glyph-name="uni19F3" unicode="&#x19f3;" horiz-adv-x="1620" 
d="M1440 -422h-250v623q0 128 -128 128q-127 0 -127 -128v-623h-250v622q0 129 -127 129q-128 0 -128 -129v-490q0 -45 42 -45q53 0 53 48q0 12 -35 29.5t-35 56.5q0 87 97 87q99 0 99 -104q0 -204 -248 -204q-87 0 -148 39q-75 47 -75 138v561q0 101 96 167q86 58 189 58
h158q125 0 212 -55q78 55 169 55h124q122 0 209 -53q103 -63 103 -176v-734zM1222 763h-250v486q-24 -38 -89 -69q-76 -37 -161 -37q-142 0 -228 74q-96 83 -96 241q0 114 74 188q78 80 210 80q70 0 121 -40q56 -43 56 -115q0 -46 -22 -78q-25 -38 -71 -38q-90 0 -90 95
q0 4 1.5 13.5t1.5 13.5q0 16 -17 16q-23 0 -39 -37q-13 -32 -13 -67q0 -134 154 -134q92 0 150 65t58 168v138h250v-963z" />
    <glyph glyph-name="uni19F4" unicode="&#x19f4;" horiz-adv-x="1405" 
d="M1225 13q0 -148 -165 -148q-115 0 -115 89q0 74 67 74q6 0 20 -1.5t20 -1.5q17 0 17 19q0 53 -111 53q-141 0 -141 -105q0 -202 356 -202q32 -30 32 -95q0 -84 -53 -125q-180 36 -232 36q-66 0 -189 -14t-182 -14q-154 0 -256 74q-113 82 -113 224v157q0 213 121 325
q108 101 339 139l206 34q107 18 134 70q31 60 127 60q118 0 118 -116q0 -142 -284 -198l-317 -63q-194 -39 -194 -243v-97q0 -83 35.5 -118.5t122.5 -35.5q59 0 167 17q-148 51 -148 194q0 102 84 172q93 79 254 79q133 0 206.5 -62t73.5 -177zM1114 763h-250v486
q-24 -38 -89 -69q-76 -37 -161 -37q-142 0 -228 74q-96 83 -96 241q0 114 74 188q78 80 210 80q70 0 121 -40q56 -43 56 -115q0 -46 -22 -78q-25 -38 -71 -38q-90 0 -90 95q0 4 1.5 13.5t1.5 13.5q0 16 -17 16q-23 0 -39 -37q-13 -32 -13 -67q0 -134 154 -134q92 0 150 65
t58 168v138h250v-963z" />
    <glyph glyph-name="uni19F5" unicode="&#x19f5;" horiz-adv-x="1405" 
d="M1225 -3q0 -148 -165 -148q-115 0 -115 89q0 74 67 74q6 0 20 -1.5t20 -1.5q17 0 17 19q0 53 -111 53q-141 0 -141 -105q0 -117 117 -159q77 -27 239 -27q32 -30 32 -95q0 -84 -53 -125q-180 36 -232 36q-66 0 -189 -14t-182 -14q-154 0 -256 74q-113 82 -113 224v107
q0 280 231 391q-38 49 -38 109q0 74 52 126t126 52t126 -52t52 -126q0 -5 -1 -17q229 49 259 135q16 60 120 60q118 0 118 -116q0 -89 -99 -159q-78 -54 -185 -79l-317 -73q-103 -24 -148.5 -80t-45.5 -163v-47q0 -83 35.5 -118.5t122.5 -35.5q59 0 167 17q-66 23 -107 72
t-41 106q0 100 84 167q92 74 254 74q280 0 280 -229zM613 485q0 62 -62 62t-62 -62q0 -63 62 -63t62 63zM1114 763h-250v486q-24 -38 -89 -69q-76 -37 -161 -37q-142 0 -228 74q-96 83 -96 241q0 114 74 188q78 80 210 80q70 0 121 -40q56 -43 56 -115q0 -46 -22 -78
q-25 -38 -71 -38q-90 0 -90 95q0 4 1.5 13.5t1.5 13.5q0 16 -17 16q-23 0 -39 -37q-13 -32 -13 -67q0 -134 154 -134q92 0 150 65t58 168v138h250v-963z" />
    <glyph glyph-name="uni19F6" unicode="&#x19f6;" horiz-adv-x="1270" 
d="M1090 -109q0 -156 -130 -237q-119 -76 -325 -76q-455 0 -455 303v106q0 91 75 138q61 39 148 39q248 0 248 -204q0 -104 -99 -104q-97 0 -97 87q0 39 35 56.5t35 29.5q0 48 -53 48q-42 0 -42 -47v-81q0 -94 52 -129q44 -30 153 -30q106 0 153 35q52 38 52 134v198
q0 173 -238 173q-166 0 -294 -95q-55 17 -90 55q-26 29 -38 72q32 38 32 89q0 24 -16 66t-16 73q0 28 32 49.5t75 21.5q53 0 90.5 -26t37.5 -68q0 -28 -15 -100q130 74 287 74q160 0 273 -74q130 -85 130 -236v-340zM1047 763h-250v486q-24 -38 -89 -69q-76 -37 -161 -37
q-142 0 -228 74q-96 83 -96 241q0 114 74 188q78 80 210 80q70 0 121 -40q56 -43 56 -115q0 -46 -22 -78q-25 -38 -71 -38q-90 0 -90 95q0 4 1.5 13.5t1.5 13.5q0 16 -17 16q-23 0 -39 -37q-13 -32 -13 -67q0 -134 154 -134q92 0 150 65t58 168v138h250v-963z" />
    <glyph glyph-name="uni19F7" unicode="&#x19f7;" horiz-adv-x="1561" 
d="M1381 -188q0 -114 -89 -176q-85 -58 -236 -58q-149 0 -234 60.5t-85 175.5v458l-45 48l-94 -85h-33l-90 85l-45 -48v-521q0 -46 42 -46q53 0 53 48q0 12 -35 29.5t-35 56.5q0 87 97 87q40 0 68 -28q31 -31 31 -83q0 -118 -81 -183q-69 -54 -167 -54q-87 0 -148 39
q-75 47 -75 138v620l211 166h41l149 -130l154 130h41l211 -166v-541q0 -74 69 -74q29 0 52 20.5t23 53.5v599q0 32 -51.5 58t-51.5 70q0 100 125 100q81 0 147 -44q81 -54 81 -151v-654zM1192 763h-250v486q-24 -38 -89 -69q-76 -37 -161 -37q-142 0 -228 74q-96 83 -96 241
q0 114 74 188q78 80 210 80q70 0 121 -40q56 -43 56 -115q0 -46 -22 -78q-25 -38 -71 -38q-90 0 -90 95q0 4 1.5 13.5t1.5 13.5q0 16 -17 16q-23 0 -39 -37q-13 -32 -13 -67q0 -134 154 -134q92 0 150 65t58 168v138h250v-963z" />
    <glyph glyph-name="uni19F8" unicode="&#x19f8;" horiz-adv-x="1390" 
d="M1320 561q0 -44 -55 -70t-55 -58v-125q0 -39 -28 -66.5t-68 -27.5h-154q-25 50 -129 50h-261q-140 0 -140 -116v-224q0 -68 16 -96q22 -38 83 -38h24l113 94h62l94 -94h22q116 0 116 134v104q0 47 -42 47q-53 0 -53 -38q0 -11 35 -28t35 -48q0 -77 -97 -77q-99 0 -99 104
q0 164 248 164h127q40 0 68 -28t28 -67v-253q0 -90 -91 -160q-85 -66 -173 -66h-134l-118 125l-120 -125h-108q-104 0 -189 58q-97 65 -97 166v442q0 104 89 171q81 61 183 61h300q142 0 208 -58v48q0 96 83 151q67 44 148 44q61 0 95 -28.5t34 -71.5zM1107 763h-250v486
q-24 -38 -89 -69q-76 -37 -161 -37q-142 0 -228 74q-96 83 -96 241q0 114 74 188q78 80 210 80q70 0 121 -40q56 -43 56 -115q0 -46 -22 -78q-25 -38 -71 -38q-90 0 -90 95q0 4 1.5 13.5t1.5 13.5q0 16 -17 16q-23 0 -39 -37q-13 -32 -13 -67q0 -134 154 -134q92 0 150 65
t58 168v138h250v-963z" />
    <glyph glyph-name="uni19F9" unicode="&#x19f9;" horiz-adv-x="1272" 
d="M1202 566q0 -53 -55 -91t-55 -62v-60q0 -39 -28 -66.5t-68 -27.5h-154q-49 70 -227 70q-185 0 -185 -98q0 -71 70 -71h32q69 0 69 -99q0 -93 -69 -93h-32q-70 0 -70 -78q0 -100 207 -100q109 0 153 30q52 35 52 129v87q0 47 -42 47q-43 0 -43 -48q0 -14 30 -36t30 -50
q0 -87 -77 -87q-89 0 -89 114q0 194 218 194q87 0 148 -39q75 -47 75 -138v-112q0 -303 -455 -303q-206 0 -326 73q-131 79 -131 229t146 191q-146 57 -146 205q0 134 134 206q111 59 270 59q169 0 258 -73q0 87 69 141q66 52 162 52q129 0 129 -95zM1048 763h-250v486
q-24 -38 -89 -69q-76 -37 -161 -37q-142 0 -228 74q-96 83 -96 241q0 114 74 188q78 80 210 80q70 0 121 -40q56 -43 56 -115q0 -46 -22 -78q-25 -38 -71 -38q-90 0 -90 95q0 4 1.5 13.5t1.5 13.5q0 16 -17 16q-23 0 -39 -37q-13 -32 -13 -67q0 -134 154 -134q92 0 150 65
t58 168v138h250v-963z" />
    <glyph glyph-name="uni19FA" unicode="&#x19fa;" horiz-adv-x="2300" 
d="M1559 763h-250v486q-24 -38 -89 -69q-76 -37 -161 -37q-142 0 -228 74q-96 83 -96 241q0 114 74 188q78 80 210 80q70 0 121 -40q56 -43 56 -115q0 -46 -22 -78q-25 -38 -71 -38q-90 0 -90 95q0 4 1.5 13.5t1.5 13.5q0 16 -17 16q-23 0 -39 -37q-13 -32 -13 -67
q0 -134 154 -134q92 0 150 65t58 168v138h250v-963zM1090 -112q0 -154 -146 -236q-130 -74 -337 -74q-182 0 -303 49q-124 50 -124 130q0 36 20 64q25 34 70 34q40 0 137 -32.5t205 -32.5q228 0 228 172v198q0 96 -52 134q-47 35 -153 35t-153 -35q-52 -38 -52 -134v-81
q0 -47 42 -47q53 0 53 48q0 12 -35 29.5t-35 56.5q0 87 97 87q99 0 99 -104q0 -204 -248 -204q-87 0 -148 39q-75 47 -75 138v106q0 156 130 238q119 75 325 75t325 -75q130 -82 130 -238v-340zM2120 -111q0 -155 -130 -237q-119 -74 -325 -74t-325 74q-130 82 -130 237v339
q0 156 130 238q119 75 325 75t325 -75q130 -82 130 -238v-339zM1870 -39v199q0 96 -52 134q-47 35 -153 35t-153 -35q-52 -38 -52 -134v-199q0 -96 52 -135q47 -36 153 -36t153 36q52 39 52 135z" />
    <glyph glyph-name="uni19FB" unicode="&#x19fb;" horiz-adv-x="2300" 
d="M1559 763h-250v486q-24 -38 -89 -69q-76 -37 -161 -37q-142 0 -228 74q-96 83 -96 241q0 114 74 188q78 80 210 80q70 0 121 -40q56 -43 56 -115q0 -46 -22 -78q-25 -38 -71 -38q-90 0 -90 95q0 4 1.5 13.5t1.5 13.5q0 16 -17 16q-23 0 -39 -37q-13 -32 -13 -67
q0 -134 154 -134q92 0 150 65t58 168v138h250v-963zM1090 -112q0 -154 -146 -236q-130 -74 -337 -74q-182 0 -303 49q-124 50 -124 130q0 36 20 64q25 34 70 34q40 0 137 -32.5t205 -32.5q228 0 228 172v198q0 96 -52 134q-47 35 -153 35t-153 -35q-52 -38 -52 -134v-81
q0 -47 42 -47q53 0 53 48q0 12 -35 29.5t-35 56.5q0 87 97 87q99 0 99 -104q0 -204 -248 -204q-87 0 -148 39q-75 47 -75 138v106q0 156 130 238q119 75 325 75t325 -75q130 -82 130 -238v-340zM2120 -112q0 -154 -146 -236q-130 -74 -337 -74q-182 0 -303 49
q-124 50 -124 130q0 36 20 64q25 34 70 34q40 0 137 -32.5t205 -32.5q228 0 228 172v198q0 96 -52 134q-47 35 -153 35t-153 -35q-52 -38 -52 -134v-81q0 -47 42 -47q53 0 53 48q0 12 -35 29.5t-35 56.5q0 87 97 87q99 0 99 -104q0 -204 -248 -204q-87 0 -148 39
q-75 47 -75 138v106q0 156 130 238q119 75 325 75t325 -75q130 -82 130 -238v-340z" />
    <glyph glyph-name="uni19FC" unicode="&#x19fc;" horiz-adv-x="2544" 
d="M1684 763h-250v486q-24 -38 -89 -69q-76 -37 -161 -37q-142 0 -228 74q-96 83 -96 241q0 114 74 188q78 80 210 80q70 0 121 -40q56 -43 56 -115q0 -46 -22 -78q-25 -38 -71 -38q-90 0 -90 95q0 4 1.5 13.5t1.5 13.5q0 16 -17 16q-23 0 -39 -37q-13 -32 -13 -67
q0 -134 154 -134q92 0 150 65t58 168v138h250v-963zM1090 -112q0 -154 -146 -236q-130 -74 -337 -74q-182 0 -303 49q-124 50 -124 130q0 36 20 64q25 34 70 34q40 0 137 -32.5t205 -32.5q228 0 228 172v198q0 96 -52 134q-47 35 -153 35t-153 -35q-52 -38 -52 -134v-81
q0 -47 42 -47q53 0 53 48q0 12 -35 29.5t-35 56.5q0 87 97 87q99 0 99 -104q0 -204 -248 -204q-87 0 -148 39q-75 47 -75 138v106q0 156 130 238q119 75 325 75t325 -75q130 -82 130 -238v-340zM2364 -180q0 -111 -71 -176.5t-191 -65.5q-68 0 -152.5 30t-156.5 30
q-77 0 -176 -30t-155 -30q-109 0 -180.5 66.5t-71.5 162.5v626q0 32 -51.5 58t-51.5 70q0 100 125 100q81 0 147 -44q81 -55 81 -151v-554q0 -122 96 -122q38 0 108.5 23t128.5 23t122.5 -23t88.5 -23q110 0 110 116v386l-55 48l-89 -65h-33l-85 65l-55 -48v-218
q0 -47 42 -47q53 0 53 48q0 12 -35 29.5t-35 56.5q0 87 97 87q79 0 79 -104q0 -204 -228 -204h-127q-40 0 -68 28t-28 67v340l221 166h41l144 -100l149 100h41l221 -166v-555z" />
    <glyph glyph-name="uni19FD" unicode="&#x19fd;" horiz-adv-x="2650" 
d="M1737 763h-250v486q-24 -38 -89 -69q-76 -37 -161 -37q-142 0 -228 74q-96 83 -96 241q0 114 74 188q78 80 210 80q70 0 121 -40q56 -43 56 -115q0 -46 -22 -78q-25 -38 -71 -38q-90 0 -90 95q0 4 1.5 13.5t1.5 13.5q0 16 -17 16q-23 0 -39 -37q-13 -32 -13 -67
q0 -134 154 -134q92 0 150 65t58 168v138h250v-963zM1090 -112q0 -154 -146 -236q-130 -74 -337 -74q-182 0 -303 49q-124 50 -124 130q0 36 20 64q25 34 70 34q40 0 137 -32.5t205 -32.5q228 0 228 172v198q0 96 -52 134q-47 35 -153 35t-153 -35q-52 -38 -52 -134v-81
q0 -47 42 -47q53 0 53 48q0 12 -35 29.5t-35 56.5q0 87 97 87q99 0 99 -104q0 -204 -248 -204q-87 0 -148 39q-75 47 -75 138v106q0 156 130 238q119 75 325 75t325 -75q130 -82 130 -238v-340zM2470 -422h-250v623q0 128 -128 128q-127 0 -127 -128v-623h-250v622
q0 129 -127 129q-128 0 -128 -129v-490q0 -45 42 -45q53 0 53 48q0 12 -35 29.5t-35 56.5q0 87 97 87q99 0 99 -104q0 -204 -248 -204q-87 0 -148 39q-75 47 -75 138v561q0 101 96 167q86 58 189 58h158q125 0 212 -55q78 55 169 55h124q122 0 209 -53q103 -63 103 -176
v-734z" />
    <glyph glyph-name="uni19FE" unicode="&#x19fe;" horiz-adv-x="2435" 
d="M1629 763h-250v486q-24 -38 -89 -69q-76 -37 -161 -37q-142 0 -228 74q-96 83 -96 241q0 114 74 188q78 80 210 80q70 0 121 -40q56 -43 56 -115q0 -46 -22 -78q-25 -38 -71 -38q-90 0 -90 95q0 4 1.5 13.5t1.5 13.5q0 16 -17 16q-23 0 -39 -37q-13 -32 -13 -67
q0 -134 154 -134q92 0 150 65t58 168v138h250v-963zM1090 -112q0 -154 -146 -236q-130 -74 -337 -74q-182 0 -303 49q-124 50 -124 130q0 36 20 64q25 34 70 34q40 0 137 -32.5t205 -32.5q228 0 228 172v198q0 96 -52 134q-47 35 -153 35t-153 -35q-52 -38 -52 -134v-81
q0 -47 42 -47q53 0 53 48q0 12 -35 29.5t-35 56.5q0 87 97 87q99 0 99 -104q0 -204 -248 -204q-87 0 -148 39q-75 47 -75 138v106q0 156 130 238q119 75 325 75t325 -75q130 -82 130 -238v-340zM2255 13q0 -148 -165 -148q-115 0 -115 89q0 74 67 74q6 0 20 -1.5t20 -1.5
q17 0 17 19q0 53 -111 53q-141 0 -141 -105q0 -202 356 -202q32 -30 32 -95q0 -84 -53 -125q-180 36 -232 36q-66 0 -189 -14t-182 -14q-154 0 -256 74q-113 82 -113 224v157q0 213 121 325q108 101 339 139l206 34q107 18 134 70q31 60 127 60q118 0 118 -116
q0 -142 -284 -198l-317 -63q-194 -39 -194 -243v-97q0 -83 35.5 -118.5t122.5 -35.5q59 0 167 17q-148 51 -148 194q0 102 84 172q93 79 254 79q133 0 206.5 -62t73.5 -177z" />
    <glyph glyph-name="uni19FF" unicode="&#x19ff;" horiz-adv-x="2435" 
d="M1629 763h-250v486q-24 -38 -89 -69q-76 -37 -161 -37q-142 0 -228 74q-96 83 -96 241q0 114 74 188q78 80 210 80q70 0 121 -40q56 -43 56 -115q0 -46 -22 -78q-25 -38 -71 -38q-90 0 -90 95q0 4 1.5 13.5t1.5 13.5q0 16 -17 16q-23 0 -39 -37q-13 -32 -13 -67
q0 -134 154 -134q92 0 150 65t58 168v138h250v-963zM1090 -112q0 -154 -146 -236q-130 -74 -337 -74q-182 0 -303 49q-124 50 -124 130q0 36 20 64q25 34 70 34q40 0 137 -32.5t205 -32.5q228 0 228 172v198q0 96 -52 134q-47 35 -153 35t-153 -35q-52 -38 -52 -134v-81
q0 -47 42 -47q53 0 53 48q0 12 -35 29.5t-35 56.5q0 87 97 87q99 0 99 -104q0 -204 -248 -204q-87 0 -148 39q-75 47 -75 138v106q0 156 130 238q119 75 325 75t325 -75q130 -82 130 -238v-340zM2255 -3q0 -148 -165 -148q-115 0 -115 89q0 74 67 74q6 0 20 -1.5t20 -1.5
q17 0 17 19q0 53 -111 53q-141 0 -141 -105q0 -117 117 -159q77 -27 239 -27q32 -30 32 -95q0 -84 -53 -125q-180 36 -232 36q-66 0 -189 -14t-182 -14q-154 0 -256 74q-113 82 -113 224v107q0 280 231 391q-38 49 -38 109q0 74 52 126t126 52t126 -52t52 -126q0 -5 -1 -17
q229 49 259 135q16 60 120 60q118 0 118 -116q0 -89 -99 -159q-78 -54 -185 -79l-317 -73q-103 -24 -148.5 -80t-45.5 -163v-47q0 -83 35.5 -118.5t122.5 -35.5q59 0 167 17q-66 23 -107 72t-41 106q0 100 84 167q92 74 254 74q280 0 280 -229zM1643 485q0 62 -62 62
t-62 -62q0 -63 62 -63t62 63z" />
    <glyph glyph-name="uni200A" unicode="&#x200a;" horiz-adv-x="256" 
 />
    <glyph glyph-name="uni200B" unicode="&#x200b;" 
 />
    <glyph glyph-name="uni200C" unicode="&#x200c;" horiz-adv-x="66" 
d="M0 253v1341h66v-1341h-66z" />
    <glyph glyph-name="uni200D" unicode="&#x200d;" horiz-adv-x="63" 
d="M189 1481l-126 126v-1354h-63v1351l-123 -123l-42 45l156 156l-156 156l42 45l156 -156l156 156l45 -45l-159 -156l159 -156z" />
    <glyph glyph-name="endash" unicode="&#x2013;" horiz-adv-x="1024" 
d="M1024 436h-1024v221h1024v-221z" />
    <glyph glyph-name="emdash" unicode="&#x2014;" horiz-adv-x="2048" 
d="M2048 436h-2048v221h2048v-221z" />
    <glyph glyph-name="quoteleft" unicode="&#x2018;" horiz-adv-x="594" 
d="M481 1468l-110 -444h-275l189 444h196z" />
    <glyph glyph-name="quoteright" unicode="&#x2019;" horiz-adv-x="594" 
d="M500 1468l-193 -444h-194l114 444h273z" />
    <glyph glyph-name="quotesinglbase" unicode="&#x201a;" horiz-adv-x="594" 
d="M477 219l-192 -444h-195l115 444h272z" />
    <glyph glyph-name="quotedblleft" unicode="&#x201c;" horiz-adv-x="1010" 
d="M897 1468l-113 -444h-272l190 444h195zM481 1468l-110 -444h-275l189 444h196z" />
    <glyph glyph-name="quotedblright" unicode="&#x201d;" horiz-adv-x="1010" 
d="M915 1468l-190 -444h-197l113 444h274zM500 1468l-193 -444h-194l114 444h273z" />
    <glyph glyph-name="quotedblbase" unicode="&#x201e;" horiz-adv-x="1010" 
d="M893 219l-193 -444h-194l112 444h275zM477 219l-192 -444h-195l115 444h272z" />
    <glyph glyph-name="dagger" unicode="&#x2020;" horiz-adv-x="832" 
d="M798 868l-273 30l-45 -696h-129l-45 696l-273 -30v226l293 -30l-30 370h239l-30 -370l293 30v-226z" />
    <glyph glyph-name="daggerdbl" unicode="&#x2021;" horiz-adv-x="832" 
d="M798 482l-298 30l35 -310h-239l35 310l-298 -30v226l268 -30l33 140l-33 140l-268 -30v226l298 -30l-35 310h239l-35 -310l298 30v-226l-268 30l-33 -140l33 -140l268 30v-226z" />
    <glyph glyph-name="bullet" unicode="&#x2022;" horiz-adv-x="865" 
d="M434 281q-113 0 -193.5 81t-80.5 195t80 194t194 80t195.5 -80.5t81.5 -193.5t-81.5 -194.5t-195.5 -81.5z" />
    <glyph glyph-name="ellipsis" unicode="&#x2026;" horiz-adv-x="1868" 
d="M1554 -23q-78 0 -130 48t-52 118q0 72 52.5 118t131.5 46q81 0 133 -46.5t52 -117.5q0 -73 -51.5 -119.5t-135.5 -46.5zM932 -23q-78 0 -129 48t-51 118q0 72 51.5 118t130.5 46q81 0 132.5 -46.5t51.5 -117.5q0 -73 -51.5 -119.5t-134.5 -46.5zM309 -23q-78 0 -129 48
t-51 118q0 72 51.5 118t130.5 46q81 0 133 -46.5t52 -117.5q0 -73 -51.5 -119.5t-135.5 -46.5z" />
    <glyph glyph-name="perthousand" unicode="&#x2030;" horiz-adv-x="2573" 
d="M430 707q-153 0 -246.5 97t-93.5 261q0 179 99.5 284t265.5 105q159 0 248.5 -95t89.5 -267q0 -177 -99 -281t-264 -104zM449 1278q-146 0 -146 -203q0 -192 139 -192q142 0 142 200q0 195 -135 195zM1477 1434l-934 -1434h-244l934 1434h244zM2118 -20q-153 0 -246.5 97
t-93.5 261q0 179 99.5 284t264.5 105q161 0 250.5 -94t89.5 -266q0 -177 -99.5 -282t-264.5 -105zM2136 551q-145 0 -145 -203q0 -192 139 -192q143 0 143 200q0 93 -38 144t-99 51zM1323 -20q-153 0 -246.5 97t-93.5 261q0 179 99.5 284t265.5 105q160 0 249 -94t89 -266
q0 -177 -99 -282t-264 -105zM1339 551q-145 0 -145 -203q0 -192 141 -192q142 0 142 200q0 93 -38 144t-100 51z" />
    <glyph glyph-name="guilsinglleft" unicode="&#x2039;" horiz-adv-x="705" 
d="M651 201h-268l-330 336l330 344h268l-334 -344z" />
    <glyph glyph-name="guilsinglright" unicode="&#x203a;" horiz-adv-x="705" 
d="M651 537l-329 -336h-269l334 336l-332 344h267z" />
    <glyph glyph-name="fraction" unicode="&#x2044;" horiz-adv-x="719" 
d="M932 1434l-891 -1434h-244l891 1434h244z" />
    <glyph glyph-name="fraction" unicode="&#x2215;" horiz-adv-x="719" 
d="M932 1434l-891 -1434h-244l891 1434h244z" />
    <glyph glyph-name="Euro" unicode="&#x20ac;" horiz-adv-x="1178" 
d="M1094 45q-118 -72 -308 -72q-225 0 -367 124.5t-188 355.5h-122v190h96q-2 25 -2 59q0 18 4 82h-98v187h127q55 231 208 359t381 128q167 0 269 -55v-260q-112 88 -254 88q-110 0 -193.5 -71t-118.5 -189h426v-187h-456q-4 -59 -4 -82q0 -27 2 -59h458v-190h-428
q75 -252 299 -252q141 0 269 90v-246z" />
    <glyph glyph-name="trademark" unicode="&#x2122;" horiz-adv-x="1579" 
d="M1395 772h-150v445h-4l-160 -445h-135l-145 445h-6v-445h-148v662h217l156 -453h4l168 453h203v-662zM582 1311h-179v-539h-155v539h-172v123h506v-123z" />
    <glyph glyph-name="uni2236" unicode="&#x2236;" horiz-adv-x="555" 
d="M274 907q-78 0 -130 47.5t-52 117.5q0 72 53.5 118t133.5 46q81 0 132.5 -46.5t51.5 -117.5q0 -73 -52.5 -119t-136.5 -46zM274 175q-78 0 -130 48t-52 118q0 72 53.5 118t133.5 46q81 0 132.5 -46.5t51.5 -117.5q0 -73 -52.5 -119.5t-136.5 -46.5z" />
    <glyph glyph-name="uni25CC" unicode="&#x25cc;" horiz-adv-x="1273" 
d="M673 328q0 22 16 38t38 16q23 0 39.5 -16t16.5 -38q0 -23 -16.5 -38.5t-39.5 -15.5q-22 0 -38 15.5t-16 38.5zM678 1319q0 23 15 39.5t37 16.5q24 0 39 -16.5t15 -39.5q0 -22 -15 -37t-39 -15q-22 0 -37 15t-15 37zM594 310q-23 0 -38.5 15t-15.5 37q0 23 15.5 39.5
t38.5 16.5q22 0 38 -16.5t16 -39.5q0 -22 -16 -37t-38 -15zM481 391q-22 0 -38 15t-16 37q0 23 16 38.5t38 15.5q23 0 38.5 -15.5t15.5 -38.5q0 -22 -15.5 -37t-38.5 -15zM403 509q-22 0 -37 16t-15 38q0 23 15 38.5t37 15.5q23 0 39.5 -15.5t16.5 -38.5q0 -22 -16.5 -38
t-39.5 -16zM363 638q-24 0 -39 16t-15 38q0 23 15 38.5t39 15.5q22 0 37 -15.5t15 -38.5q0 -22 -15 -38t-37 -16zM337 770q-24 0 -40 15t-16 38q0 22 16 38.5t40 16.5q23 0 37.5 -16.5t14.5 -38.5q0 -23 -14.5 -38t-37.5 -15zM363 899q-24 0 -39 15t-15 38q0 22 15 38.5
t39 16.5q22 0 37 -16.5t15 -38.5q0 -23 -15 -38t-37 -15zM408 1028q-23 0 -39.5 15t-16.5 38q0 24 16.5 39.5t39.5 15.5q22 0 37 -15.5t15 -39.5q0 -23 -15 -38t-37 -15zM480 1147q-23 0 -38.5 15.5t-15.5 38.5q0 22 15.5 38.5t38.5 16.5q22 0 38 -16.5t16 -38.5
q0 -23 -16 -38.5t-38 -15.5zM592 1234q-22 0 -38.5 15t-16.5 37q0 23 16.5 38.5t38.5 15.5q23 0 38 -15.5t15 -38.5q0 -22 -15 -37t-38 -15zM807 362q0 23 15 39.5t37 16.5q23 0 38.5 -16.5t15.5 -39.5q0 -22 -15.5 -37t-38.5 -15q-22 0 -37 15t-15 37zM919 443
q0 23 15 38.5t38 15.5q22 0 38 -15.5t16 -38.5q0 -22 -16 -37t-38 -15q-23 0 -38 15t-15 37zM996 563q0 23 15 38.5t39 15.5q22 0 38 -15.5t16 -38.5q0 -22 -16 -38t-38 -16q-24 0 -39 16t-15 38zM1038 692q0 23 15.5 38.5t38.5 15.5q22 0 38 -15.5t16 -38.5q0 -22 -16 -38
t-38 -16q-23 0 -38.5 16t-15.5 38zM1047 823q0 22 15.5 38.5t38.5 16.5q22 0 38.5 -16.5t16.5 -38.5q0 -23 -16.5 -38t-38.5 -15q-23 0 -38.5 15t-15.5 38zM1038 952q0 22 15.5 38.5t38.5 16.5q22 0 38 -16.5t16 -38.5q0 -23 -16 -38t-38 -15q-23 0 -38.5 15t-15.5 38z
M993 1081q0 24 15.5 39.5t38.5 15.5q22 0 38 -15.5t16 -39.5q0 -23 -16 -38t-38 -15q-23 0 -38.5 15t-15.5 38zM919 1201q0 22 16 37t38 15q23 0 39.5 -15t16.5 -37q0 -23 -16.5 -38.5t-39.5 -15.5q-22 0 -38 15.5t-16 38.5zM810 1286q0 23 15 38.5t37 15.5q23 0 38.5 -15.5
t15.5 -38.5q0 -22 -15.5 -37t-38.5 -15q-22 0 -37 15t-15 37z" />
    <glyph glyph-name="glyph138" horiz-adv-x="828" 
d="M690 436h-547v221h547v-221z" />
    <glyph glyph-name="glyph154" horiz-adv-x="565" 
 />
    <glyph glyph-name="glyph217" horiz-adv-x="807" 
d="M721 584h-563v172h176v477l-191 -41v180l406 82v-698h172v-172z" />
    <glyph glyph-name="glyph218" horiz-adv-x="828" 
d="M721 584h-604v157l248 234q77 73 95.5 110t18.5 82q0 42 -28.5 69.5t-75.5 27.5q-98 0 -211 -103v215q118 78 250 78q136 0 215.5 -68.5t79.5 -189.5q0 -70 -37.5 -141t-179.5 -197l-105 -92v-4h334v-178z" />
    <glyph glyph-name="glyph219" horiz-adv-x="828" 
d="M131 616v181q107 -68 221 -68q150 0 150 102q0 103 -172 103h-117v166h113q149 0 149 96q0 90 -119 90q-107 0 -198 -65v176q99 57 239 57q134 0 211.5 -60.5t77.5 -160.5q0 -147 -143 -195v-4q172 -41 172 -198q0 -123 -98 -198t-257 -75q-133 0 -229 53z" />
    <glyph glyph-name="glyph224" horiz-adv-x="856" 
d="M786 760h-110v-176h-213v176h-395v141l350 533h258v-519h110v-155zM467 1262h-8q-14 -36 -39 -76l-168 -271h211v263q0 47 4 84z" />
    <glyph glyph-name="uni17D2_uni1780.blwf" 
d="M-983 -19v-402h-114v417q0 35 6 53.5t18 30t29.5 18t44.5 6.5h723q28 0 45.5 -6.5t28.5 -17t16.5 -24t5.5 -33.5v-444h-114v402q0 26 -32 26h-623q-34 0 -34 -26z" />
    <glyph glyph-name="glyph235" 
d="M-743 -19v-402h-114v417q0 33 6 52.5t17.5 29.5t29.5 18t45 8h483q28 0 45.5 -8t28 -17t16.5 -22.5t6 -33.5v-444h-114v402q0 26 -32 26h-383q-34 0 -34 -26z" />
    <glyph glyph-name="uni1780_uni17B6.clig" horiz-adv-x="2353" 
d="M2173 253h-250v792l-522 151l-276 -151h-96l-614 151l-109 -63v-29l297 -118h622q108 0 188 -47q96 -55 96 -155v-531h-250v395q0 65 -56 98q-46 28 -114 28h-500q-63 0 -108 -32q-51 -36 -51 -96v-393h-250v534q0 122 106 167l-213 76v141l400 243h69l610 -164l289 164
h51l681 -210v-951z" />
    <glyph glyph-name="uni1780_uni17C5.pstf.clig" horiz-adv-x="2353" 
d="M2206 1463q0 -115 -33 -297v-913h-250v792l-522 151l-276 -151h-96l-614 151l-109 -63v-29l297 -118h622q108 0 188 -47q96 -55 96 -155v-531h-250v395q0 65 -56 98q-46 28 -114 28h-500q-63 0 -108 -32q-51 -36 -51 -96v-393h-250v534q0 122 106 167l-213 76v141
l400 243h69l610 -164l289 164h51l551 -170q36 65 36 160q0 118 -52 118q-8 0 -26.5 -2t-30.5 -2q-32 0 -54.5 26.5t-22.5 62.5q0 51 30 89q35 43 94 43q89 0 141 -84q48 -77 48 -192z" />
    <glyph glyph-name="uni17D2_uni1781.blwf" 
d="M-180 -328q0 -31 -30.5 -51.5t-74 -31t-89.5 -14t-74 -3.5h-384q-41 0 -86.5 7.5t-85.5 20t-65.5 27.5t-25.5 30v84q0 35 76 61.5t244 42.5l323 34q95 12 123 30t28 35v45q0 10 -21 17t-49.5 11.5t-55.5 6t-39 1.5h-350q-55 0 -86.5 -2.5t-47.5 -7t-19.5 -12.5t-3.5 -19
v-52q0 -11 9 -14.5t30 -3.5q16 0 29.5 3.5t13.5 10.5q0 5 -13.5 8t-26 10t-12.5 19q0 18 19.5 27.5t52.5 9.5q34 0 56 -10.5t22 -29.5q0 -17 -19.5 -33.5t-49 -30.5t-66 -24t-69.5 -10h-30q-23 0 -45.5 10t-22.5 25v103q0 23 25.5 41.5t64.5 32t85 20.5t85 7h384
q28 0 74.5 -4.5t90 -16t75 -31t31.5 -50.5v-71q0 -30 -29 -48t-81 -30.5t-135 -24t-181 -21.5l-257 -28q-59 -7 -84 -19.5t-25 -41.5q0 -24 8.5 -35t26.5 -15.5t44 -7.5t77 -3h350q63 0 92.5 1.5t51 8t21.5 31.5v64l16 15h105v-104z" />
    <glyph glyph-name="glyph240" 
d="M-180 -328q0 -31 -31 -51.5t-74.5 -31t-89 -14t-74.5 -3.5h-144q-40 0 -86 7.5t-85.5 20t-65 27.5t-25.5 30v84q0 29 34.5 44.5t162.5 45.5l288 69q37 9 52.5 21t15.5 23v45q0 10 -21 17t-49.5 11.5t-55.5 6t-39 1.5h-109q-56 0 -87.5 -2.5t-47 -7t-19.5 -12.5t-4 -19
v-49q0 -15 14.5 -18t24.5 -3q17 0 30.5 5t13.5 11q0 3 -10.5 6t-22.5 5.5t-22.5 8t-10.5 16.5q0 12 22 24.5t57 12.5q36 0 60 -9.5t24 -28.5q0 -15 -19.5 -33t-48.5 -33t-66 -25t-70 -10h-30q-22 0 -44.5 10t-22.5 25v103q0 23 25.5 41.5t64.5 32t84.5 20.5t84.5 7h144
q29 0 75.5 -4.5t90 -16t75 -31t31.5 -50.5v-71q0 -22 -13.5 -35t-73.5 -32l-371 -88q-61 -14 -77.5 -25.5t-16.5 -33.5q0 -24 8 -35.5t26 -16t44 -6.5t78 -2h109q15 0 39 0.5t49 2t51 7.5t26 21v74l17 15h105v-104z" />
    <glyph glyph-name="uni1781_uni17B6.clig" horiz-adv-x="2350" 
d="M2170 253h-250v807l-302 136l-126 -49v-138q0 -185 -289 -253l-662 -155q-111 -26 -111 -63v-24q0 -49 81 -49h623q108 0 108 91v77l46 27h160l44 -27v-170q0 -108 -97 -164q-80 -46 -198 -46h-728q-107 0 -189 43q-100 52 -100 147v103q0 155 311 229l678 161
q73 17 73 88v69q0 78 -110 78h-615q-87 0 -87 -68v-146q0 -37 42 -37q53 0 53 43q0 12 -28 27q-42 15 -42 54q0 87 97 87q99 0 99 -104q0 -194 -248 -194h-127q-40 0 -68 28t-28 67v248q0 91 99 152q88 54 187 54h728q129 0 216 -63l248 95h51l461 -210v-951z" />
    <glyph glyph-name="uni1781_uni17C5.pstf.clig" horiz-adv-x="2350" 
d="M2203 1463q0 -115 -33 -297v-913h-250v807l-302 136l-126 -49v-138q0 -185 -289 -253l-662 -155q-111 -26 -111 -63v-24q0 -49 81 -49h623q108 0 108 91v77l46 27h160l44 -27v-170q0 -108 -97 -164q-80 -46 -198 -46h-728q-107 0 -189 43q-100 52 -100 147v103
q0 155 311 229l678 161q73 17 73 88v69q0 78 -110 78h-615q-87 0 -87 -68v-146q0 -37 42 -37q53 0 53 43q0 12 -32 27q-38 15 -38 54q0 87 97 87q99 0 99 -104q0 -194 -248 -194h-127q-40 0 -68 28t-28 67v248q0 91 99 152q88 54 187 54h728q129 0 216 -63l248 95h51
l339 -154q28 65 28 144q0 118 -52 118q-8 0 -26.5 -2t-30.5 -2q-32 0 -54.5 26.5t-22.5 62.5q0 51 30 89q35 43 94 43q89 0 141 -84q48 -77 48 -192z" />
    <glyph glyph-name="uni17D2_uni1782.blwf" 
d="M-1097 -4q0 33 6 52.5t17.5 29.5t29.5 18t45 8h723q28 0 45.5 -8t28 -17t16.5 -22.5t6 -33.5v-444h-114v402q0 26 -42 26h-603q-44 0 -44 -26v-235q47 55 74 86.5t44.5 45t33.5 19t34 5.5q24 0 36 -16t12 -43q0 -20 -7.5 -31t-18.5 -11q-8 0 -17.5 2.5t-19.5 2.5
t-17.5 -1t-19 -6t-29.5 -20t-48 -45q-45 -48 -57 -72v-83h-114v417z" />
    <glyph glyph-name="glyph245" 
d="M-857 -4q0 33 6 52.5t17.5 29.5t29.5 18t45 8h483q28 0 45.5 -8t28 -17t16.5 -22.5t6 -33.5v-444h-114v402q0 26 -42 26h-363q-44 0 -44 -26v-235q47 55 74 86.5t44 45t32.5 19t35.5 5.5q22 0 35 -16t13 -44q0 -19 -10.5 -30t-24.5 -11q-7 0 -14.5 1.5t-17.5 1.5
q-12 0 -28 -5t-34 -20t-48 -45q-44 -49 -57 -72v-83h-114v417z" />
    <glyph glyph-name="uni1782_uni17B6.clig" horiz-adv-x="2353" 
d="M2173 253h-250v792l-522 151l-276 -151h-96l-614 151l-109 -63v-29l297 -118h622q108 0 188 -47q96 -55 96 -155v-531h-250v395q0 65 -56 98q-46 28 -114 28h-500q-63 0 -108 -32q-51 -36 -51 -96v-184q27 55 68 104q82 99 154 99q83 0 83 -94q0 -81 -57 -81
q-7 0 -24.5 4t-29.5 4q-67 0 -130.5 -71.5t-63.5 -150.5v-23h-250v534q0 122 106 167l-213 76v141l400 243h69l610 -164l289 164h51l681 -210v-951z" />
    <glyph glyph-name="uni1782_uni17C5.pstf.clig" horiz-adv-x="2353" 
d="M2206 1463q0 -115 -33 -297v-913h-250v792l-522 151l-276 -151h-96l-614 151l-109 -63v-29l297 -118h622q108 0 188 -47q96 -55 96 -155v-531h-250v395q0 65 -56 98q-46 28 -114 28h-500q-63 0 -108 -32q-51 -36 -51 -96v-184q27 55 68 104q82 99 154 99q83 0 83 -94
q0 -81 -57 -81q-7 0 -24.5 4t-29.5 4q-67 0 -130.5 -71.5t-63.5 -150.5v-23h-250v534q0 122 106 167l-213 76v141l400 243h69l610 -164l289 164h51l551 -170q36 65 36 160q0 118 -52 118q-8 0 -26.5 -2t-30.5 -2q-32 0 -54.5 26.5t-22.5 62.5q0 51 30 89q35 43 94 43
q89 0 141 -84q48 -77 48 -192z" />
    <glyph glyph-name="uni17D2_uni1783.pstf" horiz-adv-x="630" 
d="M599 1300l-111 -153q-69 49 -146 49q-64 0 -111 -55l5 -9q42 7 59 7q55 0 100 -24q55 -30 55 -83v-1235q0 -93 -91 -159q-82 -60 -176 -60h-134q-105 0 -195 73q-95 -73 -196 -73h-144q-103 0 -183 57q-90 64 -90 165v252q0 53 -42 53q-50 0 -50 -67q0 -23 37.5 -64
t37.5 -77q0 -109 -108 -109q-140 0 -140 180q0 133 91 210q79 66 188 66h117q119 0 119 -134v-244q0 -126 119 -126h18q56 0 78 10q34 16 34 66v18q0 50 -63 50q-10 0 -27.5 -4t-27.5 -4q-13 0 -22 19l-47 105l321 244h29l153 -77q14 -7 30 -7q25 0 33 2l20 -32l-111 -133
q-69 49 -146 49q-64 0 -111 -55l5 -9q42 7 59 7q55 0 100 -24q55 -30 55 -83v-46q0 -96 104 -96h17q89 0 89 106v1118q0 50 -63 50q-10 0 -27.5 -4t-27.5 -4q-13 0 -22 19l-54 114l328 275h29l153 -77q14 -7 30 -7q25 0 33 2z" />
    <glyph glyph-name="glyph250" horiz-adv-x="630" 
d="M599 1300l-111 -153q-69 49 -146 49q-64 0 -111 -55l5 -9q42 7 59 7q55 0 100 -24q55 -30 55 -83v-1235q0 -93 -91 -159q-82 -60 -176 -60h-134q-105 0 -195 73q-95 -73 -196 -73h-144q-103 0 -183 57q-90 64 -90 165v252q0 53 -42 53q-50 0 -50 -67q0 -23 37.5 -64
t37.5 -77q0 -109 -108 -109q-140 0 -140 180q0 133 91 210q79 66 188 66h117q119 0 119 -134v-244q0 -126 119 -126h18q56 0 78 10q34 16 34 66v18q0 50 -63 50q-10 0 -27.5 -4t-27.5 -4q-13 0 -22 19l-47 105l321 244h29l153 -77q14 -7 30 -7q25 0 33 2l20 -32l-111 -133
q-69 49 -146 49q-64 0 -111 -55l5 -9q42 7 59 7q55 0 100 -24q55 -30 55 -83v-46q0 -96 104 -96h17q89 0 89 106v1118q0 50 -63 50q-10 0 -27.5 -4t-27.5 -4q-13 0 -22 19l-54 114l328 275h29l153 -77q14 -7 30 -7q25 0 33 2z" />
    <glyph glyph-name="uni1783_uni17B6.clig" horiz-adv-x="2553" 
d="M2373 253h-250v812l-354 154l-173 -57q-48 -16 -66 -23q-33 -14 -45 -28l5 -9q42 7 59 7q55 0 100 -24q55 -30 55 -83v-530q0 -93 -91 -159q-82 -60 -176 -60h-254q-135 0 -225 73q-95 -73 -196 -73h-204q-104 0 -188 57q-95 64 -95 165v711q0 53 -42 53q-50 0 -50 -67
q0 -23 37.5 -64t37.5 -77q0 -109 -108 -109q-140 0 -140 180q0 133 92 210q78 66 187 66h117q119 0 119 -134v-653q0 -126 129 -126h48q61 0 100 31q42 35 42 95v373q0 50 -63 50q-10 0 -27.5 -4t-27.5 -4q-13 0 -22 19l-54 114l328 275h29l153 -77q14 -7 30 -7q25 0 33 2
l20 -32l-111 -153q-69 49 -146 49q-64 0 -111 -55l5 -9q42 7 59 7q55 0 100 -24q55 -30 55 -83v-441q0 -126 154 -126h87q119 0 119 126v343q0 50 -57 50q-10 0 -26 -3.5t-26 -3.5q-18 0 -22 19l-48 208l586 210h51l461 -210v-951z" />
    <glyph glyph-name="uni17D2_uni1783.pstf_uni17B6.clig" horiz-adv-x="1299" 
d="M1119 253h-250v812l-354 154l-173 -57q-48 -16 -66 -23q-33 -14 -45 -28l5 -9q42 7 59 7q55 0 100 -24q55 -31 55 -83v-1205q0 -93 -91 -159q-82 -60 -176 -60h-134q-105 0 -195 73q-95 -73 -196 -73h-144q-103 0 -183 57q-90 64 -90 165v252q0 53 -42 53q-50 0 -50 -67
q0 -23 37.5 -64t37.5 -77q0 -109 -108 -109q-140 0 -140 180q0 133 91 210q79 66 188 66h117q119 0 119 -134v-244q0 -126 119 -126h18q56 0 78 10q34 16 34 66v18q0 50 -63 50q-10 0 -27.5 -4t-27.5 -4q-13 0 -22 19l-47 105l321 244h29l153 -77q14 -7 30 -7q25 0 33 2
l20 -32l-111 -133q-69 49 -146 49q-64 0 -111 -55l5 -9q42 7 59 7q55 0 100 -24q55 -30 55 -83v-46q0 -96 104 -96h17q89 0 89 106v1088q0 50 -57 50q-10 0 -26 -3.5t-26 -3.5q-18 0 -22 19l-48 208l586 210h51l461 -210v-951z" />
    <glyph glyph-name="glyph253" horiz-adv-x="1299" 
d="M1119 253h-250v812l-354 154l-173 -57q-48 -16 -66 -23q-33 -14 -45 -28l5 -9q42 7 59 7q55 0 100 -24q55 -31 55 -83v-1205q0 -93 -91 -159q-82 -60 -176 -60h-134q-105 0 -195 73q-95 -73 -196 -73h-144q-103 0 -183 57q-90 64 -90 165v252q0 53 -42 53q-50 0 -50 -67
q0 -23 37.5 -64t37.5 -77q0 -109 -108 -109q-140 0 -140 180q0 133 91 210q79 66 188 66h117q119 0 119 -134v-244q0 -126 119 -126h18q56 0 78 10q34 16 34 66v18q0 50 -63 50q-10 0 -27.5 -4t-27.5 -4q-13 0 -22 19l-47 105l321 244h29l153 -77q14 -7 30 -7q25 0 33 2
l20 -32l-111 -133q-69 49 -146 49q-64 0 -111 -55l5 -9q42 7 59 7q55 0 100 -24q55 -30 55 -83v-46q0 -96 104 -96h17q89 0 89 106v1088q0 50 -57 50q-10 0 -26 -3.5t-26 -3.5q-18 0 -22 19l-48 208l586 210h51l461 -210v-951z" />
    <glyph glyph-name="uni1783_uni17C5.pstf.clig" horiz-adv-x="2553" 
d="M2406 1463q0 -115 -33 -297v-913h-250v812l-354 154l-173 -57q-48 -16 -66 -23q-33 -14 -45 -28l5 -9q42 7 59 7q55 0 100 -24q55 -30 55 -83v-530q0 -93 -91 -159q-82 -60 -176 -60h-254q-135 0 -225 73q-95 -73 -196 -73h-204q-104 0 -188 57q-95 64 -95 165v711
q0 53 -42 53q-50 0 -50 -67q0 -23 37.5 -64t37.5 -77q0 -109 -108 -109q-140 0 -140 180q0 133 92 210q78 66 187 66h117q119 0 119 -134v-653q0 -126 129 -126h48q61 0 100 31q42 35 42 95v373q0 50 -63 50q-10 0 -27.5 -4t-27.5 -4q-13 0 -22 19l-54 114l328 275h29
l153 -77q14 -7 30 -7q25 0 33 2l20 -32l-111 -153q-69 49 -146 49q-64 0 -111 -55l5 -9q42 7 59 7q55 0 100 -24q55 -30 55 -83v-441q0 -126 154 -126h87q119 0 119 126v343q0 50 -57 50q-10 0 -26 -3.5t-26 -3.5q-18 0 -22 19l-48 208l586 210h51l339 -154q28 65 28 144
q0 118 -52 118q-8 0 -26.5 -2t-30.5 -2q-32 0 -54.5 26.5t-22.5 62.5q0 51 30 89q35 43 94 43q89 0 141 -84q48 -77 48 -192z" />
    <glyph glyph-name="uni17D2_uni1783.pstf_uni17C5.pstf.clig" horiz-adv-x="1299" 
d="M1152 1463q0 -115 -33 -297v-913h-250v812l-354 154l-173 -57q-48 -16 -66 -23q-33 -14 -45 -28l5 -9q42 7 59 7q55 0 100 -24q55 -31 55 -83v-1205q0 -93 -91 -159q-82 -60 -176 -60h-134q-105 0 -195 73q-95 -73 -196 -73h-144q-103 0 -183 57q-90 64 -90 165v252
q0 53 -42 53q-50 0 -50 -67q0 -23 37.5 -64t37.5 -77q0 -109 -108 -109q-140 0 -140 180q0 133 91 210q79 66 188 66h117q119 0 119 -134v-244q0 -126 119 -126h18q56 0 78 10q34 16 34 66v18q0 50 -63 50q-10 0 -27.5 -4t-27.5 -4q-13 0 -22 19l-47 105l321 244h29l153 -77
q14 -7 30 -7q25 0 33 2l20 -32l-111 -133q-69 49 -146 49q-64 0 -111 -55l5 -9q42 7 59 7q55 0 100 -24q55 -30 55 -83v-46q0 -96 104 -96h17q89 0 89 106v1088q0 50 -57 50q-10 0 -26 -3.5t-26 -3.5q-18 0 -22 19l-48 208l586 210h51l339 -154q28 65 28 144q0 118 -52 118
q-8 0 -26.5 -2t-30.5 -2q-32 0 -54.5 26.5t-22.5 62.5q0 51 30 89q35 43 94 43q89 0 141 -84q48 -77 48 -192z" />
    <glyph glyph-name="glyph256" horiz-adv-x="1299" 
d="M1152 1463q0 -115 -33 -297v-913h-250v812l-354 154l-173 -57q-48 -16 -66 -23q-33 -14 -45 -28l5 -9q42 7 59 7q55 0 100 -24q55 -31 55 -83v-1205q0 -93 -91 -159q-82 -60 -176 -60h-134q-105 0 -195 73q-95 -73 -196 -73h-144q-103 0 -183 57q-90 64 -90 165v252
q0 53 -42 53q-50 0 -50 -67q0 -23 37.5 -64t37.5 -77q0 -109 -108 -109q-140 0 -140 180q0 133 91 210q79 66 188 66h117q119 0 119 -134v-244q0 -126 119 -126h18q56 0 78 10q34 16 34 66v18q0 50 -63 50q-10 0 -27.5 -4t-27.5 -4q-13 0 -22 19l-47 105l321 244h29l153 -77
q14 -7 30 -7q25 0 33 2l20 -32l-111 -133q-69 49 -146 49q-64 0 -111 -55l5 -9q42 7 59 7q55 0 100 -24q55 -30 55 -83v-46q0 -96 104 -96h17q89 0 89 106v1088q0 50 -57 50q-10 0 -26 -3.5t-26 -3.5q-18 0 -22 19l-48 208l586 210h51l339 -154q28 65 28 144q0 118 -52 118
q-8 0 -26.5 -2t-30.5 -2q-32 0 -54.5 26.5t-22.5 62.5q0 51 30 89q35 43 94 43q89 0 141 -84q48 -77 48 -192z" />
    <glyph glyph-name="uni17D2_uni1784.blwf" 
d="M-765 -37q-33 21 -69 21q-30 0 -57 -9.5t-47.5 -27t-33 -41.5t-12.5 -52q0 -83 66 -125.5t139 -42.5q96 0 170 20.5t153.5 60.5t143 97.5t98.5 122.5q15 27 23 27q11 0 11 -39q0 -30 -16 -63t-38 -65t-51 -61.5t-54 -48.5q-59 -45 -119.5 -76.5t-148 -55.5t-157.5 -24
q-79 0 -136 14t-105 46.5t-71 81.5q-13 30 -19 59.5t-6 57.5q0 63 19 101t50 66t77.5 45.5t109.5 18.5q75 -1 113 -12.5t58 -28.5t27.5 -36.5t7.5 -39.5q0 -18 -7 -33t-22 -31.5t-38 -27.5t-55 -13l-12 14q29 40 29 64q0 23 -21 36z" />
    <glyph glyph-name="glyph259" 
d="M-627 -37q-24 15 -53 15q-20 0 -39.5 -6.5t-34.5 -20t-26 -37t-11 -60.5q0 -75 49 -121.5t128 -46.5q63 0 120 18.5t118 69.5q44 36 83.5 88.5t79.5 124.5q15 27 22 27q11 0 11 -28q0 -27 -11.5 -62.5t-18.5 -48.5q-43 -88 -94.5 -146.5t-119.5 -101.5q-40 -23 -83.5 -36
t-109.5 -13q-88 0 -152 31.5t-97 74t-42.5 80.5t-9.5 76q0 34 9.5 69t36.5 73t74.5 66.5t123.5 28.5q35 0 68 -9.5t59 -26t42 -39t16 -48.5q0 -22 -7 -37t-22 -31t-38 -25.5t-55 -11.5l-12 14q8 18 11.5 33t3.5 27q0 25 -19 40z" />
    <glyph glyph-name="uni1784_uni17B6.clig" horiz-adv-x="2459" 
d="M2279 253h-250v812l-132 86l-414 -367v-531h-315l-289 185l-289 -185h-315v339q0 43 -42 43q-50 0 -50 -57q0 -23 37.5 -59t37.5 -72q0 -99 -108 -99q-140 0 -140 170q0 236 279 236h117q119 0 119 -125v-214l354 235l354 -235v385q0 156 -384 156q-147 0 -249 -18
q-118 -20 -118 -54v-48h-250v459q0 32 -53 59q-57 25 -57 69q0 43 34 71.5t95 28.5q81 0 148 -44q83 -55 83 -151v-218q91 58 378 58q35 0 182 -11q-3 19 -3 35q0 92 65 157t157 65t157 -65t65 -157q0 -93 -66 -158l10 -10l440 390h81l331 -210v-951zM1330 1192q0 29 -20 49
t-49 20t-49 -20t-20 -49t20 -49t49 -20t49 20t20 49z" />
    <glyph glyph-name="uni1784_uni17C5.pstf.clig" horiz-adv-x="2459" 
d="M2312 1463q0 -115 -33 -297v-913h-250v812l-132 86l-414 -367v-531h-315l-289 185l-289 -185h-315v339q0 43 -42 43q-50 0 -50 -57q0 -23 37.5 -59t37.5 -72q0 -99 -108 -99q-140 0 -140 170q0 236 279 236h117q119 0 119 -125v-214l354 235l354 -235v385q0 156 -384 156
q-147 0 -249 -18q-118 -20 -118 -54v-48h-250v459q0 32 -52 58q-58 26 -58 70q0 43 34 71.5t95 28.5q81 0 148 -44q83 -55 83 -151v-218q91 58 378 58q35 0 182 -11q-3 19 -3 35q0 92 65 157t157 65t157 -65t65 -157q0 -93 -66 -158l10 -10l440 390h81l215 -137
q22 64 22 127q0 118 -52 118q-8 0 -26.5 -2t-30.5 -2q-32 0 -54.5 26.5t-22.5 62.5q0 51 30 89q35 43 94 43q89 0 141 -84q48 -77 48 -192zM1330 1192q0 29 -20 49t-49 20t-49 -20t-20 -49t20 -49t49 -20t49 20t20 49z" />
    <glyph glyph-name="uni17D2_uni1785.blwf" 
d="M-180 -304q0 -21 -3.5 -39t-8.5 -34l-61 -23l-50 21q5 16 7 30t2 32q0 28 -4.5 44t-13.5 37q-12 22 -19 32t-20 25q-16 -32 -49 -71.5t-77.5 -74t-125.5 -58.5t-163 -24q-78 0 -136.5 19.5t-88.5 46.5t-38.5 55.5t-8.5 52.5q20 4 58 23t74 43q47 30 60.5 51t13.5 34
q0 18 -8 18q-3 0 -9 -2t-12 -2q-16 0 -25 13.5t-9 42.5q0 40 31.5 68.5t79.5 28.5q42 0 63 -27t21 -68q0 -70 -45 -134.5t-143 -121.5q15 -13 25.5 -19t22 -10t26.5 -6.5t37 -2.5q39 0 81 5t81.5 17.5t70 32.5t46.5 37q14 12 28 31.5t24 38t17.5 35t8.5 24.5
q-25 34 -38.5 64t-13.5 54q0 23 15.5 35.5t44.5 12.5q28 0 43 -9t22 -21.5t10 -27.5t7 -27q14 -44 38.5 -77t49.5 -65t43.5 -69.5t18.5 -90.5z" />
    <glyph glyph-name="glyph264" 
d="M-180 -304q0 -21 -3.5 -39t-8.5 -34l-61 -23l-50 21q5 16 7 30t2 32q0 28 -4.5 44t-13.5 37q-12 22 -19 32t-20 25q-16 -32 -49 -71.5t-77.5 -74t-125.5 -58.5t-163 -24q-78 0 -136.5 19.5t-88.5 46.5t-38.5 55.5t-8.5 52.5q20 4 58 23t74 43q47 30 60.5 51t13.5 34
q0 18 -8 18q-3 0 -9 -2t-12 -2q-16 0 -25 13.5t-9 42.5q0 40 31.5 68.5t79.5 28.5q42 0 63 -27t21 -68q0 -70 -45 -134.5t-143 -121.5q15 -13 25.5 -19t22 -10t26.5 -6.5t37 -2.5q39 0 81 5t81.5 17.5t70 32.5t46.5 37q14 12 28 31.5t24 38t17.5 35t8.5 24.5
q-25 34 -38.5 64t-13.5 54q0 23 15.5 35.5t44.5 12.5q28 0 43 -9t22 -21.5t10 -27.5t7 -27q14 -44 38.5 -77t49.5 -65t43.5 -69.5t18.5 -90.5z" />
    <glyph glyph-name="uni1785_uni17B6.clig" horiz-adv-x="2353" 
d="M2173 253h-250v792l-522 151l-276 -151h-96l-614 151l-139 -76v-24l154 -122v-381q0 -60 51 -96q46 -32 108 -32h498q69 0 115 28q55 34 55 98v169q0 52 -42 52q-50 0 -50 -57q0 -15 37.5 -49t37.5 -72q0 -99 -108 -99q-140 0 -140 160q0 121 92 188q78 58 187 58h117
q119 0 119 -134v-352q0 -101 -95 -156q-79 -46 -187 -46h-778q-93 0 -174 52q-93 59 -93 147v470l-137 113v151l430 228h69l610 -164l289 164h51l681 -210v-951z" />
    <glyph glyph-name="uni1785_uni17C5.pstf.clig" horiz-adv-x="2353" 
d="M2206 1463q0 -115 -33 -297v-913h-250v792l-522 151l-276 -151h-96l-614 151l-139 -76v-24l154 -122v-381q0 -60 51 -96q46 -32 108 -32h498q69 0 115 28q55 34 55 98v169q0 52 -42 52q-50 0 -50 -57q0 -15 37.5 -49t37.5 -72q0 -99 -108 -99q-140 0 -140 160
q0 121 92 188q78 58 187 58h117q119 0 119 -134v-352q0 -101 -95 -156q-79 -46 -187 -46h-778q-93 0 -174 52q-93 59 -93 147v470l-137 113v151l430 228h69l610 -164l289 164h51l551 -170q36 65 36 160q0 118 -52 118q-8 0 -26.5 -2t-30.5 -2q-32 0 -54.5 26.5t-22.5 62.5
q0 51 30 89q35 43 94 43q89 0 141 -84q48 -77 48 -192z" />
    <glyph glyph-name="uni17D2_uni1786.blwf" 
d="M-306 -214v155q-9 13 -22 17.5t-25 4.5q-24 0 -43.5 -12t-19.5 -37q0 -18 10 -49t10 -50q0 -30 -17.5 -42t-44.5 -12q-30 0 -51 27t-21 75q0 33 13.5 64.5t52.5 64.5q20 16 44 26.5t49.5 17.5t49.5 9t45 2h36q27 0 43.5 -16.5t16.5 -43.5v-228q0 -52 -28.5 -82t-73.5 -49
t-99 -26.5t-144 -7.5l-240 206v-119q0 -87 -87 -87q-69 0 -125.5 9t-97 29t-62 53.5t-21.5 82.5q0 29 12 56t41 47t81.5 33t135.5 13v130h123v-136l273 -223q28 0 61 2.5t61 14.5t46 31.5t18 49.5zM-888 -175q-77 0 -119 -11t-42 -47q0 -34 42 -48.5t119 -14.5v121z" />
    <glyph glyph-name="glyph269" 
d="M-294 -214v155q-7 9 -25 9q-17 0 -30.5 -8.5t-13.5 -26.5q0 -9 4.5 -23t10.5 -30t10.5 -30t4.5 -25q0 -25 -17 -35.5t-37 -10.5q-33 0 -50 30.5t-17 87.5q0 35 15.5 65.5t42.5 53t61 36t70 13.5h33q25 0 38.5 -16.5t13.5 -43.5v-228q0 -48 -22.5 -79.5t-63.5 -51
t-96.5 -27t-121.5 -7.5l-137 190v-103q0 -87 -85 -87q-74 0 -119 20t-70 43t-37.5 46t-13.5 56q0 29 7 49t26 41t59 40t110 28v130h123v-131l167 -228q28 0 53 3.5t49.5 14.5t41 30.5t16.5 49.5zM-744 -175q-31 0 -50.5 -6t-30 -15.5t-14.5 -18.5t-4 -19q0 -21 24 -40
t75 -22v121z" />
    <glyph glyph-name="uni1786_uni17B6.clig" horiz-adv-x="2398" 
d="M2218 253h-250v792l-522 151l-276 -151h-96l-542 151l-139 -69v-29l154 -124v-198l565 -311h90q100 0 100 86v209q0 52 -42 52q-50 0 -50 -57q0 -15 37.5 -49t37.5 -72q0 -99 -108 -99q-140 0 -140 160q0 121 92 188q78 58 187 58h117q119 0 119 -134v-372
q0 -182 -304 -182h-213l-488 272v-164q0 -107 -84 -107h-166q-119 0 -203 84.5t-84 203.5t84 202t203 83v95l-137 113v151l430 228h69l538 -164l289 164h51l681 -210v-951zM297 465v151q-31 0 -53.5 -22t-22.5 -53t22.5 -53.5t53.5 -22.5z" />
    <glyph glyph-name="uni1786_uni17C5.pstf.clig" horiz-adv-x="2398" 
d="M2251 1463q0 -115 -33 -297v-913h-250v792l-522 151l-276 -151h-96l-542 151l-139 -69v-29l154 -124v-198l565 -311h90q100 0 100 86v209q0 52 -42 52q-50 0 -50 -57q0 -15 37.5 -49t37.5 -72q0 -99 -108 -99q-140 0 -140 160q0 121 92 188q78 58 187 58h117
q119 0 119 -134v-372q0 -182 -304 -182h-213l-488 272v-164q0 -107 -84 -107h-166q-119 0 -203 84.5t-84 203.5t84 202t203 83v95l-137 113v151l430 228h69l538 -164l289 164h51l551 -170q36 65 36 160q0 118 -52 118q-8 0 -26.5 -2t-30.5 -2q-32 0 -54.5 26.5t-22.5 62.5
q0 51 30 89q35 43 94 43q89 0 141 -84q48 -77 48 -192zM297 465v151q-31 0 -53.5 -22t-22.5 -53t22.5 -53.5t53.5 -22.5z" />
    <glyph glyph-name="uni17D2_uni1787.blwf" 
d="M-88 -229v12q0 17 -6 39.5t-16.5 43.5t-25.5 35t-31 14q-7 0 -13 -1v-327h-105l-303 123l-316 -123h-102v454q0 24 18.5 40.5t68.5 16.5q63 0 106.5 -43.5t43.5 -128.5q0 -41 -16.5 -68.5t-48.5 -27.5q-54 0 -54 66q0 28 8.5 41t17.5 18t17 8t8 12q0 14 -9 29.5t-27 15.5
q-11 0 -16.5 -9t-5.5 -21v-280l307 114l294 -114v202q-25 -1 -33 -1q-49 0 -75.5 10.5t-40 30t-13.5 47.5q0 21 8.5 37t26.5 31t45.5 24t68.5 9q31 0 50.5 -4.5t37 -13.5t28.5 -25t11 -38v-33q50 0 83.5 -18t49 -37.5t28.5 -51.5q6 -16 12 -43t6 -39l-33 -36zM-294 -17v68
q-10 2 -26 2q-28 0 -40.5 -10.5t-12.5 -25.5q0 -34 79 -34z" />
    <glyph glyph-name="glyph274" 
d="M-88 -229v12q0 17 -6 39.5t-16.5 43.5t-25.5 35t-31 14q-7 0 -13 -1v-327h-105l-213 123l-256 -123h-102v454q0 24 18.5 40.5t68.5 16.5q63 0 106.5 -43.5t43.5 -128.5q0 -41 -16.5 -68.5t-48.5 -27.5q-54 0 -54 66q0 28 8.5 41t17.5 18t17 8t8 12q0 14 -9 29.5t-27 15.5
q-11 0 -16.5 -9t-5.5 -21v-280l247 114l204 -114v202q-25 -1 -33 -1q-49 0 -75.5 10.5t-40 30t-13.5 47.5q0 21 8.5 37t26.5 31t45.5 24t68.5 9q31 0 50.5 -4.5t37 -13.5t28.5 -25t11 -38v-33q50 0 83.5 -18t49 -37.5t28.5 -51.5q6 -16 12 -43t6 -39l-33 -36zM-294 -17v68
q-10 2 -26 2q-28 0 -40.5 -10.5t-12.5 -25.5q0 -34 79 -34z" />
    <glyph glyph-name="uni1787_uni17B6.clig" horiz-adv-x="2263" 
d="M2083 253h-250v812l-122 86l-421 -424v-474h-315l-240 185l-240 -185h-315v669l-137 113v151l430 228h69l262 -153q113 -66 201 -66q141 0 141 94q0 56 -52 56q-6 0 -20.5 -2.5t-20.5 -2.5q-87 0 -87 89q0 57 39 93t92 36q84 0 136 -57.5t52 -138.5q0 -161 -82 -265
q-90 -114 -250 -114q-161 0 -258 55l-280 158l-139 -76v-24l154 -124v-557l305 235l305 -235v359l641 640h81l321 -210v-951z" />
    <glyph glyph-name="uni1787_uni17C5.pstf.clig" horiz-adv-x="2263" 
d="M2116 1463q0 -115 -33 -297v-913h-250v812l-122 86l-421 -424v-474h-315l-240 185l-240 -185h-315v669l-137 113v151l430 228h69l262 -153q113 -66 201 -66q141 0 141 94q0 56 -52 56q-6 0 -20.5 -2.5t-20.5 -2.5q-87 0 -87 89q0 57 39 93t92 36q84 0 136 -57.5
t52 -138.5q0 -161 -82 -265q-90 -114 -250 -114q-161 0 -258 55l-280 158l-139 -76v-24l154 -124v-557l305 235l305 -235v359l641 640h81l206 -135q21 62 21 125q0 118 -52 118q-8 0 -26.5 -2t-30.5 -2q-32 0 -54.5 26.5t-22.5 62.5q0 51 30 89q35 43 94 43q89 0 141 -84
q48 -77 48 -192z" />
    <glyph glyph-name="uni17D2_uni1788.pstf" horiz-adv-x="630" 
d="M599 1300l-111 -153q-69 49 -146 49q-64 0 -111 -55l5 -9q42 7 59 7q55 0 100 -24q55 -30 55 -83v-1235q0 -93 -91 -159q-82 -60 -176 -60h-134q-105 0 -195 73q-95 -73 -196 -73h-144q-103 0 -183 57q-90 64 -90 165v179q0 103 -89 103h-137q-89 0 -89 -103v-229
q0 -53 42 -53q50 0 50 67q0 23 -37.5 61.5t-37.5 74.5q0 100 108 100q130 0 130 -166q0 -124 -87 -195q-75 -61 -182 -61h-117q-119 0 -119 134v313q0 93 91 159q82 60 176 60h281q94 0 176 -58q91 -65 91 -158v-162q0 -126 119 -126h18q56 0 78 10q34 16 34 66v18
q0 50 -63 50q-10 0 -27.5 -4t-27.5 -4q-13 0 -22 19l-47 105l321 244h29l153 -77q14 -7 30 -7q25 0 33 2l20 -32l-111 -133q-69 49 -146 49q-64 0 -111 -55l5 -9q42 7 59 7q55 0 100 -24q55 -30 55 -83v-46q0 -96 104 -96h17q89 0 89 106v1118q0 50 -63 50q-10 0 -27.5 -4
t-27.5 -4q-13 0 -22 19l-54 114l328 275h29l153 -77q14 -7 30 -7q25 0 33 2z" />
    <glyph glyph-name="glyph279" horiz-adv-x="630" 
d="M599 1300l-111 -153q-69 49 -146 49q-64 0 -111 -55l5 -9q42 7 59 7q55 0 100 -24q55 -30 55 -83v-1235q0 -93 -91 -159q-82 -60 -176 -60h-134q-105 0 -195 73q-95 -73 -196 -73h-144q-103 0 -183 57q-90 64 -90 165v179q0 103 -89 103h-137q-89 0 -89 -103v-229
q0 -53 42 -53q50 0 50 67q0 23 -37.5 61.5t-37.5 74.5q0 100 108 100q130 0 130 -166q0 -124 -87 -195q-75 -61 -182 -61h-117q-119 0 -119 134v313q0 93 91 159q82 60 176 60h281q94 0 176 -58q91 -65 91 -158v-162q0 -126 119 -126h18q56 0 78 10q34 16 34 66v18
q0 50 -63 50q-10 0 -27.5 -4t-27.5 -4q-13 0 -22 19l-47 105l321 244h29l153 -77q14 -7 30 -7q25 0 33 2l20 -32l-111 -133q-69 49 -146 49q-64 0 -111 -55l5 -9q42 7 59 7q55 0 100 -24q55 -30 55 -83v-46q0 -96 104 -96h17q89 0 89 106v1118q0 50 -63 50q-10 0 -27.5 -4
t-27.5 -4q-13 0 -22 19l-54 114l328 275h29l153 -77q14 -7 30 -7q25 0 33 2z" />
    <glyph glyph-name="uni1788_uni17B6.clig" horiz-adv-x="3184" 
d="M3004 253h-250v812l-354 154l-173 -57q-48 -16 -66 -23q-33 -14 -45 -28l5 -9q42 7 59 7q55 0 100 -24q55 -31 55 -83v-530q0 -93 -91 -159q-82 -60 -176 -60h-254q-135 0 -225 73q-95 -73 -196 -73h-254q-104 0 -188 57q-95 64 -95 165v569q0 120 -129 120h-168
q-129 0 -129 -123v-596q0 -53 42 -53q50 0 50 67q0 23 -37.5 64t-37.5 77q0 109 108 109q140 0 140 -180q0 -133 -91 -210q-79 -66 -188 -66h-117q-119 0 -119 134v764q0 101 95 167q85 58 188 58h357q104 0 189 -58q97 -66 97 -167v-560q0 -126 129 -126h98q61 0 100 31
q42 35 42 95v373q0 50 -63 50q-10 0 -27.5 -4t-27.5 -4q-13 0 -22 19l-54 114l328 275h29l153 -77q14 -7 30 -7q25 0 33 2l20 -32l-111 -153q-69 49 -146 49q-64 0 -111 -55l5 -9q42 7 59 7q55 0 100 -24q55 -30 55 -83v-441q0 -126 154 -126h87q119 0 119 126v343
q0 50 -57 50q-10 0 -26 -3.5t-26 -3.5q-18 0 -22 19l-48 208l586 210h51l461 -210v-951z" />
    <glyph glyph-name="uni17D2_uni1788.pstf_uni17B6.clig" horiz-adv-x="1279" 
d="M1099 253h-250v812l-354 154l-173 -57q-48 -16 -66 -23q-33 -14 -45 -28l5 -9q42 7 59 7q55 0 100 -23q55 -29 55 -81v-1208q0 -93 -91 -159q-82 -60 -176 -60h-134q-105 0 -195 73q-95 -73 -196 -73h-144q-103 0 -183 57q-90 64 -90 165v179q0 103 -89 103h-137
q-89 0 -89 -103v-229q0 -53 42 -53q50 0 50 67q0 23 -37.5 61.5t-37.5 74.5q0 100 108 100q130 0 130 -166q0 -124 -87 -195q-75 -61 -182 -61h-117q-119 0 -119 134v313q0 93 91 159q82 60 176 60h281q94 0 176 -58q91 -65 91 -158v-162q0 -126 119 -126h18q56 0 78 10
q34 16 34 66v18q0 50 -63 50q-10 0 -27.5 -4t-27.5 -4q-13 0 -22 19l-47 105l321 244h29l153 -77q14 -7 30 -7q25 0 33 2l20 -32l-111 -133q-69 49 -146 49q-64 0 -111 -55l5 -9q42 7 59 7q55 0 100 -24q55 -30 55 -83v-46q0 -96 104 -96h17q89 0 89 106v1088q0 50 -57 50
q-10 0 -26 -3.5t-26 -3.5q-18 0 -22 19l-48 208l586 210h51l461 -210v-951z" />
    <glyph glyph-name="glyph282" horiz-adv-x="1279" 
d="M1099 253h-250v812l-354 154l-173 -57q-48 -16 -66 -23q-33 -14 -45 -28l5 -9q42 7 59 7q55 0 100 -23q55 -29 55 -81v-1208q0 -93 -91 -159q-82 -60 -176 -60h-134q-105 0 -195 73q-95 -73 -196 -73h-144q-103 0 -183 57q-90 64 -90 165v179q0 103 -89 103h-137
q-89 0 -89 -103v-229q0 -53 42 -53q50 0 50 67q0 23 -37.5 61.5t-37.5 74.5q0 100 108 100q130 0 130 -166q0 -124 -87 -195q-75 -61 -182 -61h-117q-119 0 -119 134v313q0 93 91 159q82 60 176 60h281q94 0 176 -58q91 -65 91 -158v-162q0 -126 119 -126h18q56 0 78 10
q34 16 34 66v18q0 50 -63 50q-10 0 -27.5 -4t-27.5 -4q-13 0 -22 19l-47 105l321 244h29l153 -77q14 -7 30 -7q25 0 33 2l20 -32l-111 -133q-69 49 -146 49q-64 0 -111 -55l5 -9q42 7 59 7q55 0 100 -24q55 -30 55 -83v-46q0 -96 104 -96h17q89 0 89 106v1088q0 50 -57 50
q-10 0 -26 -3.5t-26 -3.5q-18 0 -22 19l-48 208l586 210h51l461 -210v-951z" />
    <glyph glyph-name="uni1788_uni17C5.pstf.clig" horiz-adv-x="3184" 
d="M3037 1463q0 -115 -33 -297v-913h-250v812l-354 154l-173 -57q-48 -16 -66 -23q-33 -14 -45 -28l5 -9q42 7 59 7q55 0 100 -24q55 -31 55 -83v-530q0 -93 -91 -159q-82 -60 -176 -60h-254q-135 0 -225 73q-95 -73 -196 -73h-254q-104 0 -188 57q-95 64 -95 165v569
q0 120 -129 120h-168q-129 0 -129 -123v-596q0 -53 42 -53q50 0 50 67q0 23 -37.5 64t-37.5 77q0 109 108 109q140 0 140 -180q0 -133 -91 -210q-79 -66 -188 -66h-117q-119 0 -119 134v764q0 101 95 167q85 58 188 58h357q104 0 189 -58q97 -66 97 -167v-560
q0 -126 129 -126h98q61 0 100 31q42 35 42 95v373q0 50 -63 50q-10 0 -27.5 -4t-27.5 -4q-13 0 -22 19l-54 114l328 275h29l153 -77q14 -7 30 -7q25 0 33 2l20 -32l-111 -153q-69 49 -146 49q-64 0 -111 -55l5 -9q42 7 59 7q55 0 100 -24q55 -30 55 -83v-441
q0 -126 154 -126h87q119 0 119 126v343q0 50 -57 50q-10 0 -26 -3.5t-26 -3.5q-18 0 -22 19l-48 208l586 210h51l339 -154q28 65 28 144q0 118 -52 118q-8 0 -26.5 -2t-30.5 -2q-32 0 -54.5 26.5t-22.5 62.5q0 51 30 89q35 43 94 43q89 0 141 -84q48 -77 48 -192z" />
    <glyph glyph-name="uni17D2_uni1788.pstf_uni17C5.pstf.clig" horiz-adv-x="1279" 
d="M1132 1463q0 -115 -33 -297v-913h-250v812l-354 154l-173 -57q-48 -16 -66 -23q-33 -14 -45 -28l5 -9q42 7 59 7q55 0 100 -23q55 -29 55 -81v-1208q0 -93 -91 -159q-82 -60 -176 -60h-134q-105 0 -195 73q-95 -73 -196 -73h-144q-103 0 -183 57q-90 64 -90 165v179
q0 103 -89 103h-137q-89 0 -89 -103v-229q0 -53 42 -53q50 0 50 67q0 23 -37.5 61.5t-37.5 74.5q0 100 108 100q130 0 130 -166q0 -124 -87 -195q-75 -61 -182 -61h-117q-119 0 -119 134v313q0 93 91 159q82 60 176 60h281q94 0 176 -58q91 -65 91 -158v-162
q0 -126 119 -126h18q56 0 78 10q34 16 34 66v18q0 50 -63 50q-10 0 -27.5 -4t-27.5 -4q-13 0 -22 19l-47 105l321 244h29l153 -77q14 -7 30 -7q25 0 33 2l20 -32l-111 -133q-69 49 -146 49q-64 0 -111 -55l5 -9q42 7 59 7q55 0 100 -24q55 -30 55 -83v-46q0 -96 104 -96h17
q89 0 89 106v1088q0 50 -57 50q-10 0 -26 -3.5t-26 -3.5q-18 0 -22 19l-48 208l586 210h51l339 -154q28 65 28 144q0 118 -52 118q-8 0 -26.5 -2t-30.5 -2q-32 0 -54.5 26.5t-22.5 62.5q0 51 30 89q35 43 94 43q89 0 141 -84q48 -77 48 -192z" />
    <glyph glyph-name="glyph285" horiz-adv-x="1279" 
d="M1132 1463q0 -115 -33 -297v-913h-250v812l-354 154l-173 -57q-48 -16 -66 -23q-33 -14 -45 -28l5 -9q42 7 59 7q55 0 100 -23q55 -29 55 -81v-1208q0 -93 -91 -159q-82 -60 -176 -60h-134q-105 0 -195 73q-95 -73 -196 -73h-144q-103 0 -183 57q-90 64 -90 165v179
q0 103 -89 103h-137q-89 0 -89 -103v-229q0 -53 42 -53q50 0 50 67q0 23 -37.5 61.5t-37.5 74.5q0 100 108 100q130 0 130 -166q0 -124 -87 -195q-75 -61 -182 -61h-117q-119 0 -119 134v313q0 93 91 159q82 60 176 60h281q94 0 176 -58q91 -65 91 -158v-162
q0 -126 119 -126h18q56 0 78 10q34 16 34 66v18q0 50 -63 50q-10 0 -27.5 -4t-27.5 -4q-13 0 -22 19l-47 105l321 244h29l153 -77q14 -7 30 -7q25 0 33 2l20 -32l-111 -133q-69 49 -146 49q-64 0 -111 -55l5 -9q42 7 59 7q55 0 100 -24q55 -30 55 -83v-46q0 -96 104 -96h17
q89 0 89 106v1088q0 50 -57 50q-10 0 -26 -3.5t-26 -3.5q-18 0 -22 19l-48 208l586 210h51l339 -154q28 65 28 144q0 118 -52 118q-8 0 -26.5 -2t-30.5 -2q-32 0 -54.5 26.5t-22.5 62.5q0 51 30 89q35 43 94 43q89 0 141 -84q48 -77 48 -192z" />
    <glyph glyph-name="glyph287" horiz-adv-x="1962" 
d="M1782 253h-250v786q0 128 -169 128h-27q-69 0 -115 -28q-54 -34 -54 -98v-788h-250v807q0 109 -65 109q-24 0 -88.5 -53.5t-90.5 -53.5t-90 53.5t-88 53.5q-65 0 -65 -108v-616q0 -53 42 -53q50 0 50 67q0 23 -37.5 64t-37.5 77q0 109 108 109q140 0 140 -180
q0 -133 -91 -210q-79 -66 -188 -66h-117q-119 0 -119 134v720q0 126 72.5 199t195.5 73q64 0 139 -53t86 -53t86.5 53t139.5 53q102 0 158 -63q81 63 209 63h204q122 0 209 -53q103 -63 103 -176v-897z" />
    <glyph glyph-name="uni17D2_uni1789.blwf" 
d="M-1548 -163q35 39 79 63t98.5 37.5t112.5 18t110 4.5q27 0 62.5 -3.5t82 -15t102 -34.5t148.5 -64q144 -63 237 -63q70 0 111.5 11.5t64 28t30.5 35t8 32.5q0 39 -31.5 66.5t-109.5 27.5q-99 0 -99 48q0 27 32.5 49.5t99.5 24.5q69 0 114 -21.5t70.5 -51t35.5 -57
t10 -61.5q0 -36 -11.5 -73t-51.5 -76q-30 -26 -68 -45t-73.5 -28t-65 -12t-57.5 -3q-44 0 -87.5 6t-107.5 23q-66 21 -114 42t-100 42.5t-113.5 36.5t-148.5 15q-79 0 -148.5 -15.5t-121 -39.5t-87.5 -42t-49 -18q-11 0 -11 15q0 35 47 97z" />
    <glyph glyph-name="glyph289" 
d="M-926 -277.5q1 6.5 7.5 29t19.5 46.5t32 45.5t37 32.5q58 35 129 35q30 0 47.5 -4t40.5 -13t53.5 -30t81.5 -58q78 -59 123 -59q24 0 39.5 11.5t24.5 27t12 33t3 29.5q0 39 -13.5 62t-46.5 23t-33 42q0 32 16 51.5t53 19.5q34 0 59 -19t38 -44.5t18 -50t5 -39.5
q0 -42 -8 -83.5t-27 -77.5t-57.5 -59t-79.5 -23q-36 0 -61.5 8t-53 21.5t-54.5 31.5t-55 38q-27 21 -57.5 40.5t-71.5 19.5q-39 0 -76.5 -14.5t-67 -38.5t-48.5 -42.5t-24 -18.5q-6 0 -6 15q0 6 1 12.5z" />
    <glyph glyph-name="glyph290" 
d="M-1172 -25v-123q9 -6 21 -8t23 -2q25 0 41.5 6.5t16.5 20.5q0 15 -13.5 19.5t-29 5.5t-29 6.5t-13.5 17.5t15.5 22.5t44.5 10.5q40 0 65 -16.5t25 -39.5q0 -22 -16 -43t-43 -33.5t-61.5 -17t-71.5 -4.5h-33q-27 0 -49 9t-22 22v161q0 24 22.5 41t57 27.5t70 15t75.5 4.5
q27 0 49.5 -7t37.5 -16t26 -15.5t22 -6.5q10 0 22 9q33 21 51.5 28t36.5 7q11 0 22 -1t26 -4.5t32 -9.5t49 -15q57 16 101 25t116 9q30 0 54 -1t50.5 -3.5t63 -10.5t73.5 -20.5t50.5 -25.5t13.5 -34v-188h-128v177q0 15 -11.5 24.5t-32 16.5t-47 10.5t-54.5 3.5
q-32 0 -63.5 -2t-56 -7.5t-42.5 -16t-18 -26.5v-180h-128v181q0 11 -9.5 21t-23.5 15t-25 6.5t-23 1.5q-13 0 -27.5 -7.5t-26.5 -15t-25.5 -14.5t-23.5 -7q-15 0 -26 6q-34 18 -56 28t-53 10q-39 0 -65.5 -13t-26.5 -34zM-867 -345q-50 -13 -80.5 -27t-48.5 -14q-8 0 -8 6
q0 24 23.5 42.5t58.5 32t75.5 20.5t75.5 7q30 0 52.5 -1t49.5 -6t64.5 -17t95.5 -35q81 -31 126 -31q26 0 44.5 4.5t30.5 12.5t16 17.5t4 16.5q0 25 -22.5 37t-75.5 12q-33 0 -33 11q0 18 32.5 30t71.5 12q51 0 84.5 -25t33.5 -67q0 -36 -25.5 -57.5t-57 -31.5t-54.5 -13
t-43 -3q-36 0 -63.5 4t-52.5 10.5t-49 15.5t-52 18q-29 9 -72.5 19t-100.5 10q-46 0 -100 -10z" />
    <glyph glyph-name="glyph291" 
d="M-210 41q30 -22 30 -52v-218h-86v200q0 10 -8 21.5t-21.5 20.5t-31 15t-63.5 6q-39 0 -70 -15.5t-31 -40.5v-207h-88v200q0 21 -13 37.5t-40 16.5q-15 0 -30.5 -9.5t-45.5 -29.5q-18 -12 -36 -12q-12 0 -26 9q-34 21 -52 31.5t-36 10.5q-23 0 -40 -16t-17 -37v-136
q6 -9 14 -11.5t16 -2.5q16 0 28 8.5t12 23.5t-9 21t-19.5 7.5t-19.5 7.5t-9 18q0 16 16 27.5t44 11.5q29 0 46 -15t17 -45q0 -32 -15 -53.5t-37.5 -35t-49.5 -20.5t-52 -7h-23q-16 0 -30.5 10.5t-17.5 25.5v180q0 29 16 48.5t38 30.5t43.5 15.5t44.5 4.5q25 0 45 -8.5
t33.5 -18t25 -17.5t20.5 -8q7 0 19 8l25.5 17t30.5 17.5t34 8.5q18 0 32.5 -4.5t27.5 -12t30 -18.5q20 14 55 25t92 11q54 0 95.5 -8.5t86.5 -36.5zM-740 -362q-42 -12 -69 -25.5t-39 -13.5q-6 0 -6 7q0 23 19.5 40t49 29t64 18t64.5 6q19 0 37.5 -1t40.5 -5.5t52 -15.5
t78 -32q65 -28 102 -28q41 0 61 14t20 35q0 20 -16.5 28.5t-37.5 11t-37.5 5t-16.5 11.5q0 16 24.5 26.5t60.5 10.5q40 0 68.5 -22t28.5 -59t-21 -57.5t-46.5 -29.5t-42.5 -11t-36 -2q-53 0 -93 12.5t-87 29.5q-25 9 -59.5 18.5t-81.5 9.5q-37 0 -81 -10z" />
    <glyph glyph-name="uni1789_uni17B6.clig" horiz-adv-x="2577" 
d="M2397 253h-250v786q0 128 -169 128h-27q-69 0 -115 -28q-54 -34 -54 -98v-788h-250v786q0 128 -169 128h-27q-69 0 -115 -28q-54 -34 -54 -98v-788h-250v807q0 109 -65 109q-24 0 -88.5 -53.5t-90.5 -53.5t-90 53.5t-88 53.5q-65 0 -65 -108v-616q0 -53 42 -53
q50 0 50 67q0 23 -37.5 64t-37.5 77q0 109 108 109q140 0 140 -180q0 -133 -91 -210q-79 -66 -188 -66h-117q-119 0 -119 134v720q0 126 72.5 199t195.5 73q64 0 139 -53t86 -53t86.5 53t139.5 53q102 0 158 -63q81 63 209 63h204q125 0 212 -55q78 55 199 55h204
q122 0 209 -53q103 -63 103 -176v-897zM628 -163q35 39 79 63t98.5 37.5t112.5 18t110 4.5q27 0 62.5 -3.5t82 -15t102 -34.5t148.5 -64q144 -63 237 -63q70 0 111.5 11.5t64 28t30.5 35t8 32.5q0 39 -31.5 66.5t-109.5 27.5q-99 0 -99 48q0 27 32.5 49.5t99.5 24.5
q69 0 114 -21.5t70.5 -51t35.5 -57t10 -61.5q0 -36 -11.5 -73t-51.5 -76q-30 -26 -68 -45t-73.5 -28t-65 -12t-57.5 -3q-44 0 -87.5 6t-107.5 23q-66 21 -114 42t-100 42.5t-113.5 36.5t-148.5 15q-79 0 -148.5 -15.5t-121 -39.5t-87.5 -42t-49 -18q-11 0 -11 15q0 35 47 97
z" />
    <glyph glyph-name="glyph293" horiz-adv-x="2577" 
d="M2397 253h-250v786q0 128 -169 128h-27q-69 0 -115 -28q-54 -34 -54 -98v-788h-250v786q0 128 -169 128h-27q-69 0 -115 -28q-54 -34 -54 -98v-788h-250v807q0 109 -65 109q-24 0 -88.5 -53.5t-90.5 -53.5t-90 53.5t-88 53.5q-65 0 -65 -108v-616q0 -53 42 -53
q50 0 50 67q0 23 -37.5 64t-37.5 77q0 109 108 109q140 0 140 -180q0 -133 -91 -210q-79 -66 -188 -66h-117q-119 0 -119 134v720q0 126 72.5 199t195.5 73q64 0 139 -53t86 -53t86.5 53t139.5 53q102 0 158 -63q81 63 209 63h204q125 0 212 -55q78 55 199 55h204
q122 0 209 -53q103 -63 103 -176v-897z" />
    <glyph glyph-name="uni1789_uni17C5.pstf.clig" horiz-adv-x="2577" 
d="M2430 1463q0 -145 -33 -327v-883h-250v786q0 128 -169 128h-27q-69 0 -115 -28q-54 -34 -54 -98v-788h-250v786q0 128 -169 128h-27q-69 0 -115 -28q-54 -34 -54 -98v-788h-250v807q0 109 -65 109q-24 0 -88.5 -53.5t-90.5 -53.5t-90 53.5t-88 53.5q-65 0 -65 -108v-616
q0 -53 42 -53q50 0 50 67q0 23 -37.5 64t-37.5 77q0 109 108 109q140 0 140 -180q0 -133 -91 -210q-79 -66 -188 -66h-117q-119 0 -119 134v720q0 126 72.5 199t195.5 73q64 0 139 -53t86 -53t86.5 53t139.5 53q102 0 158 -63q81 63 209 63h204q125 0 212 -55q78 55 199 55
h204q123 0 209 -53q9 44 9 78q0 118 -52 118q-8 0 -26.5 -2t-30.5 -2q-32 0 -54.5 26.5t-22.5 62.5q0 51 30 89q35 43 94 43q89 0 141 -84q48 -77 48 -192zM628 -163q35 39 79 63t98.5 37.5t112.5 18t110 4.5q27 0 62.5 -3.5t82 -15t102 -34.5t148.5 -64q144 -63 237 -63
q70 0 111.5 11.5t64 28t30.5 35t8 32.5q0 39 -31.5 66.5t-109.5 27.5q-99 0 -99 48q0 27 32.5 49.5t99.5 24.5q69 0 114 -21.5t70.5 -51t35.5 -57t10 -61.5q0 -36 -11.5 -73t-51.5 -76q-30 -26 -68 -45t-73.5 -28t-65 -12t-57.5 -3q-44 0 -87.5 6t-107.5 23q-66 21 -114 42
t-100 42.5t-113.5 36.5t-148.5 15q-79 0 -148.5 -15.5t-121 -39.5t-87.5 -42t-49 -18q-11 0 -11 15q0 35 47 97z" />
    <glyph glyph-name="glyph295" horiz-adv-x="2577" 
d="M2430 1463q0 -145 -33 -327v-883h-250v786q0 128 -169 128h-27q-69 0 -115 -28q-54 -34 -54 -98v-788h-250v786q0 128 -169 128h-27q-69 0 -115 -28q-54 -34 -54 -98v-788h-250v807q0 109 -65 109q-24 0 -88.5 -53.5t-90.5 -53.5t-90 53.5t-88 53.5q-65 0 -65 -108v-616
q0 -53 42 -53q50 0 50 67q0 23 -37.5 64t-37.5 77q0 109 108 109q140 0 140 -180q0 -133 -91 -210q-79 -66 -188 -66h-117q-119 0 -119 134v720q0 126 72.5 199t195.5 73q64 0 139 -53t86 -53t86.5 53t139.5 53q102 0 158 -63q81 63 209 63h204q125 0 212 -55q78 55 199 55
h204q123 0 209 -53q9 44 9 78q0 118 -52 118q-8 0 -26.5 -2t-30.5 -2q-32 0 -54.5 26.5t-22.5 62.5q0 51 30 89q35 43 94 43q89 0 141 -84q48 -77 48 -192z" />
    <glyph glyph-name="uni17D2_uni178A.blwf" 
d="M-891 -199q45 0 78.5 -33t33.5 -78q0 -22 -9 -42.5t-24.5 -36t-36 -24.5t-42.5 -9h-97q-61 0 -85 30.5t-24 100.5v287q0 33 6 52.5t17.5 30.5t29.5 18t45 7h723q28 0 45.5 -7t28 -17t16.5 -23.5t6 -33.5v-444h-114v402q0 26 -42 26h-603q-44 0 -44 -26v-180h92z
M-983 -311q0 -30 22.5 -52.5t54.5 -22.5q30 0 52.5 22.5t22.5 52.5q0 33 -23.5 54.5t-51.5 21.5q-29 0 -53 -18.5t-24 -57.5z" />
    </font>
</defs>
</svg>
