<?xml version="1.0" standalone="no"?>
<!DOCTYPE svg PUBLIC "-//W3C//DTD SVG 1.1//EN" "http://www.w3.org/Graphics/SVG/1.1/DTD/svg11.dtd" >
<svg xmlns="http://www.w3.org/2000/svg" xmlns:xlink="http://www.w3.org/1999/xlink" version="1.1">
<metadata>
Created by FontForge 20161003 at Mon Jan 15 15:43:41 2018
 By www-data
(c) 2012 Microsoft Corporation. All Rights Reserved.
</metadata>
<defs>
<font id="khmer_regular" horiz-adv-x="0" >
  <font-face 
    font-family="khmer_regular"
    font-weight="400"
    font-stretch="normal"
    units-per-em="2048"
    panose-1="2 11 5 2 4 2 4 2 2 3"
    ascent="1638"
    descent="-410"
    x-height="1024"
    cap-height="1434"
    bbox="-1646 -482 3106 1899"
    underline-thickness="119"
    underline-position="-77"
    unicode-range="U+0020-25CC"
  />
<missing-glyph horiz-adv-x="1322" 
d="M166 0v1398h990v-1398h-990zM314 148h694v1102h-694v-1102z" />
    <glyph glyph-name=".notdef" horiz-adv-x="1322" 
d="M166 0v1398h990v-1398h-990zM314 148h694v1102h-694v-1102z" />
    <glyph glyph-name="glyph1" 
 />
    <glyph glyph-name="glyph2" horiz-adv-x="199" 
 />
    <glyph glyph-name="space" unicode=" " horiz-adv-x="561" 
 />
    <glyph glyph-name="space" unicode="&#xa0;" horiz-adv-x="561" 
 />
    <glyph glyph-name="exclam" unicode="!" horiz-adv-x="582" 
d="M375 1434l-19 -1030h-135l-18 1030h172zM291 -18q-46 0 -78.5 32t-32.5 78t32.5 78.5t78.5 32.5q45 0 78 -32.5t33 -78.5t-33 -78t-78 -32z" />
    <glyph glyph-name="quotedbl" unicode="&#x22;" horiz-adv-x="803" 
d="M323 1434l-30 -447h-115l-30 447h175zM655 1434l-30 -447h-115l-30 447h175z" />
    <glyph glyph-name="numbersign" unicode="#" horiz-adv-x="1210" 
d="M1166 1032l-23 -106h-261l-63 -300h281l-27 -106h-275l-88 -397h-126l86 397h-250l-84 -397h-125l84 397h-262l20 106h265l61 300h-277l21 106h277l84 402h126l-84 -402h252l86 402h123l-84 -402h263zM758 926h-252l-66 -300h254z" />
    <glyph glyph-name="dollar" unicode="$" horiz-adv-x="1104" 
d="M616 8v-217h-104v209q-213 0 -346 86v174q58 -51 158.5 -85.5t187.5 -34.5v512q-220 106 -285 195.5t-65 211.5q0 145 99 250.5t251 126.5v180h104v-176q196 -6 271 -56v-170q-102 80 -271 86v-528q208 -99 284.5 -191.5t76.5 -210.5q0 -142 -95.5 -238.5t-265.5 -123.5z
M512 828v466q-84 -17 -133 -74.5t-49 -139.5q0 -86 40 -141t142 -111zM616 600v-452q193 42 193 208q0 138 -193 244z" />
    <glyph glyph-name="percent" unicode="%" horiz-adv-x="1676" 
d="M404 715q-148 0 -236 97.5t-88 260.5q0 178 93 280.5t251 102.5q153 0 237.5 -95t84.5 -267t-94.5 -275.5t-247.5 -103.5zM418 1346q-95 0 -150 -70.5t-55 -193.5q0 -121 54 -188.5t147 -67.5q94 0 147 70t53 194q0 121 -52.5 188.5t-143.5 67.5zM1364 1434l-920 -1444
h-143l919 1444h144zM1258 -22q-148 0 -236 98t-88 260q0 178 94 281.5t250 103.5q152 0 237 -96t85 -269q0 -171 -94.5 -274.5t-247.5 -103.5zM1272 608q-96 0 -150.5 -70t-54.5 -194q0 -119 54 -186.5t147 -67.5q94 0 147 70.5t53 193.5q0 122 -52.5 188t-143.5 66z" />
    <glyph glyph-name="ampersand" unicode="&#x26;" horiz-adv-x="1639" 
d="M1445 -23q-57 0 -100.5 15.5t-80.5 44t-71.5 69.5t-72.5 93q-40 -43 -92.5 -83t-116.5 -71t-140 -49.5t-165 -18.5q-108 0 -198 27t-154 79.5t-99.5 129.5t-35.5 177q0 153 87 261.5t246 177.5q-30 22 -60 51.5t-53.5 67t-38 83t-14.5 99.5q0 79 28.5 140t78.5 103
t118 63.5t147 21.5q78 0 142.5 -21.5t111 -61.5t72.5 -96t26 -125q0 -120 -68.5 -199.5t-205.5 -135.5q69 -27 125 -66t103.5 -87t88.5 -103t81 -114q81 113 122 249t41 285q0 38 -4.5 71.5t-12.5 66.5h159q8 -33 9.5 -62.5t3.5 -70.5q0 -91 -19 -183t-51 -178.5
t-74.5 -164.5t-89.5 -143q35 -48 64 -83.5t58.5 -59.5t61 -35.5t71.5 -11.5q30 0 61 8t64 20v-152q-36 -14 -75.5 -21t-77.5 -7zM606 119q76 0 140 16.5t118 44t98 64t80 76.5q-61 95 -112.5 162.5t-104 116.5t-112 84t-137.5 65q-63 -25 -116 -55.5t-91.5 -72t-60.5 -96.5
t-22 -129q0 -68 25 -120t68.5 -86.5t101.5 -52t125 -17.5zM856 1140q0 50 -18.5 85t-47 58t-63.5 33.5t-69 10.5q-98 0 -156.5 -53t-59.5 -144q0 -41 12.5 -77t35 -67t52.5 -55t64 -41q126 44 188 102.5t62 147.5z" />
    <glyph glyph-name="quotesingle" unicode="'" horiz-adv-x="471" 
d="M323 1434l-30 -447h-115l-30 447h175z" />
    <glyph glyph-name="parenleft" unicode="(" horiz-adv-x="618" 
d="M596 -326h-146q-310 354 -310 873q0 521 310 887h148q-314 -380 -314 -885q0 -501 312 -875z" />
    <glyph glyph-name="parenright" unicode=")" horiz-adv-x="618" 
d="M170 -326h-146q312 374 312 875q0 505 -314 885h148q312 -366 312 -887q0 -519 -312 -873z" />
    <glyph glyph-name="asterisk" unicode="*" horiz-adv-x="854" 
d="M780 1104l-274 -56l190 -243l-110 -76l-156 265l-158 -265l-110 76l190 243l-276 56l45 125l262 -99l-23 304h138l-23 -304l263 99z" />
    <glyph glyph-name="plus" unicode="+" horiz-adv-x="1401" 
d="M1172 530h-404v-403h-133v403h-403v134h403v403h133v-403h404v-134z" />
    <glyph glyph-name="comma" unicode="," horiz-adv-x="444" 
d="M316 228l-160 -492h-117l117 492h160z" />
    <glyph glyph-name="hyphen" unicode="-" horiz-adv-x="819" 
d="M690 506h-546v129h546v-129z" />
    <glyph glyph-name="hyphen" unicode="&#xad;" horiz-adv-x="819" 
d="M690 506h-546v129h546v-129z" />
    <glyph glyph-name="period" unicode="." horiz-adv-x="444" 
d="M223 -22q-46 0 -78.5 33t-32.5 79t32.5 79.5t78.5 33.5q47 0 80 -33.5t33 -79.5t-33 -79t-80 -33z" />
    <glyph glyph-name="slash" unicode="/" horiz-adv-x="798" 
d="M813 1434l-688 -1672h-153l686 1672h155z" />
    <glyph glyph-name="zero" unicode="0" horiz-adv-x="1104" 
d="M1020 723q0 -180 -32.5 -319t-94 -234.5t-151 -145t-203.5 -49.5q-108 0 -192.5 47.5t-142.5 138.5t-88 223.5t-30 303.5q0 188 31.5 332t92.5 241.5t151.5 147t207.5 49.5q451 0 451 -735zM852 707q0 612 -291 612q-307 0 -307 -623q0 -581 301 -581q297 0 297 592z" />
    <glyph glyph-name="one" unicode="1" horiz-adv-x="1104" 
d="M724 0h-164v1239q-19 -19 -55.5 -43.5t-82 -48.5t-96 -45t-98.5 -33v166q54 15 114.5 40.5t119 57t110.5 66t90 67.5h62v-1466z" />
    <glyph glyph-name="two" unicode="2" horiz-adv-x="1104" 
d="M772 1058q0 66 -20.5 115t-56 81.5t-83.5 48.5t-104 16q-48 0 -94 -13t-89.5 -36t-84 -55t-75.5 -71v176q69 67 154.5 102.5t208.5 35.5q88 0 163 -25.5t130 -74.5t86.5 -121t31.5 -165q0 -85 -19.5 -154t-59 -130t-99.5 -117t-141 -114q-101 -72 -166.5 -123t-104 -95.5
t-54 -89t-15.5 -102.5h714v-147h-885v71q0 92 20 162t66 133t120.5 126t182.5 142q78 56 130.5 107t84.5 102t45.5 103.5t13.5 111.5z" />
    <glyph glyph-name="three" unicode="3" horiz-adv-x="1104" 
d="M953 406q0 -97 -36.5 -176.5t-103 -136t-159.5 -87.5t-205 -31q-205 0 -326 78v176q145 -114 332 -114q75 0 135.5 19t104 55t67 87t23.5 115q0 281 -400 281h-119v139h113q354 0 354 264q0 244 -270 244q-152 0 -285 -102v159q137 82 326 82q90 0 163 -25t125 -70
t80.5 -108t28.5 -139q0 -283 -286 -364v-4q73 -8 135 -35.5t107 -71.5t70.5 -103.5t25.5 -131.5z" />
    <glyph glyph-name="four" unicode="4" horiz-adv-x="1104" 
d="M850 1434v-947h184v-150h-184v-337h-162v337h-674v142q94 106 190 226.5t183.5 244.5t162 247.5t125.5 236.5h175zM199 487h489v702q-75 -131 -142 -234t-127.5 -187t-115.5 -152t-104 -129z" />
    <glyph glyph-name="five" unicode="5" horiz-adv-x="1104" 
d="M969 438q0 -105 -36 -190t-102.5 -146t-160.5 -94t-209 -33q-200 0 -297 60v174q146 -94 299 -94q78 0 140.5 23t106.5 64t67.5 99t23.5 127q0 140 -94 219.5t-273 79.5q-29 0 -61 -1t-64 -2.5t-62.5 -3.5t-55.5 -5l49 719h663v-148h-521l-29 -421q32 2 68 3.5t64 1.5
q114 0 204 -30t152.5 -85.5t95 -136t32.5 -180.5z" />
    <glyph glyph-name="six" unicode="6" horiz-adv-x="1104" 
d="M1022 455q0 -105 -34 -193t-94 -152t-143 -99.5t-180 -35.5q-108 0 -193.5 45t-145 129.5t-90.5 206.5t-31 275q0 187 41.5 339.5t118 261t184.5 167.5t241 59q148 0 238 -41v-155q-111 57 -234 57q-96 0 -173 -43t-132 -121.5t-84.5 -189.5t-29.5 -247h4q99 179 327 179
q94 0 169.5 -32t129 -90.5t82.5 -139.5t29 -180zM854 434q0 75 -19 135t-54.5 102t-87.5 64.5t-118 22.5q-61 0 -113 -23t-90 -62.5t-59.5 -92t-21.5 -111.5q0 -74 21 -138.5t59 -112.5t90.5 -75.5t116.5 -27.5q62 0 113 23.5t87 65.5t56 100.5t20 129.5z" />
    <glyph glyph-name="seven" unicode="7" horiz-adv-x="1104" 
d="M1010 1339q-33 -57 -79.5 -142t-98.5 -191t-106 -228t-101 -252t-82.5 -263.5t-51.5 -262.5h-176q18 128 55.5 261.5t85 262t100.5 247.5t103 219t91.5 176.5t66.5 119.5h-719v148h912v-95z" />
    <glyph glyph-name="eight" unicode="8" horiz-adv-x="1104" 
d="M90 400q0 57 18 114.5t51.5 107.5t83 91t112.5 65q-93 52 -148 133.5t-55 180.5q0 79 30.5 146t84.5 116t128 76.5t160 27.5q87 0 161 -28t128 -77t84 -116t30 -145q0 -99 -55 -180.5t-146 -133.5q62 -24 111 -65t82.5 -91t51.5 -107.5t18 -114.5q0 -94 -34 -172
t-95.5 -133.5t-147 -86.5t-188.5 -31q-102 0 -187 31t-147 86.5t-96.5 133.5t-34.5 172zM268 414q0 -67 20.5 -121t58 -92t91 -58.5t118.5 -20.5q63 0 116 21t91.5 59t60 92t21.5 120q0 60 -20.5 112.5t-58.5 92.5t-91 63t-119 23q-62 0 -114.5 -21.5t-91 -60t-60.5 -92
t-22 -117.5zM319 1079q0 -51 18.5 -94.5t51 -76t75.5 -51t92 -18.5t92.5 19t75.5 51.5t51 76t19 93.5q0 52 -18.5 96t-50.5 76t-75.5 50.5t-93.5 18.5q-53 0 -96.5 -19t-75 -51.5t-48.5 -76.5t-17 -94z" />
    <glyph glyph-name="nine" unicode="9" horiz-adv-x="1104" 
d="M1004 803q0 -197 -39 -350.5t-114 -260t-183 -162t-246 -55.5q-142 0 -250 50v157q119 -67 254 -67q97 0 173.5 40t129.5 116.5t81 188.5t28 257h-4q-92 -185 -320 -185q-92 0 -169 32.5t-133 92t-87 141.5t-31 181q0 106 34.5 194t96 151.5t146 98.5t184.5 35
q108 0 191.5 -43.5t140.5 -127t87 -205.5t30 -279zM827 950q0 83 -21.5 151t-59.5 116.5t-90.5 75t-114.5 26.5q-59 0 -110 -23.5t-88.5 -66t-59 -101t-21.5 -127.5q0 -76 20.5 -136t58.5 -101.5t91.5 -63.5t118.5 -22q57 0 107.5 21.5t88 58t59 86t21.5 106.5z" />
    <glyph glyph-name="colon" unicode=":" horiz-adv-x="444" 
d="M223 824q-46 0 -78.5 33t-32.5 79t32.5 78t78.5 32q47 0 80 -32t33 -78t-33 -79t-80 -33zM223 -22q-46 0 -78.5 33t-32.5 79t32.5 79.5t78.5 33.5q47 0 80 -33.5t33 -79.5t-33 -79t-80 -33z" />
    <glyph glyph-name="semicolon" unicode=";" horiz-adv-x="444" 
d="M226 824q-47 0 -79.5 33t-32.5 79t32.5 78t79.5 32q46 0 79 -32t33 -78t-33 -79t-79 -33zM316 228l-160 -492h-117l117 492h160z" />
    <glyph glyph-name="less" unicode="&#x3c;" horiz-adv-x="1401" 
d="M1132 127l-860 432v59l860 482v-150l-642 -356v-4l642 -314v-149z" />
    <glyph glyph-name="equal" unicode="=" horiz-adv-x="1401" 
d="M1172 744h-940v132h940v-132zM1172 318h-940v132h940v-132z" />
    <glyph glyph-name="greater" unicode="&#x3e;" horiz-adv-x="1401" 
d="M1132 559l-860 -432v149l644 312v6l-644 356v150l860 -482v-59z" />
    <glyph glyph-name="question" unicode="?" horiz-adv-x="918" 
d="M335 398q-9 26 -16 67.5t-7 82.5q0 64 25.5 115.5t63.5 96.5t83 86.5t83 84t63.5 89t25.5 102.5q0 48 -18.5 85t-50.5 62t-74 37.5t-89 12.5q-169 0 -293 -133v176q153 96 317 96q76 0 143 -20t117.5 -59.5t79.5 -98.5t29 -137q0 -74 -26 -132t-65.5 -106.5t-85.5 -90.5
t-85.5 -83.5t-65.5 -86.5t-26 -99q0 -46 11 -83.5t22 -63.5h-161zM425 -18q-44 0 -78 32q-33 32 -33 78q0 47 33 78q33 33 78 33t78 -33q33 -31 33 -78q0 -46 -33 -78q-34 -32 -78 -32z" />
    <glyph glyph-name="at" unicode="@" horiz-adv-x="1956" 
d="M1164 420h-5q-73 -238 -287 -238q-137 0 -220.5 101t-83.5 272q0 226 115.5 375.5t303.5 149.5q72 0 128.5 -37t72.5 -93h4q2 28 10 115h125q-47 -551 -47 -561q0 -207 119 -207q108 0 179.5 117t71.5 303q0 275 -174 449t-482 174q-297 0 -491 -208t-194 -520
q0 -307 184.5 -495.5t497.5 -188.5q247 0 422 82v-124q-173 -74 -432 -74q-364 0 -586.5 219.5t-222.5 574.5q0 366 233.5 607t596.5 241q340 0 563 -202t223 -527q0 -238 -117.5 -390.5t-286.5 -152.5q-219 0 -220 238zM985 964q-124 0 -200.5 -118t-76.5 -293
q0 -118 51.5 -186t137.5 -68q124 0 196.5 123.5t72.5 327.5q0 214 -181 214z" />
    <glyph glyph-name="A" unicode="A" horiz-adv-x="1321" 
d="M1298 0h-186l-152 402h-608l-143 -402h-187l550 1434h174zM905 553l-225 611q-11 30 -22 96h-4q-10 -61 -23 -96l-223 -611h497z" />
    <glyph glyph-name="B" unicode="B" horiz-adv-x="1174" 
d="M188 0v1434h408q186 0 295 -91t109 -237q0 -122 -66 -212t-182 -128v-4q145 -17 232 -109.5t87 -240.5q0 -184 -132 -298t-333 -114h-418zM356 1282v-463h172q138 0 217 66.5t79 187.5q0 209 -275 209h-193zM356 668v-516h228q148 0 229.5 70t81.5 192q0 254 -346 254
h-193z" />
    <glyph glyph-name="C" unicode="C" horiz-adv-x="1268" 
d="M1164 60q-159 -84 -396 -84q-306 0 -490 197t-184 517q0 344 207 556t525 212q204 0 338 -59v-179q-154 86 -340 86q-247 0 -400.5 -165t-153.5 -441q0 -262 143.5 -417.5t376.5 -155.5q216 0 374 96v-163z" />
    <glyph glyph-name="D" unicode="D" horiz-adv-x="1436" 
d="M188 0v1434h396q758 0 758 -699q0 -332 -210.5 -533.5t-563.5 -201.5h-380zM356 1282v-1130h214q282 0 439 151t157 428q0 551 -586 551h-224z" />
    <glyph glyph-name="E" unicode="E" horiz-adv-x="1036" 
d="M948 0h-760v1434h728v-152h-560v-477h518v-151h-518v-502h592v-152z" />
    <glyph glyph-name="F" unicode="F" horiz-adv-x="1000" 
d="M916 1282h-560v-496h518v-151h-518v-635h-168v1434h728v-152z" />
    <glyph glyph-name="G" unicode="G" horiz-adv-x="1405" 
d="M1260 98q-216 -122 -480 -122q-307 0 -496.5 198t-189.5 524q0 333 210.5 546.5t533.5 213.5q234 0 393 -76v-186q-174 110 -412 110q-241 0 -395 -166t-154 -430q0 -272 143 -427.5t388 -155.5q168 0 291 67v402h-314v152h482v-650z" />
    <glyph glyph-name="H" unicode="H" horiz-adv-x="1454" 
d="M1266 0h-168v654h-742v-654h-168v1434h168v-629h742v629h168v-1434z" />
    <glyph glyph-name="I" unicode="I" horiz-adv-x="545" 
d="M496 1434v-144h-140v-1146h140v-144h-448v144h140v1146h-140v144h448z" />
    <glyph glyph-name="J" unicode="J" horiz-adv-x="731" 
d="M555 514q0 -255 -108 -396.5t-289 -141.5q-84 0 -138 24v166q54 -39 140 -39q227 0 227 385v922h168v-920z" />
    <glyph glyph-name="K" unicode="K" horiz-adv-x="1188" 
d="M1186 0h-234l-554 656q-31 37 -38 50h-4v-706h-168v1434h168v-674h4q14 22 38 49l536 625h209l-615 -688z" />
    <glyph glyph-name="L" unicode="L" horiz-adv-x="964" 
d="M932 0h-744v1434h168v-1282h576v-152z" />
    <glyph glyph-name="M" unicode="M" horiz-adv-x="1839" 
d="M1650 0h-167v962q0 114 14 279h-4q-24 -97 -43 -139l-490 -1102h-82l-489 1094q-21 48 -43 147h-4q8 -86 8 -281v-960h-162v1434h222l440 -1000q51 -115 66 -172h6q43 118 69 176l449 996h210v-1434z" />
    <glyph glyph-name="N" unicode="N" horiz-adv-x="1532" 
d="M1344 0h-206l-738 1143q-28 43 -46 90h-6q8 -46 8 -197v-1036h-168v1434h218l718 -1125q45 -70 58 -96h4q-10 62 -10 211v1010h168v-1434z" />
    <glyph glyph-name="O" unicode="O" horiz-adv-x="1544" 
d="M766 -24q-305 0 -488.5 201t-183.5 523q0 346 187 552t509 206q297 0 478.5 -200t181.5 -523q0 -351 -186 -555t-498 -204zM778 1306q-226 0 -367 -163t-141 -428t137.5 -426.5t358.5 -161.5q236 0 372 154t136 431q0 284 -132 439t-364 155z" />
    <glyph glyph-name="P" unicode="P" horiz-adv-x="1147" 
d="M356 542v-542h-168v1434h394q230 0 356.5 -112t126.5 -316t-140.5 -334t-379.5 -130h-189zM356 1282v-588h176q174 0 265.5 79.5t91.5 224.5q0 284 -336 284h-197z" />
    <glyph glyph-name="Q" unicode="Q" horiz-adv-x="1544" 
d="M756 -24q-64 0 -130 12.5t-128 38t-118.5 63t-102.5 87.5q-183 200 -183 523q0 347 186 552q188 206 514 206q292 0 474 -200t182 -523q0 -136 -30.5 -256.5t-92.5 -217.5t-156 -164.5t-222 -96.5q52 -56 97.5 -99t91 -72.5t94.5 -44.5t108 -15q16 0 35 1.5t38.5 5
t37.5 8t33 10.5v-162q-16 -5 -36 -8.5t-40.5 -6t-40.5 -4t-37 -1.5q-96 0 -172.5 28.5t-143 78t-128.5 115.5t-130 142zM778 1306q-226 0 -367 -163t-141 -428q0 -264 137 -427q138 -161 359 -161q236 0 372 154t136 431q0 285 -132 439q-132 155 -364 155z" />
    <glyph glyph-name="R" unicode="R" horiz-adv-x="1225" 
d="M1216 0h-200l-240 402q-33 56 -64 95.5t-63.5 64.5t-70 36.5t-84.5 11.5h-138v-610h-168v1434h428q94 0 173.5 -23.5t138 -71.5t91.5 -119.5t33 -167.5q0 -75 -22.5 -137.5t-64 -111.5t-100 -83.5t-131.5 -53.5v-4q36 -16 62.5 -36.5t50.5 -48.5t47.5 -63.5t52.5 -82.5z
M356 1282v-520h228q63 0 116.5 19t92.5 54.5t61 87t22 115.5q0 115 -74.5 179.5t-215.5 64.5h-230z" />
    <glyph glyph-name="S" unicode="S" horiz-adv-x="1088" 
d="M121 58v198q34 -30 81.5 -54t100 -40.5t105.5 -25.5t98 -9q155 0 231.5 57.5t76.5 165.5q0 58 -25.5 101t-70.5 78.5t-106.5 68t-132.5 68.5q-75 38 -140 77t-113 86t-75.5 106.5t-27.5 139.5q0 98 43 170.5t113 119.5t159.5 70t182.5 23q212 0 309 -51v-189
q-127 88 -326 88q-55 0 -110 -11.5t-98 -37.5t-70 -67t-27 -100q0 -55 20.5 -95t60.5 -73t97.5 -64t132.5 -68q77 -38 146 -80t121 -93t82.5 -113t30.5 -142q0 -106 -41.5 -179.5t-112 -119.5t-162.5 -66.5t-194 -20.5q-34 0 -84 5.5t-102 16t-98.5 26t-74.5 34.5z" />
    <glyph glyph-name="T" unicode="T" horiz-adv-x="1073" 
d="M1036 1282h-414v-1282h-168v1282h-413v152h995v-152z" />
    <glyph glyph-name="U" unicode="U" horiz-adv-x="1407" 
d="M1237 580q0 -604 -545 -604q-522 0 -522 581v877h168v-866q0 -441 372 -441q359 0 359 426v881h168v-854z" />
    <glyph glyph-name="V" unicode="V" horiz-adv-x="1272" 
d="M1254 1434l-531 -1434h-185l-520 1434h187l397 -1137q19 -55 29 -127h4q8 60 33 129l405 1135h181z" />
    <glyph glyph-name="W" unicode="W" horiz-adv-x="1913" 
d="M1888 1434l-405 -1434h-197l-295 1048q-19 67 -23 146h-4q-6 -74 -26 -144l-297 -1050h-195l-420 1434h185l305 -1100q19 -69 24 -144h5q5 53 31 144l317 1100h161l304 -1108q16 -57 24 -134h4q4 52 27 138l293 1104h182z" />
    <glyph glyph-name="X" unicode="X" horiz-adv-x="1208" 
d="M1178 0h-205l-330 549q-15 25 -33 71h-4q-10 -23 -34 -71l-340 -549h-206l480 721l-442 713h206l293 -504q29 -50 51 -100h4q32 66 56 104l305 500h193l-451 -711z" />
    <glyph glyph-name="Y" unicode="Y" horiz-adv-x="1132" 
d="M1120 1434l-473 -904v-530h-168v526l-461 908h191l321 -648q6 -12 35 -88h3q10 34 38 88l336 648h178z" />
    <glyph glyph-name="Z" unicode="Z" horiz-adv-x="1168" 
d="M1124 1394l-840 -1242h820v-152h-1071v47l833 1235h-766v152h1024v-40z" />
    <glyph glyph-name="bracketleft" unicode="[" horiz-adv-x="618" 
d="M568 -326h-368v1760h368v-119h-222v-1522h222v-119z" />
    <glyph glyph-name="backslash" unicode="\" horiz-adv-x="776" 
d="M798 -240h-151l-673 1674h155z" />
    <glyph glyph-name="bracketright" unicode="]" horiz-adv-x="618" 
d="M420 -326h-367v119h221v1522h-221v119h367v-1760z" />
    <glyph glyph-name="asciicircum" unicode="^" horiz-adv-x="1401" 
d="M1174 624h-150l-332 619h-6l-309 -619h-147l422 834h65z" />
    <glyph glyph-name="underscore" unicode="_" horiz-adv-x="850" 
d="M850 -297h-850v119h850v-119z" />
    <glyph glyph-name="grave" unicode="`" horiz-adv-x="549" 
d="M471 1218h-127l-262 328h168z" />
    <glyph glyph-name="a" unicode="a" horiz-adv-x="1042" 
d="M899 0h-164v160h-4q-107 -184 -315 -184q-153 0 -239.5 81t-86.5 215q0 287 338 334l307 43q0 261 -211 261q-185 0 -334 -126v168q151 96 348 96q361 0 361 -382v-666zM735 518l-247 -34q-114 -16 -172 -56.5t-58 -143.5q0 -75 53.5 -122.5t142.5 -47.5
q122 0 201.5 85.5t79.5 216.5v102z" />
    <glyph glyph-name="b" unicode="b" horiz-adv-x="1204" 
d="M334 148h-4v-148h-164v1516h164v-672h4q121 204 354 204q197 0 308.5 -137.5t111.5 -368.5q0 -257 -125 -411.5t-342 -154.5q-203 0 -307 172zM330 561v-143q0 -127 82.5 -215.5t209.5 -88.5q149 0 233.5 114t84.5 317q0 171 -79 268t-214 97q-143 0 -230 -99.5
t-87 -249.5z" />
    <glyph glyph-name="c" unicode="c" horiz-adv-x="946" 
d="M864 47q-118 -71 -280 -71q-219 0 -353.5 142.5t-134.5 369.5q0 253 145 406.5t387 153.5q135 0 238 -50v-168q-114 80 -244 80q-157 0 -257.5 -112.5t-100.5 -295.5q0 -180 94.5 -284t253.5 -104q134 0 252 89v-156z" />
    <glyph glyph-name="d" unicode="d" horiz-adv-x="1206" 
d="M1040 0h-164v174h-4q-114 -198 -352 -198q-193 0 -308.5 137.5t-115.5 374.5q0 254 128 407t341 153q211 0 307 -166h4v634h164v-1516zM876 463v151q0 124 -82 210t-208 86q-150 0 -236 -110t-86 -304q0 -177 82.5 -279.5t221.5 -102.5q137 0 222.5 99t85.5 250z" />
    <glyph glyph-name="e" unicode="e" horiz-adv-x="1071" 
d="M989 471h-723q4 -171 92 -264t242 -93q173 0 318 114v-154q-135 -98 -357 -98q-217 0 -341 139.5t-124 392.5q0 239 135.5 389.5t336.5 150.5t311 -130t110 -361v-86zM821 610q-1 142 -68.5 221t-187.5 79q-116 0 -197 -83t-100 -217h553z" />
    <glyph glyph-name="f" unicode="f" horiz-adv-x="641" 
d="M672 1372q-48 27 -109 27q-172 0 -172 -217v-158h240v-140h-240v-884h-163v884h-175v140h175v166q0 161 93 254.5t232 93.5q75 0 119 -18v-148z" />
    <glyph glyph-name="g" unicode="g" horiz-adv-x="1206" 
d="M1040 82q0 -564 -540 -564q-190 0 -332 72v164q173 -96 330 -96q378 0 378 402v112h-4q-117 -196 -352 -196q-191 0 -307.5 136.5t-116.5 366.5q0 261 125.5 415t343.5 154q207 0 307 -166h4v142h164v-942zM876 463v151q0 122 -82.5 209t-205.5 87q-152 0 -238 -110.5
t-86 -309.5q0 -171 82.5 -273.5t218.5 -102.5q138 0 224.5 98t86.5 251z" />
    <glyph glyph-name="h" unicode="h" horiz-adv-x="1159" 
d="M1016 0h-164v590q0 320 -238 320q-120 0 -202 -92.5t-82 -237.5v-580h-164v1516h164v-662h4q118 194 336 194q346 0 346 -417v-631z" />
    <glyph glyph-name="i" unicode="i" horiz-adv-x="496" 
d="M250 1284q-44 0 -75 30t-31 76t31 76.5t75 30.5q45 0 76.5 -30.5t31.5 -76.5q0 -44 -31.5 -75t-76.5 -31zM330 0h-164v1024h164v-1024z" />
    <glyph glyph-name="j" unicode="j" horiz-adv-x="496" 
d="M330 43q0 -252 -101.5 -388.5t-290.5 -136.5q-70 0 -136 32v153q74 -45 140 -45q224 0 224 358v1008h164v-981zM250 1284q-44 0 -75 30t-31 76t31 76.5t75 30.5q45 0 76.5 -30.5t31.5 -76.5q0 -44 -31.5 -75t-76.5 -31z" />
    <glyph glyph-name="k" unicode="k" horiz-adv-x="1018" 
d="M1016 0h-230l-452 492h-4v-492h-164v1516h164v-961h4l430 469h215l-475 -494z" />
    <glyph glyph-name="l" unicode="l" horiz-adv-x="496" 
d="M330 0h-164v1516h164v-1516z" />
    <glyph glyph-name="m" unicode="m" horiz-adv-x="1764" 
d="M1620 0h-164v588q0 170 -52.5 246t-176.5 76q-105 0 -178.5 -96t-73.5 -230v-584h-164v608q0 302 -233 302q-108 0 -178 -90.5t-70 -235.5v-584h-164v1024h164v-162h4q109 186 318 186q105 0 183 -58.5t107 -153.5q114 212 340 212q338 0 338 -417v-631z" />
    <glyph glyph-name="n" unicode="n" horiz-adv-x="1159" 
d="M1016 0h-164v584q0 326 -238 326q-123 0 -203.5 -92.5t-80.5 -233.5v-584h-164v1024h164v-170h4q116 194 336 194q168 0 257 -108.5t89 -313.5v-626z" />
    <glyph glyph-name="o" unicode="o" horiz-adv-x="1200" 
d="M594 -24q-227 0 -362.5 143.5t-135.5 380.5q0 258 141 403t381 145q229 0 357.5 -141t128.5 -391q0 -245 -138.5 -392.5t-371.5 -147.5zM606 910q-158 0 -250 -107.5t-92 -296.5q0 -182 93 -287t249 -105q159 0 244.5 103t85.5 293q0 192 -85.5 296t-244.5 104z" />
    <glyph glyph-name="p" unicode="p" horiz-adv-x="1204" 
d="M334 148h-4v-619h-164v1495h164v-180h4q121 204 354 204q198 0 309 -137.5t111 -368.5q0 -257 -125 -411.5t-342 -154.5q-199 0 -307 172zM330 561v-143q0 -127 82.5 -215.5t209.5 -88.5q149 0 233.5 114t84.5 317q0 171 -79 268t-214 97q-143 0 -230 -99.5t-87 -249.5z
" />
    <glyph glyph-name="q" unicode="q" horiz-adv-x="1206" 
d="M1040 -471h-164v647h-4q-107 -200 -350 -200q-193 0 -309.5 137.5t-116.5 374.5q0 255 128 407.5t344 152.5q210 0 304 -166h4v142h164v-1495zM876 461v149q0 126 -82.5 213t-209.5 87q-148 0 -234 -109.5t-86 -308.5q0 -177 83 -277.5t214 -100.5q144 0 229.5 98.5
t85.5 248.5z" />
    <glyph glyph-name="r" unicode="r" horiz-adv-x="712" 
d="M700 858q-43 33 -124 33q-105 0 -175.5 -99t-70.5 -270v-522h-164v1024h164v-211h4q35 108 107 168.5t161 60.5q64 0 98 -14v-170z" />
    <glyph glyph-name="s" unicode="s" horiz-adv-x="869" 
d="M104 37v176q134 -99 295 -99q216 0 216 144q0 41 -18.5 69.5t-50 50.5t-74 39.5t-91.5 36.5q-68 27 -119.5 54.5t-86 62t-52 78.5t-17.5 103q0 72 33 127.5t88 93t125.5 56.5t145.5 19q133 0 238 -46v-166q-113 74 -260 74q-46 0 -83 -10.5t-63.5 -29.5t-41 -45.5
t-14.5 -58.5q0 -40 14.5 -67t42.5 -48t68 -38t91 -37q68 -26 122 -53.5t92 -62t58.5 -79.5t20.5 -107q0 -76 -33.5 -132t-89.5 -93t-129 -55t-153 -18q-158 0 -274 61z" />
    <glyph glyph-name="t" unicode="t" horiz-adv-x="694" 
d="M641 10q-58 -32 -153 -32q-269 0 -269 300v606h-176v140h176v250l164 53v-303h258v-140h-258v-577q0 -103 35 -147t116 -44q62 0 107 34v-140z" />
    <glyph glyph-name="u" unicode="u" horiz-adv-x="1159" 
d="M994 0h-164v162h-4q-102 -186 -316 -186q-366 0 -366 436v612h163v-586q0 -324 248 -324q120 0 197.5 88.5t77.5 231.5v590h164v-1024z" />
    <glyph glyph-name="v" unicode="v" horiz-adv-x="981" 
d="M971 1024l-408 -1024h-161l-388 1024h180l260 -744q29 -82 36 -143h4q10 77 32 139l272 748h173z" />
    <glyph glyph-name="w" unicode="w" horiz-adv-x="1480" 
d="M1456 1024l-307 -1024h-170l-211 733q-12 42 -16 95h-4q-3 -36 -21 -93l-229 -735h-164l-310 1024h172l212 -770q10 -35 14 -92h8q3 44 18 94l236 768h150l212 -772q10 -37 15 -92h8q2 39 17 92l208 772h162z" />
    <glyph glyph-name="x" unicode="x" horiz-adv-x="940" 
d="M914 1024l-344 -518l338 -506h-191l-201 332q-19 31 -45 78h-4q-5 -9 -47 -78l-205 -332h-189l349 502l-334 522h191l198 -350q22 -39 43 -80h4l256 430h181z" />
    <glyph glyph-name="y" unicode="y" horiz-adv-x="991" 
d="M981 1024l-471 -1188q-126 -318 -354 -318q-64 0 -107 13v147q53 -18 97 -18q124 0 186 148l82 194l-400 1022h182l277 -788q5 -15 21 -78h6q5 24 20 76l291 790h170z" />
    <glyph glyph-name="z" unicode="z" horiz-adv-x="926" 
d="M880 977l-606 -837h600v-140h-841v51l606 833h-549v140h790v-47z" />
    <glyph glyph-name="braceleft" unicode="{" horiz-adv-x="618" 
d="M555 -326q-307 4 -307 310v300q0 202 -156 212v116q156 10 156 216v292q0 310 307 314v-128q-159 -4 -159 -198v-293q0 -210 -150 -258v-4q150 -45 150 -256v-289q0 -111 35.5 -158.5t123.5 -49.5v-126z" />
    <glyph glyph-name="bar" unicode="|" horiz-adv-x="490" 
d="M320 -482h-148v2048h148v-2048z" />
    <glyph glyph-name="braceright" unicode="}" horiz-adv-x="618" 
d="M528 496q-156 -10 -156 -212v-300q0 -306 -306 -310v126q87 2 123.5 50t36.5 158v289q0 211 149 256v4q-149 48 -149 258v293q0 194 -160 198v128q306 -4 306 -314v-292q0 -206 156 -216v-116z" />
    <glyph glyph-name="asciitilde" unicode="~" horiz-adv-x="1401" 
d="M1194 750q-7 -148 -80.5 -229t-199.5 -81q-109 0 -265 109q-97 67 -159 67q-140 0 -146 -176h-135q5 143 79.5 226.5t201.5 83.5q106 0 235 -88q132 -90 197 -90q61 0 98 49t39 129h135z" />
    <glyph glyph-name="exclamdown" unicode="&#xa1;" horiz-adv-x="582" 
d="M291 826q-46 0 -78.5 32t-32.5 78t32.5 78t78.5 32q45 0 78 -32t33 -78t-33 -78t-78 -32zM379 -406h-172l19 1030h134z" />
    <glyph glyph-name="cent" unicode="&#xa2;" horiz-adv-x="1104" 
d="M952 209q-96 -59 -221 -69v-189h-125v191q-193 22 -307.5 161t-114.5 346q0 219 114.5 366.5t307.5 184.5v213h125v-203q123 -2 221 -51v-172q-101 71 -221 78v-785q122 12 221 86v-157zM606 291v761q-119 -31 -186.5 -133.5t-67.5 -252.5t68 -249t186 -126z" />
    <glyph glyph-name="sterling" unicode="&#xa3;" horiz-adv-x="1104" 
d="M1006 0h-900v135q218 69 218 313v187h-197v141h197v254q0 188 109 308t282 120q117 0 213 -41v-155q-100 57 -211 57q-229 0 -229 -307v-236h296v-141h-296v-156q0 -242 -193 -339h711v-140z" />
    <glyph glyph-name="currency" unicode="&#xa4;" horiz-adv-x="1138" 
d="M1038 354l-92 -96l-137 138q-105 -76 -239 -76q-136 0 -240 76l-138 -138l-92 96l138 134q-76 113 -76 237q0 129 76 237l-138 136l92 96l138 -137q110 77 240 77q129 0 237 -77l139 137l92 -96l-137 -136q78 -112 78 -237q0 -121 -78 -237zM570 1002q-116 0 -195.5 -81
t-79.5 -194t80.5 -194t194.5 -81q113 0 194.5 81t81.5 194t-83 194t-193 81z" />
    <glyph glyph-name="yen" unicode="&#xa5;" horiz-adv-x="1104" 
d="M1042 1434l-356 -656h285v-139h-334v-207h334v-139h-334v-293h-164v293h-344v139h344v207h-344v139h291l-352 656h192l250 -514q28 -58 47 -111h4q13 42 49 117l252 508h180z" />
    <glyph glyph-name="brokenbar" unicode="&#xa6;" horiz-adv-x="490" 
d="M320 715h-148v851h148v-851zM320 -482h-148v852h148v-852z" />
    <glyph glyph-name="section" unicode="&#xa7;" horiz-adv-x="918" 
d="M658 416q90 -74 90 -186q0 -132 -100 -214t-255 -82q-131 0 -239 56v158q130 -74 250 -74q84 0 130 39.5t46 99.5q0 53 -35.5 89.5t-180.5 113.5q-233 122 -233 317q0 163 147 244q-106 83 -106 223q0 127 93.5 209t246.5 82q130 0 219 -43v-158q-101 62 -223 62
q-168 0 -168 -144q0 -55 40.5 -100t203.5 -123q223 -107 223 -293q0 -170 -149 -276zM398 905q-101 -51 -101 -159q0 -72 56.5 -126.5t197.5 -117.5q88 68 88 172q0 72 -52.5 122.5t-188.5 108.5z" />
    <glyph glyph-name="dieresis" unicode="&#xa8;" horiz-adv-x="848" 
d="M610 1218q-40 0 -69 28t-29 71q0 42 28 70t68 28q42 0 71 -28.5t29 -69.5t-28 -70t-70 -29zM226 1218q-42 0 -71.5 29.5t-29.5 69.5q0 42 28.5 70t69.5 28t71 -28.5t30 -69.5t-29 -70t-69 -29z" />
    <glyph glyph-name="copyright" unicode="&#xa9;" horiz-adv-x="1823" 
d="M912 -33q-311 0 -530.5 219.5t-219.5 530.5t219.5 530.5t530.5 219.5q310 0 529.5 -219.5t219.5 -530.5t-219.5 -530.5t-529.5 -219.5zM912 1379q-274 0 -468 -194t-194 -468t194 -467.5t468 -193.5t467.5 193.5t193.5 467.5t-193.5 468t-467.5 194zM1213 266
q-114 -69 -269 -69q-209 0 -350 141.5t-141 353.5q0 247 144.5 394t375.5 147q132 0 236 -53v-150q-95 72 -254 72q-156 0 -257.5 -106.5t-101.5 -286.5q0 -174 103.5 -279.5t263.5 -105.5q146 0 250 78v-136z" />
    <glyph glyph-name="ordfeminine" unicode="&#xaa;" horiz-adv-x="803" 
d="M688 717h-129v100h-4q-79 -119 -231 -119q-109 0 -175.5 59.5t-66.5 152.5q0 202 248 235l229 31q0 168 -151 168q-136 0 -254 -86v128q111 70 266 70q126 0 197 -72t71 -202v-465zM559 1075l-180 -25q-168 -23 -168 -134q0 -51 38.5 -83t102.5 -32q82 0 144.5 61
t62.5 146v67z" />
    <glyph glyph-name="guillemotleft" unicode="&#xab;" horiz-adv-x="1036" 
d="M946 200h-168l-299 336l299 344h170l-307 -344zM557 200h-166l-299 336l299 344h166l-303 -344z" />
    <glyph glyph-name="logicalnot" unicode="&#xac;" horiz-adv-x="1401" 
d="M1172 254h-132v430h-808v133h940v-563z" />
    <glyph glyph-name="registered" unicode="&#xae;" horiz-adv-x="1823" 
d="M912 -33q-311 0 -530.5 219.5t-219.5 530.5t219.5 530.5t530.5 219.5q310 0 529.5 -219.5t219.5 -530.5t-219.5 -530.5t-529.5 -219.5zM912 1379q-274 0 -468 -194t-194 -468t194 -467.5t468 -193.5t467.5 193.5t193.5 467.5t-193.5 468t-467.5 194zM1276 248h-162
l-104 229q-79 172 -170 172h-88v-401h-133v954h268q167 0 257.5 -70t90.5 -190q0 -98 -63.5 -167t-177.5 -93v-4q79 -17 157 -176zM752 1088v-326h143q197 0 197 164q0 88 -53 125t-168 37h-119z" />
    <glyph glyph-name="macron" unicode="&#xaf;" horiz-adv-x="850" 
d="M850 1396h-850v120h850v-120z" />
    <glyph glyph-name="degree" unicode="&#xb0;" horiz-adv-x="772" 
d="M385 897q-115 0 -196 81.5t-81 197.5q0 115 80 194.5t195 79.5q116 0 197.5 -80t81.5 -194q0 -116 -81 -197.5t-196 -81.5zM385 1333q-65 0 -111 -46t-46 -111q0 -67 45 -114.5t110 -47.5t112 48t47 114t-46 111.5t-111 45.5z" />
    <glyph glyph-name="plusminus" unicode="&#xb1;" horiz-adv-x="1401" 
d="M1172 652h-404v-404h-131v404h-405v132h405v404h131v-404h404v-132zM1172 0h-940v133h940v-133z" />
    <glyph glyph-name="uni00B2" unicode="&#xb2;" horiz-adv-x="750" 
d="M658 884h-554v114l240 236q104 102 132 156.5t28 109.5q0 58 -38 94.5t-100 36.5q-118 0 -216 -102v149q84 76 235 76q118 0 187 -66t69 -174q0 -153 -205 -348l-164 -156v-4h386v-122z" />
    <glyph glyph-name="uni00B3" unicode="&#xb3;" horiz-adv-x="750" 
d="M129 916v142q103 -76 217 -76q80 0 126 37.5t46 101.5q0 141 -219 141h-84v118h80q197 0 197 134q0 119 -144 119q-94 0 -186 -69v139q87 51 213 51q113 0 180 -59.5t67 -155.5q0 -151 -145 -205v-4q177 -42 177 -202q0 -117 -85 -191t-227 -74q-137 0 -213 53z" />
    <glyph glyph-name="acute" unicode="&#xb4;" horiz-adv-x="578" 
d="M524 1546l-262 -328h-127l223 328h166z" />
    <glyph glyph-name="mu" unicode="&#xb5;" horiz-adv-x="1182" 
d="M1048 0h-170q-23 72 -23 168h-5q-84 -191 -279 -191q-167 0 -238 123h-4v-496h-163v1420h163v-626q0 -127 69 -202t180 -75q121 0 196.5 86t75.5 231v586h166v-759q0 -188 32 -265z" />
    <glyph glyph-name="paragraph" unicode="&#xb6;" horiz-adv-x="938" 
d="M834 1331h-128v-1331h-106v1331h-158v-1331h-108v903q-108 0 -179 76t-71 191q0 117 74.5 190.5t181.5 73.5h494v-103z" />
    <glyph glyph-name="periodcentered" unicode="&#xb7;" horiz-adv-x="444" 
d="M223 510q-46 0 -78.5 33t-32.5 79q0 47 32.5 80t78.5 33q47 0 80 -33t33 -80q0 -46 -33 -79t-80 -33z" />
    <glyph glyph-name="cedilla" unicode="&#xb8;" horiz-adv-x="420" 
d="M391 -256q0 -176 -275 -176q-38 0 -65 2v90q43 -6 70 -6q141 0 141 90q0 78 -129 78q-10 0 -41 -4v182h108v-104q88 0 139.5 -40t51.5 -112z" />
    <glyph glyph-name="uni00B9" unicode="&#xb9;" horiz-adv-x="719" 
d="M639 884h-504v112h185v594l-193 -55v125l323 96v-760h189v-112z" />
    <glyph glyph-name="ordmasculine" unicode="&#xba;" horiz-adv-x="882" 
d="M436 696q-167 0 -262.5 100.5t-95.5 272.5q0 181 102.5 283t271.5 102q163 0 257 -99.5t94 -270.5q0 -178 -99.5 -283t-267.5 -105zM444 1344q-106 0 -168.5 -72t-62.5 -199q0 -124 59.5 -194t169.5 -70q105 0 166.5 71.5t61.5 194.5q0 126 -60.5 197.5t-165.5 71.5z" />
    <glyph glyph-name="guillemotright" unicode="&#xbb;" horiz-adv-x="1036" 
d="M948 538l-301 -338h-165l302 338l-302 342h165zM559 538l-299 -338h-170l308 338l-308 342h170z" />
    <glyph glyph-name="onequarter" unicode="&#xbc;" horiz-adv-x="1856" 
d="M639 584h-504v112h185v594l-193 -55v125l323 96v-760h189v-112zM1393 1434l-858 -1434h-144l859 1434h143zM1706 204h-110v-204h-132v204h-393v92l369 554h156v-537h110v-109zM1468 724h-4q-12 -31 -38 -73l-218 -338h256v323q0 32 4 88z" />
    <glyph glyph-name="onehalf" unicode="&#xbd;" horiz-adv-x="1906" 
d="M639 584h-504v112h185v594l-193 -55v125l323 96v-760h189v-112zM1393 1434l-858 -1434h-144l859 1434h143zM1748 1h-554v114l240 236q104 102 132 156.5t28 109.5q0 58 -38 94.5t-100 36.5q-118 0 -216 -102v149q84 76 235 76q118 0 187 -66t69 -174q0 -153 -205 -348
l-164 -156v-4h386v-122z" />
    <glyph glyph-name="threequarters" unicode="&#xbe;" horiz-adv-x="1950" 
d="M129 616v142q103 -76 217 -76q80 0 126 37.5t46 101.5q0 141 -219 141h-84v118h80q197 0 197 134q0 119 -144 119q-94 0 -186 -69v139q87 51 213 51q113 0 180 -59.5t67 -155.5q0 -151 -145 -205v-4q177 -42 177 -202q0 -117 -85 -191t-227 -74q-137 0 -213 53z
M1464 1434l-858 -1434h-144l859 1434h143zM1771 204h-110v-204h-132v204h-393v92l369 554h156v-537h110v-109zM1533 724h-4q-12 -31 -38 -73l-218 -338h256v323q0 32 4 88z" />
    <glyph glyph-name="questiondown" unicode="&#xbf;" horiz-adv-x="918" 
d="M625 630q9 -26 16 -67.5t7 -82.5q0 -64 -25.5 -115.5t-63.5 -96.5t-83 -86.5t-83 -84t-63.5 -89t-25.5 -102.5q0 -48 18.5 -85t50.5 -62t74 -37.5t89 -12.5q169 0 293 133v-176q-153 -96 -317 -96q-76 0 -143 20t-117 59.5t-79.5 98.5t-29.5 137q0 74 26 132t65.5 106.5
t85.5 90.5t85.5 83.5t65.5 86.5t26 99q0 46 -11 83.5t-22 63.5h161zM535 1046q44 0 78 -32q33 -31 33 -78q0 -46 -33 -78q-33 -33 -78 -33t-78 33q-33 32 -33 78q0 47 33 78q34 32 78 32z" />
    <glyph glyph-name="Agrave" unicode="&#xc0;" horiz-adv-x="1321" 
d="M1298 0h-186l-152 402h-608l-143 -402h-187l550 1434h174zM905 553l-225 611q-11 30 -22 96h-4q-10 -61 -23 -96l-223 -611h497zM758 1566h-127l-262 328h168z" />
    <glyph glyph-name="Aacute" unicode="&#xc1;" horiz-adv-x="1321" 
d="M1298 0h-186l-152 402h-608l-143 -402h-187l550 1434h174zM905 553l-225 611q-11 30 -22 96h-4q-10 -61 -23 -96l-223 -611h497zM867 1894l-262 -328h-127l223 328h166z" />
    <glyph glyph-name="Acircumflex" unicode="&#xc2;" horiz-adv-x="1321" 
d="M1298 0h-186l-152 402h-608l-143 -402h-187l550 1434h174zM905 553l-225 611q-11 30 -22 96h-4q-10 -61 -23 -96l-223 -611h497zM927 1565h-122l-164 230l-165 -230h-113l215 332h133z" />
    <glyph glyph-name="Atilde" unicode="&#xc3;" horiz-adv-x="1321" 
d="M1298 0h-186l-152 402h-608l-143 -402h-187l550 1434h174zM905 553l-225 611q-11 30 -22 96h-4q-10 -61 -23 -96l-223 -611h497zM977 1803q0 -105 -48 -171.5t-130 -66.5q-71 0 -162 52q-77 43 -119 43q-88 0 -88 -113h-94q0 107 48 171.5t134 64.5q65 0 149 -52
q74 -44 128 -44q84 0 84 116h98z" />
    <glyph glyph-name="Adieresis" unicode="&#xc4;" horiz-adv-x="1321" 
d="M1298 0h-186l-152 402h-608l-143 -402h-187l550 1434h174zM905 553l-225 611q-11 30 -22 96h-4q-10 -61 -23 -96l-223 -611h497zM840 1565q-40 0 -69 28t-29 71q0 42 28 70t68 28q42 0 71 -28.5t29 -69.5t-28 -70t-70 -29zM456 1565q-42 0 -71.5 29.5t-29.5 69.5
q0 42 28.5 70t69.5 28t71 -28.5t30 -69.5t-29 -70t-69 -29z" />
    <glyph glyph-name="Aring" unicode="&#xc5;" horiz-adv-x="1321" 
d="M1298 0h-186l-152 402h-608l-143 -402h-187l529 1378q-101 52 -101 164q0 89 60 144t152 55q88 0 144 -54.5t56 -138.5q0 -112 -96 -166zM656 1659q-50 0 -82 -31.5t-32 -79.5q0 -114 114 -114q48 0 81 33t33 81q0 49 -33 80t-81 31zM905 553l-225 611q-11 30 -22 96h-4
q-10 -61 -23 -96l-223 -611h497z" />
    <glyph glyph-name="AE" unicode="&#xc6;" horiz-adv-x="1762" 
d="M1667 0h-759v402h-510l-193 -402h-195l700 1434h924v-152h-559v-477h519v-151h-519v-502h592v-152zM908 553v729h-95l-346 -729h441z" />
    <glyph glyph-name="Ccedilla" unicode="&#xc7;" horiz-adv-x="1268" 
d="M1164 60q-159 -84 -396 -84q-306 0 -490 197t-184 517q0 344 207 556t525 212q204 0 338 -59v-179q-154 86 -340 86q-247 0 -400.5 -165t-153.5 -441q0 -262 143.5 -417.5t376.5 -155.5q216 0 374 96v-163zM960 -256q0 -176 -275 -176q-38 0 -65 2v90q43 -6 70 -6
q141 0 141 90q0 78 -129 78q-10 0 -41 -4v182h108v-104q88 0 139.5 -40t51.5 -112z" />
    <glyph glyph-name="Egrave" unicode="&#xc8;" horiz-adv-x="1036" 
d="M948 0h-760v1434h728v-152h-560v-477h518v-151h-518v-502h592v-152zM703 1566h-127l-262 328h168z" />
    <glyph glyph-name="Eacute" unicode="&#xc9;" horiz-adv-x="1036" 
d="M948 0h-760v1434h728v-152h-560v-477h518v-151h-518v-502h592v-152zM803 1893l-262 -328h-127l223 328h166z" />
    <glyph glyph-name="Ecircumflex" unicode="&#xca;" horiz-adv-x="1036" 
d="M948 0h-760v1434h728v-152h-560v-477h518v-151h-518v-502h592v-152zM827 1567h-122l-164 230l-165 -230h-113l215 332h133z" />
    <glyph glyph-name="Edieresis" unicode="&#xcb;" horiz-adv-x="1036" 
d="M948 0h-760v1434h728v-152h-560v-477h518v-151h-518v-502h592v-152zM749 1566q-40 0 -69 28t-29 71q0 42 28 70t68 28q42 0 71 -28.5t29 -69.5t-28 -70t-70 -29zM365 1566q-42 0 -71.5 29.5t-29.5 69.5q0 42 28.5 70t69.5 28t71 -28.5t30 -69.5t-29 -70t-69 -29z" />
    <glyph glyph-name="Igrave" unicode="&#xcc;" horiz-adv-x="545" 
d="M496 1434v-144h-140v-1146h140v-144h-448v144h140v1146h-140v144h448zM416 1566h-127l-262 328h168z" />
    <glyph glyph-name="Iacute" unicode="&#xcd;" horiz-adv-x="545" 
d="M496 1434v-144h-140v-1146h140v-144h-448v144h140v1146h-140v144h448zM509 1894l-262 -328h-127l223 328h166z" />
    <glyph glyph-name="Icircumflex" unicode="&#xce;" horiz-adv-x="545" 
d="M496 1434v-144h-140v-1146h140v-144h-448v144h140v1146h-140v144h448zM560 1567h-122l-164 230l-165 -230h-113l215 332h133z" />
    <glyph glyph-name="Idieresis" unicode="&#xcf;" horiz-adv-x="545" 
d="M496 1434v-144h-140v-1146h140v-144h-448v144h140v1146h-140v144h448zM470 1566q-40 0 -69 28t-29 71q0 42 28 70t68 28q42 0 71 -28.5t29 -69.5t-28 -70t-70 -29zM86 1566q-42 0 -71.5 29.5t-29.5 69.5q0 42 28.5 70t69.5 28t71 -28.5t30 -69.5t-29 -70t-69 -29z" />
    <glyph glyph-name="Eth" unicode="&#xd0;" horiz-adv-x="1436" 
d="M188 0v641h-160v155h160v638h396q758 0 758 -699q0 -334 -210.5 -534.5t-563.5 -200.5h-380zM356 1282v-486h336v-155h-336v-489h214q282 0 439 151t157 428q0 551 -586 551h-224z" />
    <glyph glyph-name="Ntilde" unicode="&#xd1;" horiz-adv-x="1532" 
d="M1344 0h-206l-738 1143q-28 43 -46 90h-6q8 -46 8 -197v-1036h-168v1434h218l718 -1125q45 -70 58 -96h4q-10 62 -10 211v1010h168v-1434zM1113 1803q0 -105 -48 -171.5t-130 -66.5q-71 0 -162 52q-77 43 -119 43q-88 0 -88 -113h-94q0 107 48 171.5t134 64.5
q65 0 149 -52q74 -44 128 -44q84 0 84 116h98z" />
    <glyph glyph-name="Ograve" unicode="&#xd2;" horiz-adv-x="1544" 
d="M766 -24q-305 0 -488.5 201t-183.5 523q0 346 187 552t509 206q297 0 478.5 -200t181.5 -523q0 -351 -186 -555t-498 -204zM778 1306q-226 0 -367 -163t-141 -428t137.5 -426.5t358.5 -161.5q236 0 372 154t136 431q0 284 -132 439t-364 155zM880 1566h-127l-262 328h168
z" />
    <glyph glyph-name="Oacute" unicode="&#xd3;" horiz-adv-x="1544" 
d="M766 -24q-305 0 -488.5 201t-183.5 523q0 346 187 552t509 206q297 0 478.5 -200t181.5 -523q0 -351 -186 -555t-498 -204zM778 1306q-226 0 -367 -163t-141 -428t137.5 -426.5t358.5 -161.5q236 0 372 154t136 431q0 284 -132 439t-364 155zM1028 1894l-262 -328h-127
l223 328h166z" />
    <glyph glyph-name="Ocircumflex" unicode="&#xd4;" horiz-adv-x="1544" 
d="M766 -24q-305 0 -488.5 201t-183.5 523q0 346 187 552t509 206q297 0 478.5 -200t181.5 -523q0 -351 -186 -555t-498 -204zM778 1306q-226 0 -367 -163t-141 -428t137.5 -426.5t358.5 -161.5q236 0 372 154t136 431q0 284 -132 439t-364 155zM1063 1566h-122l-164 230
l-165 -230h-113l215 332h133z" />
    <glyph glyph-name="Otilde" unicode="&#xd5;" horiz-adv-x="1544" 
d="M766 -24q-305 0 -488.5 201t-183.5 523q0 346 187 552t509 206q297 0 478.5 -200t181.5 -523q0 -351 -186 -555t-498 -204zM778 1306q-226 0 -367 -163t-141 -428t137.5 -426.5t358.5 -161.5q236 0 372 154t136 431q0 284 -132 439t-364 155zM1103 1802
q0 -105 -48 -171.5t-130 -66.5q-71 0 -162 52q-77 43 -119 43q-88 0 -88 -113h-94q0 107 48 171.5t134 64.5q65 0 149 -52q74 -44 128 -44q84 0 84 116h98z" />
    <glyph glyph-name="Odieresis" unicode="&#xd6;" horiz-adv-x="1544" 
d="M766 -24q-305 0 -488.5 201t-183.5 523q0 346 187 552t509 206q297 0 478.5 -200t181.5 -523q0 -351 -186 -555t-498 -204zM778 1306q-226 0 -367 -163t-141 -428t137.5 -426.5t358.5 -161.5q236 0 372 154t136 431q0 284 -132 439t-364 155zM968 1563q-40 0 -69 28
t-29 71q0 42 28 70t68 28q42 0 71 -28.5t29 -69.5t-28 -70t-70 -29zM584 1563q-42 0 -71.5 29.5t-29.5 69.5q0 42 28.5 70t69.5 28t71 -28.5t30 -69.5t-29 -70t-69 -29z" />
    <glyph glyph-name="multiply" unicode="&#xd7;" horiz-adv-x="1401" 
d="M1134 258l-94 -94l-340 340l-338 -340l-94 94l340 338l-340 340l94 94l338 -340l340 340l94 -94l-340 -340z" />
    <glyph glyph-name="Oslash" unicode="&#xd8;" horiz-adv-x="1544" 
d="M324 131l-152 -182l-78 65l158 191q-158 195 -158 495q0 343 186.5 550.5t509.5 207.5q234 0 402 -129l135 162l78 -63l-139 -166q184 -200 184 -527q0 -351 -186 -555t-498 -204q-266 0 -442 155zM1090 1204q-126 102 -312 102q-227 0 -367.5 -164t-140.5 -427
q0 -223 98 -373zM1157 1130l-725 -866q131 -137 334 -137q236 0 372 154.5t136 430.5q0 260 -117 418z" />
    <glyph glyph-name="Ugrave" unicode="&#xd9;" horiz-adv-x="1407" 
d="M1237 580q0 -604 -545 -604q-522 0 -522 581v877h168v-866q0 -441 372 -441q359 0 359 426v881h168v-854zM830 1566h-127l-262 328h168z" />
    <glyph glyph-name="Uacute" unicode="&#xda;" horiz-adv-x="1407" 
d="M1237 580q0 -604 -545 -604q-522 0 -522 581v877h168v-866q0 -441 372 -441q359 0 359 426v881h168v-854zM960 1893l-262 -328h-127l223 328h166z" />
    <glyph glyph-name="Ucircumflex" unicode="&#xdb;" horiz-adv-x="1407" 
d="M1237 580q0 -604 -545 -604q-522 0 -522 581v877h168v-866q0 -441 372 -441q359 0 359 426v881h168v-854zM987 1567h-122l-164 230l-165 -230h-113l215 332h133z" />
    <glyph glyph-name="Udieresis" unicode="&#xdc;" horiz-adv-x="1407" 
d="M1237 580q0 -604 -545 -604q-522 0 -522 581v877h168v-866q0 -441 372 -441q359 0 359 426v881h168v-854zM895 1567q-40 0 -69 28t-29 71q0 42 28 70t68 28q42 0 71 -28.5t29 -69.5t-28 -70t-70 -29zM511 1567q-42 0 -71.5 29.5t-29.5 69.5q0 42 28.5 70t69.5 28
t71 -28.5t30 -69.5t-29 -70t-69 -29z" />
    <glyph glyph-name="Yacute" unicode="&#xdd;" horiz-adv-x="1132" 
d="M1120 1434l-473 -904v-530h-168v526l-461 908h191l321 -648q6 -12 35 -88h3q10 34 38 88l336 648h178zM831 1894l-262 -328h-127l223 328h166z" />
    <glyph glyph-name="Thorn" unicode="&#xde;" horiz-adv-x="1147" 
d="M356 318v-318h-168v1434h168v-226h226q232 0 357.5 -111.5t125.5 -316.5q0 -204 -141.5 -333t-381.5 -129h-186zM356 1057v-588h176q173 0 265 78t92 223q0 287 -336 287h-197z" />
    <glyph glyph-name="germandbls" unicode="&#xdf;" horiz-adv-x="1114" 
d="M461 2v160q75 -48 170 -48q109 0 177 73.5t68 197.5q0 150 -100 243.5t-278 113.5v130q118 20 194 103t76 197q0 108 -55 167.5t-152 59.5q-231 0 -231 -309v-1090h-164v1114q0 192 110 308t296 116q166 0 265 -95t99 -251q0 -127 -75 -228t-195 -140v-5
q378 -75 378 -426q0 -177 -111 -297t-294 -120q-101 0 -178 26z" />
    <glyph glyph-name="agrave" unicode="&#xe0;" horiz-adv-x="1042" 
d="M899 0h-164v160h-4q-107 -184 -315 -184q-153 0 -239.5 81t-86.5 215q0 287 338 334l307 43q0 261 -211 261q-185 0 -334 -126v168q151 96 348 96q361 0 361 -382v-666zM735 518l-247 -34q-114 -16 -172 -56.5t-58 -143.5q0 -75 53.5 -122.5t142.5 -47.5
q122 0 201.5 85.5t79.5 216.5v102zM674 1218h-127l-262 328h168z" />
    <glyph glyph-name="aacute" unicode="&#xe1;" horiz-adv-x="1042" 
d="M899 0h-164v160h-4q-107 -184 -315 -184q-153 0 -239.5 81t-86.5 215q0 287 338 334l307 43q0 261 -211 261q-185 0 -334 -126v168q151 96 348 96q361 0 361 -382v-666zM735 518l-247 -34q-114 -16 -172 -56.5t-58 -143.5q0 -75 53.5 -122.5t142.5 -47.5
q122 0 201.5 85.5t79.5 216.5v102zM757 1546l-262 -328h-127l223 328h166z" />
    <glyph glyph-name="acircumflex" unicode="&#xe2;" horiz-adv-x="1042" 
d="M899 0h-164v160h-4q-107 -184 -315 -184q-153 0 -239.5 81t-86.5 215q0 287 338 334l307 43q0 261 -211 261q-185 0 -334 -126v168q151 96 348 96q361 0 361 -382v-666zM735 518l-247 -34q-114 -16 -172 -56.5t-58 -143.5q0 -75 53.5 -122.5t142.5 -47.5
q122 0 201.5 85.5t79.5 216.5v102zM806 1218h-122l-164 230l-165 -230h-113l215 332h133z" />
    <glyph glyph-name="atilde" unicode="&#xe3;" horiz-adv-x="1042" 
d="M899 0h-164v160h-4q-107 -184 -315 -184q-153 0 -239.5 81t-86.5 215q0 287 338 334l307 43q0 261 -211 261q-185 0 -334 -126v168q151 96 348 96q361 0 361 -382v-666zM735 518l-247 -34q-114 -16 -172 -56.5t-58 -143.5q0 -75 53.5 -122.5t142.5 -47.5
q122 0 201.5 85.5t79.5 216.5v102zM844 1458q0 -105 -48 -171.5t-130 -66.5q-71 0 -162 52q-77 43 -119 43q-88 0 -88 -113h-94q0 107 48 171.5t134 64.5q65 0 149 -52q74 -44 128 -44q84 0 84 116h98z" />
    <glyph glyph-name="adieresis" unicode="&#xe4;" horiz-adv-x="1042" 
d="M899 0h-164v160h-4q-107 -184 -315 -184q-153 0 -239.5 81t-86.5 215q0 287 338 334l307 43q0 261 -211 261q-185 0 -334 -126v168q151 96 348 96q361 0 361 -382v-666zM735 518l-247 -34q-114 -16 -172 -56.5t-58 -143.5q0 -75 53.5 -122.5t142.5 -47.5
q122 0 201.5 85.5t79.5 216.5v102zM708 1218q-40 0 -69 28t-29 71q0 42 28 70t68 28q42 0 71 -28.5t29 -69.5t-28 -70t-70 -29zM324 1218q-42 0 -71.5 29.5t-29.5 69.5q0 42 28.5 70t69.5 28t71 -28.5t30 -69.5t-29 -70t-69 -29z" />
    <glyph glyph-name="aring" unicode="&#xe5;" horiz-adv-x="1042" 
d="M899 0h-164v160h-4q-107 -184 -315 -184q-153 0 -239.5 81t-86.5 215q0 287 338 334l307 43q0 261 -211 261q-185 0 -334 -126v168q151 96 348 96q361 0 361 -382v-666zM735 518l-247 -34q-114 -16 -172 -56.5t-58 -143.5q0 -75 53.5 -122.5t142.5 -47.5
q122 0 201.5 85.5t79.5 216.5v102zM517 1176q-87 0 -144.5 52.5t-57.5 137.5q0 90 59 144t150 54q89 0 146 -54t57 -138t-61 -140t-149 -56zM517 1483q-48 0 -80 -32.5t-32 -80.5q0 -112 112 -112q50 0 83 32t33 80q0 49 -33 81t-83 32z" />
    <glyph glyph-name="ae" unicode="&#xe6;" horiz-adv-x="1704" 
d="M1622 471h-725q3 -171 91 -264t241 -93q177 0 321 114v-154q-132 -98 -358 -98q-270 0 -383 229h-4q-145 -229 -387 -229q-153 0 -240.5 80.5t-87.5 215.5q0 300 383 324l262 16q0 298 -215 298q-175 0 -330 -122v164q148 96 348 96q232 0 300 -200h4q116 200 356 200
q202 0 313 -130.5t111 -362.5v-84zM1454 610q-2 144 -68.5 222t-185.5 78q-116 0 -199 -82t-102 -218h555zM735 410v63l-203 -12q-139 -8 -207.5 -49t-68.5 -136q0 -73 53 -117.5t143 -44.5q119 0 201 84.5t82 211.5z" />
    <glyph glyph-name="ccedilla" unicode="&#xe7;" horiz-adv-x="946" 
d="M864 47q-118 -71 -280 -71q-219 0 -353.5 142.5t-134.5 369.5q0 253 145 406.5t387 153.5q135 0 238 -50v-168q-114 80 -244 80q-157 0 -257.5 -112.5t-100.5 -295.5q0 -180 94.5 -284t253.5 -104q134 0 252 89v-156zM778 -256q0 -176 -275 -176q-38 0 -65 2v90
q43 -6 70 -6q141 0 141 90q0 78 -129 78q-10 0 -41 -4v182h108v-104q88 0 139.5 -40t51.5 -112z" />
    <glyph glyph-name="egrave" unicode="&#xe8;" horiz-adv-x="1071" 
d="M989 471h-723q4 -171 92 -264t242 -93q173 0 318 114v-154q-135 -98 -357 -98q-217 0 -341 139.5t-124 392.5q0 239 135.5 389.5t336.5 150.5t311 -130t110 -361v-86zM821 610q-1 142 -68.5 221t-187.5 79q-116 0 -197 -83t-100 -217h553zM725 1218h-127l-262 328h168z
" />
    <glyph glyph-name="eacute" unicode="&#xe9;" horiz-adv-x="1071" 
d="M989 471h-723q4 -171 92 -264t242 -93q173 0 318 114v-154q-135 -98 -357 -98q-217 0 -341 139.5t-124 392.5q0 239 135.5 389.5t336.5 150.5t311 -130t110 -361v-86zM821 610q-1 142 -68.5 221t-187.5 79q-116 0 -197 -83t-100 -217h553zM795 1546l-262 -328h-127
l223 328h166z" />
    <glyph glyph-name="ecircumflex" unicode="&#xea;" horiz-adv-x="1071" 
d="M989 471h-723q4 -171 92 -264t242 -93q173 0 318 114v-154q-135 -98 -357 -98q-217 0 -341 139.5t-124 392.5q0 239 135.5 389.5t336.5 150.5t311 -130t110 -361v-86zM821 610q-1 142 -68.5 221t-187.5 79q-116 0 -197 -83t-100 -217h553zM840 1218h-122l-164 230
l-165 -230h-113l215 332h133z" />
    <glyph glyph-name="edieresis" unicode="&#xeb;" horiz-adv-x="1071" 
d="M989 471h-723q4 -171 92 -264t242 -93q173 0 318 114v-154q-135 -98 -357 -98q-217 0 -341 139.5t-124 392.5q0 239 135.5 389.5t336.5 150.5t311 -130t110 -361v-86zM821 610q-1 142 -68.5 221t-187.5 79q-116 0 -197 -83t-100 -217h553zM746 1218q-40 0 -69 28t-29 71
q0 42 28 70t68 28q42 0 71 -28.5t29 -69.5t-28 -70t-70 -29zM362 1218q-42 0 -71.5 29.5t-29.5 69.5q0 42 28.5 70t69.5 28t71 -28.5t30 -69.5t-29 -70t-69 -29z" />
    <glyph glyph-name="igrave" unicode="&#xec;" horiz-adv-x="496" 
d="M330 0h-164v1024h164v-1024zM369 1218h-127l-262 328h168z" />
    <glyph glyph-name="iacute" unicode="&#xed;" horiz-adv-x="496" 
d="M330 0h-164v1024h164v-1024zM477 1546l-262 -328h-127l223 328h166z" />
    <glyph glyph-name="icircumflex" unicode="&#xee;" horiz-adv-x="496" 
d="M330 0h-164v1024h164v-1024zM519 1218h-122l-164 230l-165 -230h-113l215 332h133z" />
    <glyph glyph-name="idieresis" unicode="&#xef;" horiz-adv-x="496" 
d="M330 0h-164v1024h164v-1024zM430 1218q-40 0 -69 28t-29 71q0 42 28 70t68 28q42 0 71 -28.5t29 -69.5t-28 -70t-70 -29zM46 1218q-42 0 -71.5 29.5t-29.5 69.5q0 42 28.5 70t69.5 28t71 -28.5t30 -69.5t-29 -70t-69 -29z" />
    <glyph glyph-name="eth" unicode="&#xf0;" horiz-adv-x="1145" 
d="M786 968l4 3q-90 162 -198 266l-299 -151l-51 98l270 131q-118 105 -264 201h221q75 -52 172 -136l289 144l55 -94l-264 -130q327 -307 327 -774q0 -240 -129 -394t-351 -154t-347 140t-125 382q0 243 130 394.5t350 151.5q123 0 210 -78zM582 910q-148 0 -233 -108.5
t-85 -295.5q0 -181 83 -286.5t231 -105.5q139 0 220.5 108t81.5 288q0 400 -298 400z" />
    <glyph glyph-name="ntilde" unicode="&#xf1;" horiz-adv-x="1159" 
d="M1016 0h-164v584q0 326 -238 326q-123 0 -203.5 -92.5t-80.5 -233.5v-584h-164v1024h164v-170h4q116 194 336 194q168 0 257 -108.5t89 -313.5v-626zM908 1458q0 -105 -48 -171.5t-130 -66.5q-71 0 -162 52q-77 43 -119 43q-88 0 -88 -113h-94q0 107 48 171.5t134 64.5
q65 0 149 -52q74 -44 128 -44q84 0 84 116h98z" />
    <glyph glyph-name="ograve" unicode="&#xf2;" horiz-adv-x="1200" 
d="M594 -24q-227 0 -362.5 143.5t-135.5 380.5q0 258 141 403t381 145q229 0 357.5 -141t128.5 -391q0 -245 -138.5 -392.5t-371.5 -147.5zM606 910q-158 0 -250 -107.5t-92 -296.5q0 -182 93 -287t249 -105q159 0 244.5 103t85.5 293q0 192 -85.5 296t-244.5 104zM747 1218
h-127l-262 328h168z" />
    <glyph glyph-name="oacute" unicode="&#xf3;" horiz-adv-x="1200" 
d="M594 -24q-227 0 -362.5 143.5t-135.5 380.5q0 258 141 403t381 145q229 0 357.5 -141t128.5 -391q0 -245 -138.5 -392.5t-371.5 -147.5zM606 910q-158 0 -250 -107.5t-92 -296.5q0 -182 93 -287t249 -105q159 0 244.5 103t85.5 293q0 192 -85.5 296t-244.5 104zM846 1546
l-262 -328h-127l223 328h166z" />
    <glyph glyph-name="ocircumflex" unicode="&#xf4;" horiz-adv-x="1200" 
d="M594 -24q-227 0 -362.5 143.5t-135.5 380.5q0 258 141 403t381 145q229 0 357.5 -141t128.5 -391q0 -245 -138.5 -392.5t-371.5 -147.5zM606 910q-158 0 -250 -107.5t-92 -296.5q0 -182 93 -287t249 -105q159 0 244.5 103t85.5 293q0 192 -85.5 296t-244.5 104zM885 1218
h-122l-164 230l-165 -230h-113l215 332h133z" />
    <glyph glyph-name="otilde" unicode="&#xf5;" horiz-adv-x="1200" 
d="M594 -24q-227 0 -362.5 143.5t-135.5 380.5q0 258 141 403t381 145q229 0 357.5 -141t128.5 -391q0 -245 -138.5 -392.5t-371.5 -147.5zM606 910q-158 0 -250 -107.5t-92 -296.5q0 -182 93 -287t249 -105q159 0 244.5 103t85.5 293q0 192 -85.5 296t-244.5 104zM931 1458
q0 -105 -48 -171.5t-130 -66.5q-71 0 -162 52q-77 43 -119 43q-88 0 -88 -113h-94q0 107 48 171.5t134 64.5q65 0 149 -52q74 -44 128 -44q84 0 84 116h98z" />
    <glyph glyph-name="odieresis" unicode="&#xf6;" horiz-adv-x="1200" 
d="M594 -24q-227 0 -362.5 143.5t-135.5 380.5q0 258 141 403t381 145q229 0 357.5 -141t128.5 -391q0 -245 -138.5 -392.5t-371.5 -147.5zM606 910q-158 0 -250 -107.5t-92 -296.5q0 -182 93 -287t249 -105q159 0 244.5 103t85.5 293q0 192 -85.5 296t-244.5 104zM793 1218
q-40 0 -69 28t-29 71q0 42 28 70t68 28q42 0 71 -28.5t29 -69.5t-28 -70t-70 -29zM409 1218q-42 0 -71.5 29.5t-29.5 69.5q0 42 28.5 70t69.5 28t71 -28.5t30 -69.5t-29 -70t-69 -29z" />
    <glyph glyph-name="divide" unicode="&#xf7;" horiz-adv-x="1401" 
d="M708 868q-44 0 -74 30.5t-30 74.5q0 45 29 77t75 32q103 0 103 -107q0 -47 -30.5 -77t-72.5 -30zM1172 530h-940v134h940v-134zM704 112q-44 0 -75 30t-31 73q0 45 30 78t76 33q101 0 101 -109q0 -45 -29 -75t-72 -30z" />
    <glyph glyph-name="oslash" unicode="&#xf8;" horiz-adv-x="1200" 
d="M1174 1048l-168 -180q98 -138 98 -346q0 -252 -139 -399t-371 -147q-192 0 -318 102l-145 -160l-82 78l149 164q-102 137 -102 340q0 258 142 403t382 145q184 0 308 -98l162 176zM821 836q-79 74 -215 74q-159 0 -250.5 -107.5t-91.5 -296.5q0 -132 50 -224zM891 742
l-508 -552q87 -76 221 -76q163 0 248.5 104t85.5 294q0 134 -47 230z" />
    <glyph glyph-name="ugrave" unicode="&#xf9;" horiz-adv-x="1159" 
d="M994 0h-164v162h-4q-102 -186 -316 -186q-366 0 -366 436v612h163v-586q0 -324 248 -324q120 0 197.5 88.5t77.5 231.5v590h164v-1024zM705 1218h-127l-262 328h168z" />
    <glyph glyph-name="uacute" unicode="&#xfa;" horiz-adv-x="1159" 
d="M994 0h-164v162h-4q-102 -186 -316 -186q-366 0 -366 436v612h163v-586q0 -324 248 -324q120 0 197.5 88.5t77.5 231.5v590h164v-1024zM840 1546l-262 -328h-127l223 328h166z" />
    <glyph glyph-name="ucircumflex" unicode="&#xfb;" horiz-adv-x="1159" 
d="M994 0h-164v162h-4q-102 -186 -316 -186q-366 0 -366 436v612h163v-586q0 -324 248 -324q120 0 197.5 88.5t77.5 231.5v590h164v-1024zM854 1218h-122l-164 230l-165 -230h-113l215 332h133z" />
    <glyph glyph-name="udieresis" unicode="&#xfc;" horiz-adv-x="1159" 
d="M994 0h-164v162h-4q-102 -186 -316 -186q-366 0 -366 436v612h163v-586q0 -324 248 -324q120 0 197.5 88.5t77.5 231.5v590h164v-1024zM770 1218q-40 0 -69 28t-29 71q0 42 28 70t68 28q42 0 71 -28.5t29 -69.5t-28 -70t-70 -29zM386 1218q-42 0 -71.5 29.5t-29.5 69.5
q0 42 28.5 70t69.5 28t71 -28.5t30 -69.5t-29 -70t-69 -29z" />
    <glyph glyph-name="yacute" unicode="&#xfd;" horiz-adv-x="991" 
d="M981 1024l-471 -1188q-126 -318 -354 -318q-64 0 -107 13v147q53 -18 97 -18q124 0 186 148l82 194l-400 1022h182l277 -788q5 -15 21 -78h6q5 24 20 76l291 790h170zM762 1546l-262 -328h-127l223 328h166z" />
    <glyph glyph-name="thorn" unicode="&#xfe;" horiz-adv-x="1204" 
d="M334 148h-4v-619h-164v1987h164v-672h4q121 204 354 204q198 0 309 -137.5t111 -368.5q0 -257 -125 -411.5t-342 -154.5q-199 0 -307 172zM330 561v-143q0 -127 82.5 -215.5t209.5 -88.5q149 0 233.5 114t84.5 317q0 171 -79 268t-214 97q-143 0 -230 -99.5t-87 -249.5z
" />
    <glyph glyph-name="ydieresis" unicode="&#xff;" horiz-adv-x="991" 
d="M981 1024l-471 -1188q-126 -318 -354 -318q-64 0 -107 13v147q53 -18 97 -18q124 0 186 148l82 194l-400 1022h182l277 -788q5 -15 21 -78h6q5 24 20 76l291 790h170zM689 1218q-40 0 -69 28t-29 71q0 42 28 70t68 28q42 0 71 -28.5t29 -69.5t-28 -70t-70 -29zM305 1218
q-42 0 -71.5 29.5t-29.5 69.5q0 42 28.5 70t69.5 28t71 -28.5t30 -69.5t-29 -70t-69 -29z" />
    <glyph glyph-name="dotlessi" unicode="&#x131;" horiz-adv-x="496" 
d="M330 0h-164v1024h164v-1024z" />
    <glyph glyph-name="OE" unicode="&#x152;" horiz-adv-x="1906" 
d="M1810 0h-720q-16 0 -138 -14q-98 -10 -182 -10q-312 0 -494 201t-182 523q0 346 189.5 552t514.5 206q90 0 178 -10q112 -14 114 -14h688v-152h-560v-477h518v-151h-518v-502h592v-152zM1050 160v1118q-160 28 -268 28q-229 0 -370.5 -166t-141.5 -425q0 -258 139.5 -423
t366.5 -165q116 0 274 33z" />
    <glyph glyph-name="oe" unicode="&#x153;" horiz-adv-x="1900" 
d="M1825 471h-725q3 -171 91.5 -264t242.5 -93q175 0 319 114v-154q-136 -98 -357 -98q-270 0 -382 237h-4q-131 -237 -416 -237q-229 0 -363.5 143t-134.5 379q0 258 142 404t382 146q294 0 402 -235h4q119 235 385 235q196 0 305 -131.5t109 -357.5v-88zM1657 610
q-2 142 -69 221t-183 79q-120 0 -203.5 -85.5t-99.5 -214.5h555zM606 910q-158 0 -250 -108.5t-92 -299.5q0 -180 92 -284t248 -104q159 0 245.5 102.5t86.5 291.5q0 194 -86.5 298t-243.5 104z" />
    <glyph glyph-name="Scaron" unicode="&#x160;" horiz-adv-x="1088" 
d="M121 58v198q34 -30 81.5 -54t100 -40.5t105.5 -25.5t98 -9q155 0 231.5 57.5t76.5 165.5q0 58 -25.5 101t-70.5 78.5t-106.5 68t-132.5 68.5q-75 38 -140 77t-113 86t-75.5 106.5t-27.5 139.5q0 98 43 170.5t113 119.5t159.5 70t182.5 23q212 0 309 -51v-189
q-127 88 -326 88q-55 0 -110 -11.5t-98 -37.5t-70 -67t-27 -100q0 -55 20.5 -95t60.5 -73t97.5 -64t132.5 -68q77 -38 146 -80t121 -93t82.5 -113t30.5 -142q0 -106 -41.5 -179.5t-112 -119.5t-162.5 -66.5t-194 -20.5q-34 0 -84 5.5t-102 16t-98.5 26t-74.5 34.5zM826 1898
l-214 -330h-132l-216 330h115l164 -229l164 229h119z" />
    <glyph glyph-name="scaron" unicode="&#x161;" horiz-adv-x="869" 
d="M104 37v176q134 -99 295 -99q216 0 216 144q0 41 -18.5 69.5t-50 50.5t-74 39.5t-91.5 36.5q-68 27 -119.5 54.5t-86 62t-52 78.5t-17.5 103q0 72 33 127.5t88 93t125.5 56.5t145.5 19q133 0 238 -46v-166q-113 74 -260 74q-46 0 -83 -10.5t-63.5 -29.5t-41 -45.5
t-14.5 -58.5q0 -40 14.5 -67t42.5 -48t68 -38t91 -37q68 -26 122 -53.5t92 -62t58.5 -79.5t20.5 -107q0 -76 -33.5 -132t-89.5 -93t-129 -55t-153 -18q-158 0 -274 61zM682 1548l-214 -330h-132l-216 330h115l164 -229l164 229h119z" />
    <glyph glyph-name="Ydieresis" unicode="&#x178;" horiz-adv-x="1132" 
d="M1120 1434l-473 -904v-530h-168v526l-461 908h191l321 -648q6 -12 35 -88h3q10 34 38 88l336 648h178zM759 1565q-40 0 -69 28t-29 71q0 42 28 70t68 28q42 0 71 -28.5t29 -69.5t-28 -70t-70 -29zM375 1565q-42 0 -71.5 29.5t-29.5 69.5q0 42 28.5 70t69.5 28t71 -28.5
t30 -69.5t-29 -70t-69 -29z" />
    <glyph glyph-name="Zcaron" unicode="&#x17d;" horiz-adv-x="1168" 
d="M1124 1394l-840 -1242h820v-152h-1071v47l833 1235h-766v152h1024v-40zM900 1895l-214 -330h-132l-216 330h115l164 -229l164 229h119z" />
    <glyph glyph-name="zcaron" unicode="&#x17e;" horiz-adv-x="926" 
d="M880 977l-606 -837h600v-140h-841v51l606 833h-549v140h790v-47zM782 1548l-214 -330h-132l-216 330h115l164 -229l164 229h119z" />
    <glyph glyph-name="florin" unicode="&#x192;" horiz-adv-x="1104" 
d="M952 1266q-48 28 -108 28q-146 0 -170 -160l-31 -208h166v-138h-187l-90 -648q-58 -418 -348 -418q-31 0 -90 16v143q36 -21 86 -21q150 0 190 292l91 636h-103v138h124l28 219q17 131 104.5 210t221.5 79q64 0 116 -19v-149z" />
    <glyph glyph-name="circumflex" unicode="&#x2c6;" horiz-adv-x="760" 
d="M656 1218h-122l-164 230l-165 -230h-113l215 332h133z" />
    <glyph glyph-name="caron" unicode="&#x2c7;" horiz-adv-x="760" 
d="M664 1548l-214 -330h-132l-216 330h115l164 -229l164 229h119z" />
    <glyph glyph-name="ring" unicode="&#x2da;" horiz-adv-x="574" 
d="M284 1176q-87 0 -144.5 52.5t-57.5 137.5q0 90 59 144t150 54q89 0 146 -54t57 -138t-61 -140t-149 -56zM284 1483q-48 0 -80 -32.5t-32 -80.5q0 -112 112 -112q50 0 83 32t33 80q0 49 -33 81t-83 32z" />
    <glyph glyph-name="tilde" unicode="&#x2dc;" horiz-adv-x="690" 
d="M676 1458q0 -105 -48 -171.5t-130 -66.5q-71 0 -162 52q-77 43 -119 43q-88 0 -88 -113h-94q0 107 48 171.5t134 64.5q65 0 149 -52q74 -44 128 -44q84 0 84 116h98z" />
    <glyph glyph-name="uni1780" unicode="&#x1780;" horiz-adv-x="1725" 
d="M1557 1097h-30l-381 149l-216 -141h-96l-374 156l-162 -98v-15l323 -162h649q30 0 78 -8t94 -30.5t79 -61.5t33 -102v-531h-129v498q0 37 -16.5 61t-41.5 38.5t-55 20.5t-57 6h-744q-27 0 -55.5 -7.5t-51 -23.5t-37.5 -40t-15 -57v-496h-127v534q0 39 18.5 69.5t45 53
t52.5 36t41 21.5l-234 123v79l360 209h69l380 -164l244 164h51l303 -131q21 -7 41 -7q22 0 48 9l19 -41z" />
    <glyph glyph-name="uni1781" unicode="&#x1781;" horiz-adv-x="1723" 
d="M1540 463q0 -45 -15.5 -79t-42 -57t-58.5 -37.5t-64.5 -22.5t-63 -11t-51.5 -3h-728q-43 0 -94 13.5t-94.5 39.5t-72 65t-28.5 92v150q0 75 90.5 132.5t260.5 84.5q645 65 685 84q79 21 110 57t31 71v97q0 38 -17 62.5t-44 39t-58.5 20.5t-60.5 6h-690q-30 0 -60 -8.5
t-55.5 -25.5t-41 -42.5t-15.5 -61.5v-125q0 -16 11 -21.5t31 -5.5q24 0 36 15t12 33q0 8 -12 13.5t-23.5 10.5t-23 18.5t-11.5 39.5q0 36 23 59t59 23q40 0 67 -27t27 -62q0 -22 -7.5 -44.5t-22.5 -52.5t-45 -60q-33 -33 -72.5 -51t-75.5 -18h-32q-27 0 -51.5 21t-24.5 54
v217q0 50 28.5 89.5t71 67.5t93 43.5t93.5 15.5h728q31 0 81.5 -9t99 -33.5t83 -66.5t34.5 -110v-136q0 -35 -10 -61t-27 -46.5t-40 -37.5t-55 -34.5t-88 -36.5q-62 -26 -486 -72q-159 -17 -245.5 -27.5t-105.5 -17.5q-40 -11 -65.5 -24.5t-40 -29t-14.5 -35.5v-106
q0 -36 15.5 -61.5t41 -42t55.5 -24t60 -7.5h690q29 0 60.5 6t58.5 21t44 40.5t17 64.5v187l50 27h45l40 -27v-220z" />
    <glyph glyph-name="uni1782" unicode="&#x1782;" horiz-adv-x="1725" 
d="M1557 1097h-30l-381 149l-216 -141h-96l-374 156l-172 -89v-15l358 -171h624q30 0 78 -8t94 -30.5t79 -61.5t33 -102v-531h-129v498q0 37 -16.5 61t-41.5 38.5t-55 20.5t-57 6h-744q-27 0 -55.5 -7.5t-51 -23.5t-37.5 -40t-15 -57v-307q50 62 74.5 90.5t39 44t32.5 27.5
q24 16 41 20.5t35 4.5q29 0 42.5 -15t13.5 -43q0 -30 -9.5 -45.5t-23.5 -15.5q-10 0 -20 4t-22 4q-15 0 -27 -3.5t-26.5 -12.5t-33 -25.5t-47.5 -45.5q-33 -34 -48 -54.5t-18 -44.5t-3 -39v-40h-127v534q0 58 37.5 110.5t115.5 72.5l-230 120v79l360 209h69l380 -164
l244 164h51l303 -131q17 -7 41 -7q22 0 48 9l19 -41z" />
    <glyph glyph-name="uni1783" unicode="&#x1783;" horiz-adv-x="1875" 
d="M225 455v781q0 23 -11 30.5t-31 7.5q-26 -1 -43 -18.5t-17 -47.5q0 -34 13.5 -44.5t28 -16.5t29 -21t14.5 -36q0 -30 -22.5 -50.5t-62.5 -20.5q-46 0 -72 28.5t-26 94.5q0 39 10 82t46 83q37 42 86 56.5t92 14.5h26q36 0 52.5 -19t16.5 -55v-816q0 -37 16.5 -61t41 -38.5
t54.5 -20.5t57 -6h219q27 0 55.5 7.5t51 23.5t37.5 40t15 57v556q-3 35 -27.5 50t-60.5 15q-12 0 -25 -6t-25 -6q-13 0 -22 19l-42 66l214 195h29l156 -79q12 -5 24 -5q9 0 16 2l18 -30l-94 -83q-31 16 -54 28.5t-50.5 22t-53.5 9.5q-18 0 -31 -4t-23 -10q-25 -16 -40 -31
l3 -4q24 4 49 4q77 0 122 -29t45 -70v-612q0 -37 16.5 -61t41 -38.5t54.5 -20.5t57 -6h219q27 0 55.5 7.5t51 23.5t37.5 40t15 57v567q0 22 -24 38t-59 16q-12 0 -27.5 -6t-27.5 -6q-13 0 -22 19l-42 66l214 195h29l156 -79q12 -5 24 -5q8 0 16 2l18 -30l-94 -83
q-35 18 -56 29.5t-48.5 21t-57.5 9.5q-12 0 -25 -4.5t-25 -11.5q-25 -14 -40 -29l3 -4q24 4 49 4q77 0 122 -29t45 -70v-648q0 -45 -25 -82t-58 -61t-77 -40t-107 -16h-254q-21 0 -48.5 3t-57.5 11t-61 22.5t-58 36.5q-43 -33 -74 -48.5t-63 -20t-59 -4.5h-254q-30 0 -78 8
t-93.5 30.5t-78.5 61.5t-33 102z" />
    <glyph glyph-name="uni1784" unicode="&#x1784;" horiz-adv-x="1725" 
d="M1362 253l-465 226l-360 -226h-194v434q0 19 -10 25.5t-29 6.5q-16 0 -39.5 -12t-23.5 -42q0 -15 13.5 -20t29.5 -10.5t29.5 -18t13.5 -36.5q0 -30 -22.5 -50.5t-63.5 -20.5q-51 0 -75.5 31t-24.5 86q0 50 23 86.5t55.5 61.5t71.5 37t79 12h33q26 0 47.5 -21t21.5 -53
v-387l429 258l524 -258v488q0 54 -34.5 91t-104 56t-191 26.5t-274.5 7.5q-182 0 -259 -11.5t-105 -35t-28 -50.5v-18h-129v459q0 19 -15 27.5t-34 13.5t-40 14.5t-21 32.5q0 29 22 44.5t47 15.5q29 0 57.5 -10.5t51.5 -31.5t39 -51.5t19 -71.5v-268q65 39 164.5 49t217.5 9
q103 0 377 -18q-9 29 -9 65q0 75 51 129t140 54q87 0 135.5 -48t48.5 -135q0 -47 -17 -78.5t-55 -65.5q30 -26 49.5 -71t22.5 -124v-603h-189zM1453 1196q0 38 -23.5 64t-63.5 26q-39 0 -62 -26t-23 -64q0 -36 23 -61.5t62 -25.5q40 0 63.5 25.5t23.5 61.5z" />
    <glyph glyph-name="uni1785" unicode="&#x1785;" horiz-adv-x="1725" 
d="M1557 1097h-30l-381 149l-216 -141h-96l-374 156l-267 -128v-15l159 -132v-496q0 -33 15 -57t37.5 -40t51 -23.5t55.5 -7.5h744q27 0 57 6t55 20.5t41.5 38.5t16.5 61v270q0 21 -10.5 28t-31.5 7q-26 -2 -43 -19t-17 -47q0 -33 13.5 -44.5t29 -17.5t29 -17.5t13.5 -31.5
q0 -39 -24 -59.5t-66 -20.5q-21 0 -36.5 6t-28.5 19.5t-20.5 37t-7.5 60.5q0 41 10 83.5t46 83.5q37 42 86 56t85 14h33q33 0 50 -21t17 -52v-368q2 -63 -31 -102t-79 -61.5t-94 -30.5t-78 -8h-778q-48 1 -96 16t-86.5 41.5t-61.5 62.5t-23 79v455l-137 123v124l420 224h69
l380 -164l244 164h51l303 -131q30 -7 41 -7q22 0 48 9l19 -41z" />
    <glyph glyph-name="uni1786" unicode="&#x1786;" horiz-adv-x="1725" 
d="M1557 1097h-30l-381 149l-216 -141h-96l-374 156l-207 -128v-15l258 -207v-271l744 -278q27 0 57 6t55 20.5t41.5 38.5t16.5 61v271q0 19 -10 26.5t-31 7.5q-25 -2 -42.5 -19t-17.5 -47q0 -33 13.5 -44.5t29.5 -17.5t29.5 -16.5t13.5 -32.5q0 -39 -24 -59.5t-66 -20.5
q-18 0 -35.5 6t-30 19.5t-20 37t-7.5 60.5q0 41 9.5 83.5t45.5 83.5q38 42 86.5 56t84.5 14h33q26 0 47 -21t21 -52v-368q0 -63 -33 -102t-79 -61.5t-94 -30.5t-78 -8l-759 271v-165q0 -105 -84 -105h-32q-112 0 -178.5 54t-66.5 158q1 91 67 136t167 45v201l-236 182v124
l360 224h69l380 -164l244 164h51l303 -131q30 -7 41 -7q22 0 48 9l19 -41zM384 535q-22 0 -40 -2t-36.5 -8t-33.5 -22t-15 -47q0 -39 36 -59t89 -20v158z" />
    <glyph glyph-name="uni1787" unicode="&#x1787;" horiz-adv-x="1575" 
d="M475 1261l-222 -128v-15l168 -147v-571l407 199l447 -205v457h129v-598h-149l-429 195l-409 -197h-123v657l-146 122v124l360 224h84l356 -219q36 -23 62 -35.5t47 -19.5t40 -9t37 -2q28 0 59 6.5t56.5 25.5t42 52.5t16.5 87.5q0 60 -59 60q-7 0 -17.5 -1.5t-19.5 -1.5
q-62 0 -62 71q0 31 10 53.5t25.5 36t36 19.5t39.5 6q45 0 76.5 -15t52 -40.5t30 -59t9.5 -71.5q0 -87 -30.5 -150t-77 -105t-106.5 -63t-125 -21q-78 0 -126 9.5t-97 35.5z" />
    <glyph glyph-name="uni1788" unicode="&#x1788;" horiz-adv-x="2625" 
d="M2188 253h-253q-21 0 -49 3t-58 11t-60.5 22.5t-57.5 36.5q-41 -31 -71.5 -47t-54 -21t-40.5 -5h-32h-254q-31 0 -79 8t-93 30.5t-77.5 61.5t-32.5 102v684q0 33 -15 57t-37.5 40t-51 23.5t-55.5 7.5h-219q-27 0 -57 -6t-54.5 -20.5t-41 -38.5t-16.5 -61v-758
q7 -16 19 -21.5t23 -5.5q25 2 41.5 19t16.5 47q0 35 -13.5 45.5t-29 16.5t-28.5 17.5t-13 37.5q0 30 22 51t62 21q56 0 77.5 -27.5t21.5 -95.5q0 -39 -9.5 -81.5t-47.5 -84.5q-36 -41 -84.5 -55t-84.5 -14h-33q-26 0 -47.5 21t-21.5 52v848q0 63 33 102t78.5 61.5t93.5 30.5
t78 8h254q31 0 77.5 -9t88.5 -31q59 -33 80 -72t21 -87v-689q0 -37 16.5 -61t41 -38.5t54.5 -20.5t57 -6h219q27 0 55.5 7.5t51 23.5t37.5 40t15 57v553q-3 33 -27 49.5t-54 16.5q-14 0 -28 -6t-26 -6q-13 0 -25 20l-39 66l214 195h29l156 -80q11 -4 24 -4q10 0 16 1l18 -30
l-94 -82q-6 0 -20.5 9t-35.5 20t-48.5 21t-60.5 10q-11 0 -22.5 -3t-28.5 -12q-26 -15 -36 -30l3 -5q24 5 49 5q77 0 115 -29.5t49 -69.5v-617q1 -34 19 -57.5t43 -37t54 -19.5t55 -6h219q27 0 55.5 7.5t51 23.5t37.5 40t15 57v550q-3 33 -27 51t-60 18q-12 0 -25 -6t-25 -6
q-13 0 -24 20l-40 66l214 195h29l156 -80q11 -4 24 -4q9 0 16 1l18 -30l-94 -82q-6 0 -20.5 9t-35.5 20t-48.5 21t-60.5 10q-11 0 -22 -3t-28 -12q-27 -15 -37 -30l3 -5q24 5 49 5q77 0 115 -29.5t49 -69.5v-647q0 -52 -26.5 -89.5t-65.5 -62.5t-85.5 -36t-88.5 -11z" />
    <glyph glyph-name="uni1789" unicode="&#x1789;" horiz-adv-x="1875" 
d="M354 1144v-761q7 -16 19 -21.5t23 -5.5q25 2 41.5 19t16.5 47q0 33 -13.5 43.5t-29 17.5t-28.5 19t-13 37q0 30 22 51t62 21q56 0 77.5 -27.5t21.5 -95.5q0 -39 -9.5 -81.5t-47.5 -84.5q-36 -41 -84.5 -55t-84.5 -14h-33q-26 0 -47.5 21t-21.5 52v851q0 57 20 96t50.5 62
t64 33.5t66.5 10.5q44 0 76.5 -21.5t70 -53t67.5 -31.5q12 0 30.5 13t40 31t42.5 32t37.5 20t39.5 6q21 0 44.5 -8.5t43 -21.5t45.5 -39q27 21 58 35t61 22.5t57.5 12t48.5 3.5h204q23 0 46 -1.5t53.5 -6t60.5 -13.5t65.5 -30.5t58.5 -57.5t28 -90v-927h-128v889
q0 24 -11 50t-33.5 44t-55.5 26t-69 8h-209q-27 0 -57 -6t-54.5 -20.5t-41 -38.5t-16.5 -61v-891h-129v889q0 20 -3 39.5t-13 36t-24 24.5t-32 8q-14 0 -25 -3.5t-26 -12.5t-36 -25t-51 -40q-15 -12 -30 -18t-32 -6q-25 0 -49 18q-32 23 -52 39.5t-36 27.5t-29 16.5t-26 5.5
q-15 0 -31 -9t-28 -23.5t-17.5 -34t-5.5 -41.5zM118 -163q35 39 79 63t98.5 37.5t112.5 18t110 4.5q27 0 62.5 -3.5t82 -15t102 -34.5t148.5 -64q144 -63 237 -63q70 0 111.5 11.5t64 28t30.5 35t8 32.5q0 39 -31.5 66.5t-109.5 27.5q-99 0 -99 48q0 27 32.5 49.5t99.5 24.5
q69 0 114 -21.5t70.5 -51t35.5 -57t10 -61.5q0 -36 -11.5 -73t-51.5 -76q-30 -26 -68 -45t-73.5 -28t-65 -12t-57.5 -3q-44 0 -87.5 6t-107.5 23q-66 21 -114 42t-100 42.5t-113.5 36.5t-148.5 15q-79 0 -148.5 -15.5t-121 -39.5t-87.5 -42t-49 -18q-11 0 -11 15q0 35 47 97
z" />
    <glyph glyph-name="uni178A" unicode="&#x178a;" horiz-adv-x="1575" 
d="M219 851h127v-451l482 199l447 -205v457h129v-598h-149l-429 195l-484 -197h-123v600zM244 1054q-28 37 -28 112q0 72 25.5 115t63 64t81 27t77.5 6q27 0 58.5 -5.5t58.5 -20.5t44.5 -43.5t17.5 -74.5v-93h-123v93q0 34 -51 34q-62 0 -87.5 -25.5t-25.5 -56.5
q0 -60 53.5 -96t138 -55.5t188 -25.5t204.5 -6q69 0 131 10.5t110 35t76.5 65t28.5 99.5q0 52 -58 52q-11 0 -22 -1.5t-20 -1.5q-65 0 -65 71q0 33 10.5 54.5t27 35t37 19.5t39.5 6q47 0 80.5 -15.5t54 -42t30 -59.5t9.5 -73q-1 -54 -16 -101.5t-39 -85.5t-55 -67.5
t-62 -48.5q-30 -18 -58.5 -31.5t-65.5 -23.5t-85.5 -14.5t-119.5 -4.5q-57 0 -138.5 4t-167 14.5t-163 30t-126.5 50.5q-21 12 -37 31t-31 43z" />
    <glyph glyph-name="uni178B" unicode="&#x178b;" horiz-adv-x="1500" 
d="M1399 1390q0 -21 -3 -38.5t-10.5 -36t-21 -40t-40.5 -49.5l-88 -90h-11q-7 9 -21.5 22t-33 25.5t-40.5 21t-46 8.5q-12 0 -23 -7.5t-22 -17.5t-31 -33l4 -5q21 4 45 4q39 0 82.5 -10.5t81 -30t60.5 -48t31 -65.5v-548q0 -44 -20 -80.5t-51.5 -62.5t-77.5 -41t-106 -15
h-549q-30 0 -78 8t-93.5 30.5t-78.5 61.5t-33 102v792q-6 17 -18 22t-23 5q-25 -1 -42.5 -18.5t-17.5 -47.5q0 -34 13.5 -44.5t29.5 -16.5t29.5 -16t13.5 -41q0 -30 -22.5 -50.5t-63.5 -20.5q-55 0 -76 28.5t-21 94.5q0 39 9.5 82t45.5 83q38 42 86.5 56.5t84.5 14.5h33
q26 0 47 -21t21 -53v-816q0 -37 16.5 -61t41 -38.5t54.5 -20.5t57 -6h504q27 0 55.5 7.5t51 23.5t37.5 40t15 57v436q0 51 -41 84t-122 33q-12 0 -23.5 -1.5t-21.5 -1.5q-12 0 -20.5 7t-16 19t-16 29t-21.5 40l198 244h27l128 -81q19 -12 32 -12q14 0 24.5 11t12.5 37v14
q0 31 -33 31q-5 0 -16 -3t-28 -3q-30 0 -51.5 15t-21.5 48q0 38 23 61t67 23q54 0 93.5 -33t39.5 -97z" />
    <glyph glyph-name="uni178C" unicode="&#x178c;" horiz-adv-x="1575" 
d="M1401 985q0 -44 -17.5 -78t-51 -61t-77.5 -45.5t-94 -27.5l-735 -114q-52 -7 -69 -27.5t-17 -41.5v-156q0 -42 24 -59t60 -17h571q63 0 113.5 18.5t103.5 67.5q54 57 63 96t9 72v46l43 33h36l38 -30v-465l-38 -27h-42l-37 25v209q-14 -22 -36.5 -46.5t-58.5 -48.5
t-90.5 -39.5t-132.5 -15.5h-618q-75 0 -99 29t-24 80v258q0 41 17 66.5t49.5 42.5t77.5 27t106 19l599 94q76 13 101 21t44.5 18.5t37 30.5t22.5 42t5 47v152l-68 70l-376 -94h-38l-408 105l-55 -51v-174q0 -18 12.5 -25t21.5 -7q20 0 31 14.5t11 29.5q0 7 -9.5 8.5t-21 7
t-21 19.5t-9.5 46q0 48 23 64.5t50 16.5t49 -20.5t22 -66.5q0 -95 -50.5 -143.5t-117.5 -48.5q-32 0 -49 6t-28.5 15.5t-19.5 22.5t-8 28v234l151 139h41l411 -115l399 115h37l137 -127v-264z" />
    <glyph glyph-name="uni178D" unicode="&#x178d;" horiz-adv-x="1875" 
d="M349 1006v-620q0 -16 12 -23t30 -7q26 2 42.5 19t16.5 47q0 35 -13.5 45.5t-29.5 16.5t-28.5 15t-12.5 40q0 30 21.5 51t62.5 21q50 0 74.5 -32.5t24.5 -90.5q0 -39 -10 -81.5t-47 -84.5q-36 -41 -85 -55t-85 -14h-33q-25 0 -47 21t-22 52v677q-18 22 -33 41t-26 39
t-17 44t-6 59q0 58 33 95t78.5 58t93 29t75.5 8q194 0 287 -79q90 79 203 79q30 0 60 -3t80.5 -22t90.5 -65.5t40 -108.5v-566q67 -12 133 -35t120 -48t90 -45t44 -26v580q0 38 -25.5 55t-60.5 17q-19 0 -39 -9l-19 -9l-56 92l215 195h28l156 -80q9 -5 24 -5q9 0 17 2
l18 -30l-95 -82q-6 0 -20 9t-35 20t-49 21t-61 10q-10 0 -22 -3.5t-23 -9.5q-28 -16 -42 -32l3 -5q24 5 50 5q76 0 114.5 -29.5t48.5 -69.5v-849h-127q-18 31 -43.5 60.5t-47.5 46.5t-61 45q-76 41 -132.5 58t-102.5 27v-188q0 -16 -11 -32.5t-37 -16.5h-62
q-72 0 -131.5 45.5t-59.5 126.5q0 62 25 99t53.5 55.5t54 27.5t40.5 12v523q0 33 -11.5 57t-34 40t-46.5 23.5t-63 7.5q-111 0 -214 -125q-63 125 -249 125q-24 0 -53 -6t-55.5 -19.5t-43.5 -34t-17 -48.5q0 -26 42 -92zM1053 487q-29 -3 -53 -15t-24 -41q0 -30 23.5 -42.5
t53.5 -15.5v114z" />
    <glyph glyph-name="uni178E" unicode="&#x178e;" horiz-adv-x="2250" 
d="M354 1138v-758q7 -16 19 -21.5t23 -5.5q25 2 41.5 19t16.5 47q0 35 -13.5 45.5t-29 16.5t-28.5 15t-13 40q0 30 22 51t62 21q56 0 77.5 -27.5t21.5 -95.5q0 -39 -9.5 -81.5t-47.5 -84.5q-36 -41 -84.5 -54.5t-84.5 -13.5h-33q-27 0 -48 20.5t-21 51.5v848q0 46 26 84.5
t66.5 65.5t88.5 41t90 14h165q30 0 79 -8t95.5 -31.5t80 -64t33.5 -103.5v-775l196 142l193 -139v772q0 48 26 86.5t66.5 65.5t88 41t89.5 14h180q31 0 80 -8t96 -31.5t81 -64t34 -103.5v-916h-132v888q0 37 -16.5 61t-43 38.5t-57 19.5t-57.5 5h-144q-29 0 -57.5 -7.5
t-51.5 -22.5t-37.5 -39t-14.5 -57v-886h-130l-193 165l-196 -165h-132v888q0 37 -16.5 61t-41 38.5t-54.5 19.5t-57 5h-131q-27 0 -56 -7.5t-52.5 -22.5t-39 -39.5t-15.5 -57.5z" />
    <glyph glyph-name="uni178F" unicode="&#x178f;" horiz-adv-x="1725" 
d="M352 749v-366q8 -16 20 -21.5t22 -5.5q26 2 42.5 19t16.5 47q0 35 -13.5 45.5t-29.5 16.5t-28.5 15t-12.5 40q0 30 21.5 51t62.5 21q55 0 77 -27.5t22 -95.5q0 -39 -10 -81.5t-47 -84.5q-36 -41 -85 -55t-85 -14h-33q-25 0 -46 21t-21 52v461q0 36 11 63.5t27.5 48.5
t44.5 38t71 33l-231 120v79l360 209h69l380 -164l244 164h51l303 -131q30 -7 41 -7q22 0 48 9l19 -41l-106 -111h-30l-381 149l-216 -141h-96l-374 156l-172 -89v-15l358 -171h624q30 0 78 -8t94 -30.5t79 -61.5t33 -102v-531h-129v498q0 37 -16.5 61t-41.5 38.5t-55 20.5
t-57 6h-744q-27 0 -55.5 -7.5t-51 -23.5t-37.5 -40t-15 -57z" />
    <glyph glyph-name="uni1790" unicode="&#x1790;" horiz-adv-x="1573" 
d="M345 332q-36 35 -45 62t-9 58v459l-143 119v124l360 224h84l356 -219q36 -23 62 -35.5t47 -19.5t40 -9t37 -2q28 0 59 6.5t56.5 25.5t42 52.5t16.5 87.5q0 60 -59 60q-7 0 -17.5 -1.5t-19.5 -1.5q-62 0 -62 71q0 31 10 53.5t25.5 36t36 19.5t39.5 6q45 0 76.5 -15
t52 -40.5t30 -59t9.5 -71.5q-3 -64 -21.5 -109t-45.5 -79t-59.5 -57t-60.5 -41q-44 -26 -91 -35t-91 -9q-37 0 -71.5 4.5t-53.5 10.5t-71 29l-389 225l-222 -128v-15l167 -148v-480q-2 -33 13 -57t37.5 -40t51 -23.5t55.5 -7.5h519q27 0 57 6t55 20.5t41.5 38.5t16.5 61v278
q-8 16 -20 21.5t-22 5.5q-26 -2 -43 -19t-17 -47q0 -35 13.5 -45.5t29 -16.5t29 -15.5t13.5 -41.5q0 -30 -22.5 -50t-62.5 -20q-56 0 -77 28.5t-21 94.5q0 39 10 81.5t46 83.5q37 42 86 56t85 14h33q25 0 47 -21t22 -52v-368q0 -63 -33 -102t-79 -61.5t-94 -30.5t-78 -8
h-553q-57 1 -113.5 20t-99.5 59z" />
    <glyph glyph-name="uni1791" unicode="&#x1791;" horiz-adv-x="1500" 
d="M1329 1039q0 -26 -13 -43t-33 -28.5t-47 -17.5t-54 -6q-53 0 -81.5 6t-45.5 14t-28.5 15t-29.5 25q-16 17 -27.5 42.5t-11.5 53.5q0 46 25.5 77t71.5 31q38 0 61.5 -22.5t23.5 -62.5q0 -30 -8.5 -40.5t-19.5 -10.5q-7 0 -13.5 3t-14.5 3q-7 0 -13.5 -6t-6.5 -15
q0 -13 23 -24.5t59 -11.5q46 0 46 37v86q0 37 -7 55.5t-16.5 27t-21.5 17.5q-30 16 -58.5 18t-56.5 2h-512q-28 0 -57.5 -5.5t-53.5 -19.5t-39 -39t-15 -62v-80q0 -52 9 -82.5t39.5 -47.5t67.5 -30l537 -189h45q0 25 15 43t34.5 26t36.5 10t22 2q18 0 37.5 -5.5t36 -17.5
t27 -31.5t10.5 -46.5q0 -19 -9 -37t-25 -32.5t-35.5 -22t-40.5 -9.5v-221q0 -33 -12.5 -55t-30 -35.5t-36 -18.5t-29.5 -5h-564q-12 0 -32 6t-39.5 18.5t-34 33.5t-14.5 53v172l54 23h36l44 -24v-114q0 -24 18.5 -40.5t45.5 -18.5h413q25 0 37 17.5t12 44.5v164h-29
l-643 222q-78 28 -108 76.5t-30 120.5v161q0 66 31.5 107t75 64.5t91 31.5t78.5 8h558q42 0 90 -8t89.5 -34t68.5 -66t27 -102v-130z" />
    <glyph glyph-name="uni1792" unicode="&#x1792;" horiz-adv-x="1725" 
d="M1557 1097h-30l-381 149l-216 -141h-96l-374 156l-267 -128v-15l162 -132v-586l510 199l539 -205v402q-8 16 -20 21.5t-22 5.5q-26 -2 -43 -19t-17 -47q0 -35 13.5 -45.5t29 -16.5t29 -15.5t13.5 -41.5q0 -30 -22.5 -50t-62.5 -20q-47 0 -72.5 28.5t-25.5 94.5
q0 39 10 81.5t46 83.5q37 42 86 56t85 14h33q25 0 47 -21t22 -52v-600h-129l-539 195l-510 -195h-127v658l-140 119v124l420 224h69l380 -164l244 164h51l303 -131q20 -7 41 -7q22 0 48 9l19 -41z" />
    <glyph glyph-name="uni1793" unicode="&#x1793;" horiz-adv-x="1725" 
d="M279 728h82v-22q0 -39 19 -68t82 -62l282 -166q41 -25 78 -35.5t90 -10.5h424q20 1 35.5 5t26 13t16.5 24.5t6 44.5v110q0 36 -9 54.5t-21 28.5t-30.5 17t-39.5 12.5t-78 13.5l-855 149q-54 13 -82.5 25.5t-47 29.5t-25.5 43.5t-7 44.5v214q1 47 30 87t76 64t103 31t91 7
h742q44 0 94 -15.5t93 -43.5t71.5 -67.5t28.5 -89.5v-172q0 -33 -25 -54t-52 -21h-31q-48 0 -86.5 5t-79 17t-73.5 35.5t-45 49.5t-14 41.5t-2 37.5q0 18 4.5 34.5t15 30.5t27 24.5t46.5 10.5q42 0 62.5 -25.5t20.5 -57.5q0 -21 -11.5 -35.5t-23 -22t-22.5 -14t-11 -17.5
q0 -10 4.5 -16.5t14 -11.5t30.5 -5q42 0 73 17t43 32v80q0 36 -16 61.5t-41.5 42.5t-56 25.5t-59.5 8.5h-705q-42 0 -82.5 -7.5t-60.5 -23t-28.5 -36t-8.5 -46.5v-122q0 -20 3 -38t26 -33.5t127 -34.5l783 -135q75 -14 114 -28.5t71 -35t50.5 -52.5t18.5 -77v-186
q0 -41 -15 -70t-38.5 -49.5t-54 -30t-62.5 -9.5h-512q-33 0 -77.5 8t-77.5 24t-53 29l-303 179v-240h-135v426z" />
    <glyph glyph-name="uni1794" unicode="&#x1794;" horiz-adv-x="1723" 
d="M1287 253h-779q-30 0 -78 8t-93.5 30.5t-78.5 61.5t-33 102v591q-3 30 -27 46.5t-59 16.5q-12 0 -24.5 -6t-24.5 -6q-14 0 -23 20l-42 82l215 179h28l156 -80q11 -4 24 -4q10 0 17 1l18 -30l-95 -82q-6 0 -20 9t-35 20t-49 21t-61 10q-10 0 -23 -3.5t-24 -9.5l-16 -9
q-14 -10 -24 -23l3 -5q24 5 50 5q76 0 114.5 -29.5t48.5 -69.5v-611q2 -37 18.5 -61t41 -38.5t54.5 -20.5t57 -6h744q27 0 55.5 7.5t51 23.5t37.5 40t15 57v556q-3 30 -27 46.5t-58 16.5q-12 0 -25 -6t-25 -6q-13 0 -22 20l-42 82l214 179h29l156 -80q12 -4 24 -4q9 0 16 1
l18 -30l-94 -82q-6 0 -20.5 9t-35.5 20t-48.5 21t-60.5 10q-11 0 -25.5 -4t-24.5 -10l-15 -9q-11 -7 -22 -22l3 -5q24 5 49 5q77 0 115 -29.5t49 -69.5v-647q0 -45 -23 -81.5t-56.5 -60.5t-64.5 -36.5t-40 -14.5q-24 -4 -46 -5t-37 -1z" />
    <glyph glyph-name="uni1795" unicode="&#x1795;" horiz-adv-x="1575" 
d="M475 1261l-222 -128v-15l168 -147v-571l407 199l447 -205v373q-6 17 -18 22t-23 5q-25 -1 -42.5 -18.5t-17.5 -47.5q0 -34 13.5 -44.5t29.5 -16.5t29.5 -16t13.5 -41q0 -30 -22.5 -50.5t-63.5 -20.5q-55 0 -76 28.5t-21 94.5q0 39 9.5 82t45.5 83q38 42 86.5 56.5
t84.5 14.5h33q27 0 47.5 -21t20.5 -53v-571h-129l-447 195l-407 -197h-127v657l-146 122v124l360 224h84l356 -219q66 -40 103.5 -53t70.5 -13t66.5 7.5t60 27t43 52.5t16.5 85q0 60 -59 60q-7 0 -17.5 -1.5t-19.5 -1.5q-62 0 -62 71q0 31 10 53.5t25.5 36t36 19.5t39.5 6
q45 0 76.5 -15t52 -40.5t30 -59t9.5 -75.5q0 -88 -39 -150t-93.5 -101t-118.5 -57t-119 -18q-36 0 -70.5 4.5t-53.5 10.5t-68 29z" />
    <glyph glyph-name="uni1796" unicode="&#x1796;" horiz-adv-x="1650" 
d="M1474 253h-138v888l-200 86l-292 -145h-40l-359 145l-142 -88q32 -22 46 -40.5t23 -43.5v-690q41 0 62.5 12t32 28.5t15.5 34t5 29.5q0 9 -12 12.5t-26 13.5t-26 29.5t-12 58.5q0 33 9.5 57t30 40t46.5 16q42 0 71 -30.5t29 -90.5q0 -61 -22 -119.5t-60 -103.5t-82.5 -73
t-92.5 -28h-31q-26 0 -50.5 19.5t-24.5 51.5v664q0 29 -23.5 56.5t-56.5 27.5v90l291 215h29l363 -156l304 156h30l303 -143v-979z" />
    <glyph glyph-name="uni1797" unicode="&#x1797;" horiz-adv-x="1725" 
d="M399 326q0 -31 -22 -52t-47 -21h-33q-36 0 -89 14t-89 55q-36 40 -46 83.5t-10 82.5q0 61 25.5 92t73.5 31q41 0 62.5 -21t21.5 -51q0 -31 -13.5 -40t-29 -14.5t-29 -16t-13.5 -46.5q0 -30 17 -47t43 -19q15 0 28 5.5t21 21.5v404q0 19 6.5 42.5t22.5 46.5t42 44t64 35
l-257 135v79l360 209h69l380 -164l244 164h51l303 -131q20 -7 41 -7q22 0 48 9l19 -41l-106 -111h-30l-369 156l-228 -148h-96l-372 148l-164 -90v-15l323 -162h649q30 0 78 -8t94 -30.5t79 -61.5t33 -102v-531h-129v498q0 37 -16.5 61t-41.5 38.5t-55 20.5t-57 6h-697
q-27 0 -55.5 -7.5t-51 -23.5t-37.5 -40t-15 -57v-423z" />
    <glyph glyph-name="uni1798" unicode="&#x1798;" horiz-adv-x="1725" 
d="M1287 253h-779q-30 0 -78 8t-93.5 30.5t-78.5 61.5t-33 102v591q-2 30 -23.5 46.5t-50.5 16.5q-17 0 -32.5 -6t-27.5 -6q-13 0 -22 20l-42 81l214 180h29l156 -80q11 -4 24 -4q9 0 16 1l18 -30l-94 -82q-6 0 -20.5 9t-35.5 20t-48.5 21t-60.5 10q-11 0 -23.5 -3t-22.5 -9
q-31 -18 -41 -33l3 -5q24 5 49 5q77 0 115 -29.5t49 -69.5v-254h1072v201q-3 30 -27 46.5t-50 16.5q-12 0 -29 -6t-29 -6q-13 0 -22 20l-42 82l214 179h29l156 -80q10 -4 24 -4q9 0 16 1l18 -30l-94 -82q-6 0 -20.5 9t-35.5 20t-48.5 21t-60.5 10q-11 0 -24 -3.5t-23 -9.5
q-30 -17 -40 -32l3 -5q24 5 49 5q77 0 115 -29.5t49 -69.5v-647q0 -45 -26.5 -80t-59.5 -59t-63.5 -37.5t-47 -16.5t-36 -4.5t-34.5 -1.5zM370 427q26 -36 68.5 -50.5t84.5 -14.5h744q27 0 55.5 7.5t51 23.5t37.5 40t15 57v271h-1072v-273q0 -36 16 -61z" />
    <glyph glyph-name="uni1799" unicode="&#x1799;" horiz-adv-x="2025" 
d="M225 455v849q0 32 21.5 53t47.5 21h33q36 0 84 -14.5t85 -56.5q38 -42 47.5 -83t9.5 -82q0 -66 -21 -94.5t-76 -28.5q-42 0 -64 20.5t-22 50.5q0 31 13 40t28.5 13.5t29 16t13.5 48.5q0 30 -16.5 47.5t-41.5 18.5q-11 0 -23 -5t-19 -22v-759q0 -37 16.5 -61t41 -38.5
t54.5 -20.5t57 -6h294q53 0 105.5 30.5t52.5 84.5v557q-2 32 -26.5 47t-60.5 15q-12 0 -24 -1.5t-29 -1.5q-22 0 -34 25l-27 66l214 195h29l156 -79q10 -5 24 -5q9 0 16 2l18 -30l-94 -83q-6 0 -20.5 9t-35.5 20.5t-48.5 21t-60.5 9.5q-11 0 -23.5 -3.5t-22.5 -9.5
q-31 -17 -51 -47l3 -4q29 4 59 4q77 0 115 -29t52 -70v-597q0 -37 16.5 -61t41 -38.5t54.5 -20.5t57 -6h294q27 0 55.5 7.5t51 23.5t37.5 40t15 57v537q0 37 -24 53t-64 16q-12 0 -24 -1.5t-29 -1.5q-22 0 -34 25l-27 66l214 195h29l156 -79q11 -5 24 -5q10 0 16 2l18 -30
l-94 -83q-6 0 -20.5 9t-35.5 20.5t-48.5 21t-60.5 9.5q-11 0 -24.5 -3.5t-23.5 -9.5q-29 -17 -49 -47l3 -4q29 4 59 4q77 0 115 -29t52 -70v-633q-11 -100 -77.5 -149.5t-171.5 -49.5h-347q-21 0 -48.5 3t-57.5 11t-61 22.5t-58 36.5q-43 -33 -74 -48.5t-63 -20t-59 -4.5
h-329q-30 0 -78 8t-93.5 30.5t-78.5 61.5t-33 102z" />
    <glyph glyph-name="uni179A" unicode="&#x179a;" horiz-adv-x="675" 
d="M493 1085v-759q0 -31 -21.5 -52t-47.5 -21h-33q-41 0 -93.5 14t-88.5 55q-36 40 -45.5 83.5t-9.5 82.5q0 58 26.5 90.5t72.5 32.5q40 0 62 -21t22 -51q0 -31 -13.5 -40t-29.5 -14.5t-29.5 -16t-13.5 -46.5q0 -30 17.5 -47t42.5 -19q11 0 26 5.5t27 21.5v663
q-3 20 -27.5 35t-60.5 15q-12 0 -24 -1.5t-29 -1.5q-22 0 -34 25l-27 66l214 195h29l156 -79q11 -5 24 -5q9 0 16 2l18 -30l-94 -83q-6 0 -20.5 9t-35.5 20.5t-48.5 21t-60.5 9.5q-11 0 -24.5 -3.5t-23.5 -9.5q-29 -17 -49 -47l3 -4q29 4 59 4q77 0 115 -29t53 -70z" />
    <glyph glyph-name="uni179B" unicode="&#x179b;" horiz-adv-x="1875" 
d="M1423 253h-238q-30 0 -78 8t-94 30.5t-79 61.5t-33 102v684q0 33 -15 57t-37.5 40t-51 23.5t-55.5 7.5h-219q-27 0 -57 -6t-54.5 -20.5t-41 -38.5t-16.5 -61v-764q7 -16 24 -21.5t28 -5.5q25 2 41.5 19t16.5 47q0 35 -13.5 45.5t-29 16.5t-28.5 15t-13 40q0 30 22 51
t62 21q46 0 67.5 -32.5t21.5 -90.5q0 -39 -7 -81.5t-40 -84.5q-36 -41 -84.5 -55t-94.5 -14h-33q-26 0 -47.5 21t-21.5 52v854q0 63 33 102t78.5 61.5t93.5 30.5t78 8h254q69 0 125 -16.5t103 -74.5q18 -22 28.5 -49.5t10.5 -58.5v-689q1 -37 17.5 -61t41.5 -38.5t55 -20.5
t57 -6h204q24 0 51.5 7t51.5 22t40 36.5t16 53.5v565q-3 20 -28 35t-61 15q-12 0 -24 -1.5t-28 -1.5q-23 0 -35 25l-27 66l215 195h28l156 -79q11 -5 24 -5q11 0 17 2l18 -30l-95 -83q-6 0 -20 9t-35 20.5t-49 21t-61 9.5q-10 0 -23 -3.5t-24 -9.5q-29 -17 -45 -47l3 -4
q25 4 55 4q76 0 114.5 -29t51.5 -70v-633q0 -45 -25.5 -81.5t-58.5 -60.5t-64.5 -36t-48 -15t-36 -4.5t-34.5 -1.5z" />
    <glyph glyph-name="uni179C" unicode="&#x179c;" horiz-adv-x="675" 
d="M598 1424q0 -34 -6.5 -59t-18 -46.5t-29.5 -42.5t-43 -50l-89 -90h-10q-8 9 -22 22t-33 25.5t-40.5 21t-45.5 8.5q-12 0 -24 -6.5t-22.5 -17t-28.5 -35.5l3 -4q24 4 45 4q36 0 80 -9.5t75 -29t57 -49t41 -66.5v-677q0 -31 -19.5 -51.5t-44.5 -20.5h-33q-46 0 -95.5 13.5
t-85.5 54.5q-36 40 -46 83.5t-10 82.5q0 58 27 90.5t72 32.5q41 0 62.5 -21t21.5 -51q0 -31 -13.5 -40t-29 -14.5t-29 -16t-13.5 -46.5q0 -30 17 -47t43 -19q10 0 27 5.5t25 21.5v546q0 51 -41.5 84t-122.5 33q-12 0 -23 -1.5t-22 -1.5q-12 0 -20 7t-23 31l-30 57l198 244
h27l122 -81q17 -12 28 -12q15 0 29 8.5t24.5 20.5t16.5 26t6 26q0 31 -10 44t-28 13q-14 0 -30.5 -5t-35.5 -5q-29 1 -46.5 14.5t-17.5 46.5q0 35 25 55t68 20q54 0 97.5 -33t43.5 -93z" />
    <glyph glyph-name="uni179D" unicode="&#x179d;" horiz-adv-x="1800" 
d="M1557 1097h-30l-381 149l-216 -141h-96l-374 156l-172 -89v-15l358 -171h624q30 0 78 -8t94 -30.5t79 -61.5t33 -102v-174q14 -3 30 -3q40 0 62 9t35.5 20t24 21t23.5 10q20 0 20 -26q0 -22 -7 -39.5t-16 -28.5t-20 -21t-19.5 -15t-22.5 -11t-37.5 -10.5t-47.5 -4.5
q-15 0 -25 1v-259h-129v273q-27 4 -59.5 14t-61.5 27t-48.5 41t-19.5 59q0 25 19.5 42.5t53.5 17.5q35 0 55 -13.5t31 -28t16.5 -23.5t13.5 -20v109q0 37 -16.5 61t-41.5 38.5t-55 20.5t-57 6h-744q-27 0 -55.5 -7.5t-51 -23.5t-37.5 -40t-15 -57v-307q54 61 76.5 89.5
t36 44.5t31.5 28q26 16 43 20.5t32 4.5q33 0 46 -18.5t13 -41.5q0 -31 -9.5 -44.5t-21.5 -13.5q-10 0 -21 2t-23 2q-15 0 -27.5 -3t-26.5 -11t-32.5 -24.5t-47.5 -45.5q-33 -34 -48 -54.5t-18 -44.5t-3 -39v-40h-127v534q0 58 37.5 110.5t115.5 72.5l-230 120v79l360 209h69
l380 -164l244 164h51l303 -131q21 -7 41 -7q22 0 48 9l19 -41z" />
    <glyph glyph-name="uni179E" unicode="&#x179e;" horiz-adv-x="1725" 
d="M1287 253h-779q-30 0 -78 8t-93.5 30.5t-78.5 61.5t-33 102v591q-2 30 -26 46.5t-58 16.5q-12 0 -25 -6t-25 -6q-13 0 -22 20l-42 81l214 180h29l156 -80q11 -4 24 -4q10 0 16 1l18 -30l-94 -82q-6 0 -20.5 9t-35.5 20t-48.5 21t-60.5 10q-11 0 -26 -3.5t-25 -9.5
q-26 -17 -36 -32l3 -5q24 5 49 5q77 0 115 -29.5t49 -69.5v-611q0 -37 16.5 -61t41 -38.5t54.5 -20.5t57 -6h744q27 0 55.5 7.5t51 23.5t37.5 40t15 57v169q-27 5 -60 15.5t-62 27.5t-48.5 41t-19.5 59q0 25 19.5 42.5t53.5 17.5q35 0 56.5 -14.5t31.5 -30.5t15 -26.5
t14 -18.5v274q-3 30 -27 46.5t-58 16.5q-12 0 -25 -6t-25 -6q-13 0 -22 20l-42 82l214 179h29l156 -80q11 -4 24 -4q8 0 16 1l18 -30l-94 -82q-6 0 -20.5 9t-35.5 20t-48.5 21t-60.5 10q-11 0 -26.5 -4t-25.5 -10q-25 -16 -35 -31l3 -5q24 5 49 5q77 0 115 -29.5t49 -69.5
v-354q22 -3 30 -3q40 0 62 9t35.5 20t22.5 21t25 10q20 0 20 -26q0 -22 -7 -39.5t-16 -28.5t-20 -21t-19.5 -15t-22.5 -11t-37.5 -10.5t-57.5 -4.5q-5 0 -15 1v-195q0 -45 -26 -82t-59 -61t-64 -35.5t-47.5 -14.5t-36 -4.5t-34.5 -1.5z" />
    <glyph glyph-name="uni179F" unicode="&#x179f;" horiz-adv-x="1875" 
d="M1423 253h-238q-30 0 -78 8t-94 30.5t-79 61.5t-33 102v384q0 33 -15 57t-37.5 40t-51 23.5t-55.5 7.5h-219q-27 0 -57 -6t-54.5 -20.5t-41 -38.5t-16.5 -61v-458q7 -16 19 -21.5t23 -5.5q25 2 41.5 19t16.5 47q0 35 -13.5 45.5t-29 16.5t-28.5 15t-13 40q0 30 22 51
t62 21q56 0 77.5 -27.5t21.5 -95.5q0 -39 -9.5 -81.5t-47.5 -84.5q-36 -41 -84.5 -55t-84.5 -14h-33q-26 0 -47.5 21t-21.5 52v548q0 43 17 75.5t44 55.5t60 37.5t65 21.5q-15 15 -32.5 22.5t-44.5 7.5q-12 0 -24 -1.5t-28 -1.5q-23 0 -35 26l-27 66l215 195h28l156 -80
q11 -4 24 -4q9 0 17 1l18 -30l-95 -82q-6 0 -20 9t-35 20t-49 21t-61 10q-10 0 -22 -5t-25 -15q-30 -23 -41 -38l3 -5q21 3 51 3q71 0 129 -71q31 -36 121 -36h128q44 0 85.5 -8t73.5 -26t58.5 -45.5t38 -58t11.5 -61.5v-389q0 -37 17 -61t42 -38.5t55 -20.5t57 -6h204
q24 0 51.5 7t51.5 22t40 36.5t16 53.5v556q0 38 -25.5 55t-60.5 17q-12 0 -24.5 -6t-24.5 -6q-14 0 -25 20l-40 66l215 195h28l156 -80q10 -4 24 -4q9 0 17 1l18 -30l-95 -82q-6 0 -20 9t-35 20t-49 21t-61 10q-10 0 -22.5 -3.5t-23.5 -9.5q-30 -17 -41 -32l3 -5q24 5 50 5
q76 0 114.5 -29.5t48.5 -69.5v-647q0 -45 -26 -80t-59 -59t-64 -37.5t-47.5 -16.5t-36 -4.5t-34.5 -1.5z" />
    <glyph glyph-name="uni17A0" unicode="&#x17a0;" horiz-adv-x="1875" 
d="M762 253h-254q-30 0 -78 8t-93.5 30.5t-78.5 61.5t-33 102v600q0 21 -25.5 37.5t-53.5 16.5q-12 0 -27.5 -6t-27.5 -6q-13 0 -24 20l-40 66l214 195h29l156 -80q11 -4 24 -4q8 0 16 1l18 -30l-94 -82q-6 0 -20.5 9t-35.5 20t-48.5 21t-60.5 10q-11 0 -25 -4t-24 -10
q-28 -16 -38 -31l3 -5q24 5 49 5q77 0 115 -29.5t49 -69.5v-611q0 -37 16.5 -61t41 -38.5t54.5 -20.5t57 -6h219q27 0 55.5 7.5t51 23.5t37.5 40t15 57v686q-1 63 32 102t78.5 61.5t93.5 30.5t78 8h225q54 0 108 -12t94.5 -37.5t67 -63t26.5 -86.5v-926h-128v888
q0 24 -13.5 46.5t-36 40.5t-53 29.5t-66.5 11.5h-209q-27 0 -57 -6t-54.5 -20.5t-41 -38.5t-16.5 -61v-691q0 -45 -26.5 -81.5t-59.5 -60.5t-63.5 -36t-47 -15t-36 -4.5t-34.5 -1.5z" />
    <glyph glyph-name="uni17A1" unicode="&#x17a1;" horiz-adv-x="1875" 
d="M1239 1039q0 -26 -13 -43t-33 -28.5t-47 -17.5t-54 -6q-53 0 -81.5 6t-45.5 14t-28.5 15t-29.5 25q-16 17 -27.5 42.5t-11.5 53.5q0 46 25.5 77t71.5 31q38 0 61.5 -22.5t23.5 -62.5q0 -30 -8.5 -40.5t-19.5 -10.5q-7 0 -13.5 3t-14.5 3q-7 0 -13.5 -6t-6.5 -15
q0 -13 23 -24.5t59 -11.5q46 0 46 37v86q0 37 -7 55.5t-16.5 27t-21.5 17.5q-30 16 -58.5 18t-56.5 2h-422q-28 0 -57.5 -5.5t-53.5 -19.5t-39 -39t-15 -62v-80q0 -52 9 -82.5t39.5 -47.5t67.5 -30l447 -189h45q0 25 15 43t34.5 26t36.5 10t22 2q18 0 37.5 -5.5t36 -17.5
t27 -31.5t10.5 -46.5q0 -19 -9 -37t-25 -32.5t-35.5 -22t-40.5 -9.5v-221q0 -33 -12.5 -55t-30 -35.5t-36 -18.5t-29.5 -5h-474q-12 0 -32 6t-39.5 18.5t-34 33.5t-14.5 53v172l54 23h36l44 -24v-114q0 -24 18.5 -40.5t45.5 -18.5h323q25 0 37 17.5t12 44.5v164h-39
l-543 222q-78 28 -108 76.5t-30 120.5v161q0 66 31.5 107t75 64.5t91 31.5t78.5 8h468q42 0 90 -8t89.5 -34t68.5 -66t27 -102v-130zM946 -16q-9 11 -21 15.5t-22 4.5q-26 0 -43 -13t-17 -37q0 -13 3.5 -20t10.5 -12t14.5 -12.5t13.5 -19t6 -29.5q0 -22 -17 -35.5t-46 -13.5
q-36 0 -59.5 21.5t-23.5 71.5q0 30 10 62t46 62t85.5 40.5t85.5 10.5h33q25 0 47 -15t22 -39v-313l243 163l244 -163v1324q0 38 -25.5 55t-59.5 17q-12 0 -25 -6t-25 -6q-13 0 -22 20l-42 66l214 195h29l156 -80q11 -4 24 -4q8 0 16 1l18 -30l-94 -82q-6 0 -20.5 9t-35.5 20
t-48.5 21t-60.5 10q-11 0 -24 -3t-23 -9q-30 -18 -40 -33l3 -5q24 5 49 5q77 0 115 -29.5t49 -69.5v-1520h-128l-244 163l-243 -163h-128v405z" />
    <glyph glyph-name="uni17A2" unicode="&#x17a2;" horiz-adv-x="1725" 
d="M477 1085v-240h937v188q-3 34 -27.5 48.5t-60.5 14.5q-12 0 -24 -1.5t-29 -1.5q-22 0 -34 25l-27 66l214 195h29l156 -79q14 -5 24 -5q8 0 16 2l18 -30l-94 -83q-6 0 -20.5 9t-35.5 20.5t-48.5 21t-60.5 9.5q-11 0 -23.5 -3.5t-22.5 -9.5q-31 -17 -51 -47l3 -4q29 4 59 4
q77 0 115 -29t52 -70v-759q0 -31 -21 -52t-47 -21h-33q-36 0 -85.5 14t-85.5 55q-36 40 -45.5 83.5t-9.5 82.5q0 68 31.5 95.5t67.5 27.5q40 0 62 -21t22 -51q0 -31 -13.5 -40t-29.5 -14.5t-29.5 -16t-13.5 -46.5q0 -30 17.5 -47t42.5 -19q11 0 23 5.5t19 21.5v378h-937
v-435q0 -31 -21 -52t-47 -21h-33q-36 0 -85.5 14t-85.5 55q-36 40 -45.5 83.5t-9.5 82.5q0 68 31.5 95.5t67.5 27.5q40 0 62 -21t22 -51q0 -31 -13.5 -40t-29.5 -14.5t-29.5 -16t-13.5 -46.5q0 -30 17.5 -47t42.5 -19q11 0 23 5.5t19 21.5v650q-3 34 -27.5 48.5t-60.5 14.5
q-12 0 -24 -1.5t-29 -1.5q-22 0 -34 25l-27 66l214 195h29l156 -79q12 -5 24 -5q8 0 16 2l18 -30l-94 -83q-6 0 -20.5 9t-35.5 20.5t-48.5 21t-60.5 9.5q-11 0 -23.5 -3.5t-22.5 -9.5q-31 -17 -51 -47l3 -4q29 4 59 4q77 0 115 -29t52 -70z" />
    <glyph glyph-name="uni17A3" unicode="&#x17a3;" horiz-adv-x="1725" 
d="M477 1085v-240h937v188q-3 34 -27.5 48.5t-60.5 14.5q-12 0 -24 -1.5t-29 -1.5q-22 0 -34 25l-27 66l214 195h29l156 -79q14 -5 24 -5q8 0 16 2l18 -30l-94 -83q-6 0 -20.5 9t-35.5 20.5t-48.5 21t-60.5 9.5q-11 0 -23.5 -3.5t-22.5 -9.5q-31 -17 -51 -47l3 -4q29 4 59 4
q77 0 115 -29t52 -70v-759q0 -31 -21 -52t-47 -21h-33q-36 0 -85.5 14t-85.5 55q-36 40 -45.5 83.5t-9.5 82.5q0 68 31.5 95.5t67.5 27.5q40 0 62 -21t22 -51q0 -31 -13.5 -40t-29.5 -14.5t-29.5 -16t-13.5 -46.5q0 -30 17.5 -47t42.5 -19q11 0 23 5.5t19 21.5v378h-937
v-435q0 -31 -21 -52t-47 -21h-33q-36 0 -85.5 14t-85.5 55q-36 40 -45.5 83.5t-9.5 82.5q0 68 31.5 95.5t67.5 27.5q40 0 62 -21t22 -51q0 -31 -13.5 -40t-29.5 -14.5t-29.5 -16t-13.5 -46.5q0 -30 17.5 -47t42.5 -19q11 0 23 5.5t19 21.5v650q-3 34 -27.5 48.5t-60.5 14.5
q-12 0 -24 -1.5t-29 -1.5q-22 0 -34 25l-27 66l214 195h29l156 -79q12 -5 24 -5q8 0 16 2l18 -30l-94 -83q-6 0 -20.5 9t-35.5 20.5t-48.5 21t-60.5 9.5q-11 0 -23.5 -3.5t-22.5 -9.5q-31 -17 -51 -47l3 -4q29 4 59 4q77 0 115 -29t52 -70z" />
    <glyph glyph-name="uni17A4" unicode="&#x17a4;" horiz-adv-x="2400" 
d="M2086 253v822l-426 186l-271 -71q-21 -6 -32.5 -12t-11.5 -13q0 -8 36 -8q11 0 21.5 1t20.5 1q44 0 74.5 -13.5t42.5 -60.5v-759q0 -31 -21 -52t-46 -21h-33q-36 0 -85.5 14t-85.5 55q-36 40 -46 83.5t-10 82.5q0 68 32 95.5t67 27.5q41 0 62.5 -21t21.5 -51
q0 -31 -13.5 -40t-29 -14.5t-29 -16t-13.5 -46.5q0 -30 17 -48t43 -18q10 0 22 5.5t20 21.5v378h-936v-435q0 -31 -21 -52t-47 -21h-33q-36 0 -85.5 14t-85.5 55q-36 40 -45.5 83.5t-9.5 82.5q0 68 31.5 95.5t67.5 27.5q40 0 62 -21t22 -51q0 -31 -13.5 -40t-29.5 -14.5
t-29.5 -16t-13.5 -46.5q0 -30 17.5 -48t42.5 -18q11 0 23 5.5t19 21.5v644q0 37 -24 53t-64 16q-12 0 -24 -1.5t-29 -1.5q-22 0 -34 25l-27 66l214 195h29l156 -79q11 -5 24 -5q9 0 16 2l18 -30l-94 -83q-6 0 -20.5 9t-35.5 20.5t-48.5 21t-60.5 9.5q-11 0 -23.5 -3.5
t-22.5 -9.5q-31 -17 -41 -47l3 -4q19 4 49 4q77 0 115 -29t52 -70v-240h936v186q-3 20 -28 35t-53 15q-7 0 -19.5 -1t-21.5 -1q-13 0 -26.5 4.5t-18.5 22.5l-31 117l484 155h53l456 -204v-921h-122z" />
    <glyph glyph-name="uni17A5" unicode="&#x17a5;" horiz-adv-x="1725" 
d="M352 749v-366q8 -16 20 -21.5t22 -5.5q26 0 42.5 18t16.5 48q0 35 -13.5 45.5t-29.5 16.5t-28.5 15t-12.5 40q0 30 21.5 51t62.5 21q55 0 77 -27.5t22 -95.5q0 -39 -10 -81.5t-47 -84.5q-36 -41 -85 -55t-85 -14h-33q-25 0 -46 21t-21 52v461q0 37 15.5 64t36.5 47.5
t43 35.5t41 24l-213 147v105l360 193h84l481 -189q116 -41 140 -47.5t43 -8t37 -1.5q28 0 56 7t52.5 23.5t40.5 46.5t16 75q0 49 -56 49q-9 0 -21 -1.5t-21 -1.5q-60 0 -60 60q0 41 33 71t85 30q37 0 68.5 -13t52.5 -35.5t30.5 -51.5t9.5 -61q-1 -36 -10 -68.5t-42.5 -76.5
t-82.5 -73.5t-86.5 -41t-74.5 -18.5t-81 -7q-36 0 -73 3t-73 15l-581 215l-222 -111v-29l255 -177h762q30 0 78 -8t94 -30.5t79 -61.5t33 -102v-531h-129v498q0 37 -16.5 61t-41.5 38.5t-55 20.5t-57 6h-744q-27 0 -55.5 -7.5t-51 -23.5t-37.5 -40t-15 -57z" />
    <glyph glyph-name="uni17A6" unicode="&#x17a6;" horiz-adv-x="1545" 
d="M1371 -422h-126q-33 54 -63.5 90.5t-65 64t-72 49t-81.5 34.5v-187q0 -23 -13 -37t-34 -14h-63q-42 0 -72.5 14t-50.5 38t-32.5 55.5t-12.5 79.5q0 38 13.5 68.5t34.5 53t48 35.5t56 13v64q0 17 -25 36.5t-79 35.5q-46 9 -111 9h-75q-99 0 -147.5 -27.5t-48.5 -56.5v-327
h16q30 0 45 18t15 32q0 7 -9.5 9.5t-21 9t-21 23t-9.5 55.5q0 36 8 55.5t18.5 28t21 12t25.5 3.5q32 0 50.5 -27.5t18.5 -78.5q0 -57 -21 -100t-50 -72t-61.5 -44t-56.5 -15h-34q-23 0 -41.5 25.5t-18.5 58.5v373q0 30 27 54t72 40.5t102 25t118 8.5h86q83 0 125.5 -6
t64 -13t48.5 -16q44 -16 69.5 -40t25.5 -50v-103q33 -9 76.5 -27.5t83 -42.5t71 -50t51.5 -50v1655q0 40 -19 66.5t-46.5 40.5t-60.5 19.5t-62 5.5q-27 0 -60.5 -5.5t-63 -16.5t-49.5 -29t-20 -42v-50h-129v107q0 54 -28 95q-15 19 -27.5 25.5t-23 10.5t-21.5 13t-10 28
q0 29 22 44.5t47 15.5q33 0 62.5 -15t51 -38t36 -52.5t18.5 -57.5q32 25 85 40t110 15q75 0 133.5 -15t98.5 -40.5t61 -59t21 -69.5v-1878zM492 1091h190q30 0 78 -8t94 -30.5t77.5 -61.5t31.5 -102v-636h-126v603q0 37 -16.5 61t-41.5 38.5t-55 20.5t-57 6h-156
q-27 0 -55.5 -7.5t-51 -23.5t-37.5 -40t-15 -57v-471q8 -16 20 -21.5t22 -5.5q26 0 42.5 18t16.5 48q0 35 -13.5 45.5t-29.5 16.5t-28.5 15t-12.5 40q0 30 21.5 51t62.5 21q55 0 77 -27.5t22 -95.5q0 -39 -10 -81.5t-47 -84.5q-36 -41 -85 -55t-85 -14h-33q-25 0 -46 21
t-21 52v566q0 46 24.5 82.5t58 60.5t65.5 36t59.5 16t59.5 4zM837 -184q-23 -3 -36.5 -15t-13.5 -42t13.5 -42.5t36.5 -14.5v114z" />
    <glyph glyph-name="uni17A7" unicode="&#x17a7;" horiz-adv-x="1575" 
d="M1401 985q0 -44 -20.5 -77t-53.5 -59t-76.5 -44t-89.5 -27l-755 -121q-27 -4 -46.5 -22.5t-19.5 -39.5v-161q0 -42 24 -59t60 -17h537q67 0 119 14t113 68q57 63 74 104t17 70v44l43 33h36l38 -30v-540l-38 -27h-54l-25 25v284q-14 -18 -36.5 -44.5t-59 -49.5
t-90.5 -39.5t-132 -16.5h-618q-75 0 -99 29t-24 80v258q0 41 17 66.5t49.5 42.5t79 26t104.5 16l599 98q80 14 104 24t46.5 25t35 32t18.5 35t6 43v152q0 41 -30.5 65.5t-109.5 24.5h-691q-55 0 -84 -16.5t-29 -53.5v-239q0 -18 11.5 -25t27.5 -7q20 0 31 14.5t11 29.5
q0 7 -9.5 8.5t-21 7t-21 19.5t-9.5 46q0 40 21 60.5t52 20.5q27 0 49 -20.5t22 -66.5q0 -95 -50.5 -143.5t-122.5 -48.5h-30q-35 0 -55.5 27.5t-20.5 81.5v242q0 52 29 100q53 69 159 69h814q46 0 72.5 -11.5t39 -21t25.5 -24.5t25 -42.5t12 -84.5v-207z" />
    <glyph glyph-name="uni17A8" unicode="&#x17a8;" horiz-adv-x="1575" 
d="M1401 985q0 -44 -20.5 -77t-53.5 -59t-76.5 -44t-89.5 -27l-755 -121q-27 -4 -46.5 -22.5t-19.5 -39.5v-161q0 -42 24 -59t60 -17h537q67 0 119 14t113 68q57 63 74 104t17 70v44l43 33h36l38 -30v-540l-38 -27h-54l-25 25v284q-14 -18 -36.5 -44.5t-59 -49.5
t-90.5 -39.5t-132 -16.5h-618q-75 0 -99 29t-24 80v258q0 41 17 66.5t49.5 42.5t79 26t104.5 16l599 98q80 14 104 24t46.5 25t35 32t18.5 35t6 43v152q0 41 -30.5 65.5t-109.5 24.5h-691q-55 0 -84 -16.5t-29 -53.5v-239q0 -18 11.5 -25t27.5 -7q20 0 31 14.5t11 29.5
q0 7 -9.5 8.5t-21 7t-21 19.5t-9.5 46q0 40 21 60.5t52 20.5q27 0 49 -20.5t22 -66.5q0 -95 -50.5 -143.5t-122.5 -48.5h-30q-35 0 -55.5 27.5t-20.5 81.5v242q0 52 29 100q53 69 159 69h814q46 0 72.5 -11.5t39 -21t25.5 -24.5t25 -42.5t12 -84.5v-207zM1350 1525h-26
l-325 126l-183 -126h-81l-323 126l-133 -71v-12l84 -36l-101 -58l-111 45v67l306 177h59l322 -139l209 139h43l258 -111q11 -6 35 -6q15 0 40 8l17 -35z" />
    <glyph glyph-name="uni17A9" unicode="&#x17a9;" horiz-adv-x="1575" 
d="M1398 985q0 -44 -19.5 -78t-52.5 -60.5t-73 -44.5t-95 -29l-752 -121q-28 -6 -47 -20t-19 -42v-156q0 -42 24 -59t60 -17h427q57 0 122 19t112.5 72.5t63 89.5t15.5 65v54l43 33h36l38 -30v-540l-38 -27h-54l-25 25v284q-14 -18 -36.5 -44.5t-59 -49.5t-90.5 -39.5
t-132 -16.5h-498q-75 0 -99 29t-24 80v258q0 41 17 66.5t49.5 42.5t77.5 27.5t106 20.5l677 110q46 10 71 23.5t38 30.5t16.5 39.5t3.5 47.5v152q0 90 -140 90h-668q-133 0 -133 -60v-249q0 -18 8.5 -25t25.5 -7q20 0 31 14.5t11 29.5q0 7 -9.5 8.5t-21 7t-21 19.5t-9.5 46
q0 48 24 64.5t49 16.5q31 0 51 -20.5t20 -66.5q0 -95 -50.5 -143.5t-117.5 -48.5h-30q-30 0 -50.5 20.5t-23 39.5t-2.5 38v253q0 52 30 100q51 69 157 69h812q40 0 77.5 -18t55 -41.5t29.5 -54t12 -72.5v-205zM1354 658l44 33h36l37 -30v-540l-37 -27h-54l-26 25v539z" />
    <glyph glyph-name="uni17AA" unicode="&#x17aa;" horiz-adv-x="1575" 
d="M475 1633l-222 -111v-12l180 -134h794q180 0 180 -142v-242q0 -69 -54 -126t-215 -86l-732 -128q-30 -7 -48 -24t-18 -38v-156q0 -42 24 -59t60 -17h537q37 0 104 10.5t126 71.5q58 63 75.5 99t17.5 65v54l43 33h36l38 -30v-540l-38 -27h-54l-25 25v284
q-14 -18 -36.5 -44.5t-59 -49.5t-90.5 -39.5t-132 -16.5h-618q-75 0 -99 29t-24 80v258q0 41 17 66.5t51 43t124 34.5l657 105q81 14 122 29t62 41t23.5 45t2.5 44v152q0 90 -140 90h-672q-132 0 -132 -60v-249q0 -18 11.5 -25t27.5 -7q20 0 31 13.5t11 30.5q0 7 -9.5 8.5
t-21 7t-21 19.5t-9.5 46q0 43 21.5 62t51.5 19q29 0 50 -20.5t21 -66.5q0 -95 -53.5 -143.5t-120.5 -48.5h-30q-26 0 -50.5 21t-24.5 51v294q0 28 12.5 59.5t44.5 54.5l-134 97v107l360 193h84l356 -189q36 -19 63 -30.5t48.5 -17.5t40.5 -7.5t37 -1.5q28 0 59 7t55.5 23.5
t40.5 46.5t16 75q0 49 -56 49q-9 0 -21 -1.5t-21 -1.5q-60 0 -60 60q0 51 30 76t81 25q44 0 75.5 -13t52.5 -35.5t30.5 -51.5t9.5 -65q-1 -32 -13 -63.5t-28.5 -57t-33 -44t-33.5 -32t-48 -30t-67 -28.5t-73 -19t-71 -7q-36 0 -71.5 3t-55 9t-56.5 22z" />
    <glyph glyph-name="uni17AB" unicode="&#x17ab;" horiz-adv-x="1650" 
d="M1351 490v547q0 38 -24 55t-51 17q-17 0 -32.5 -6t-27.5 -6q-13 0 -25 20l-39 66l214 195h29l156 -80q12 -4 24 -4q9 0 16 1l18 -30l-94 -82q-6 0 -20.5 9t-35.5 20t-48.5 21t-60.5 10q-11 0 -24 -3.5t-23 -9.5q-30 -17 -40 -32l3 -5q24 5 49 5q77 0 115 -29.5t49 -69.5
v-1038q0 -54 -4 -102t-33 -94.5t-68 -70t-72.5 -30t-53.5 -6.5t-41 3.5t-57.5 15.5t-156.5 65q-134 64 -183.5 83t-87.5 19q-65 0 -114.5 -22.5t-88 -46.5t-64.5 -43.5t-37 -19.5q-9 0 -9 19q2 18 13 44.5t29 51.5t43 48.5t52 38.5q51 28 88.5 37.5t93.5 11.5q41 0 82 -11
t89.5 -32.5t120.5 -57.5q79 -39 130 -57t83 -18q27 0 49 6t39.5 27t23.5 55.5t6 89.5v213q-53 -19 -88.5 -22t-50.5 -3h-629q-30 0 -78 8t-93.5 30.5t-78.5 61.5t-33 102v582q1 38 -24.5 55t-53.5 17q-12 0 -28 -6t-28 -6q-13 0 -25 20l-39 66l214 195h29l156 -80
q9 -4 24 -4q8 0 16 1l18 -30l-94 -82q-6 0 -20.5 9t-35.5 20t-48.5 21t-60.5 10q-11 0 -24 -3t-23 -9q-30 -18 -40 -33l3 -5q24 5 49 5q77 0 115 -29.5t49 -69.5v-611q0 -37 16.5 -61t41 -38.5t54.5 -20.5t57 -6h594q27 0 55.5 7.5t51 23.5t37.5 40t15 57z" />
    <glyph glyph-name="uni17AC" unicode="&#x17ac;" horiz-adv-x="1650" 
d="M1636 -62.5q25 -2.5 37 -2.5q24 0 45.5 4.5t41.5 14t30.5 15.5t22.5 6q15 0 15 -15q0 -18 -15 -42q-19 -31 -39.5 -45.5t-38.5 -21t-39.5 -8t-30.5 -1.5q-27 0 -52.5 4.5t-57 12t-55.5 16.5t-47 19q-4 -15 -18.5 -38t-43 -45.5t-55.5 -34t-50 -15t-38 -3.5q-20 0 -41 3.5
t-57.5 15.5t-96.5 37.5t-132 58.5q-62 29 -83 39.5t-53 21t-70 10.5q-58 0 -107.5 -19t-88 -45t-64.5 -47t-37 -21q-9 0 -9 19q0 18 9 44.5t24.5 52t38.5 49t50 38.5q51 28 99.5 38t87.5 10q35 0 61 -5t54 -14t71.5 -29t115.5 -56q79 -39 130 -55.5t83 -16.5q27 0 46.5 7.5
t34.5 27t26 54t11 89.5v204q-55 -11 -89.5 -13.5t-49.5 -2.5h-629q-30 0 -78 8t-93.5 30.5t-78.5 61.5t-33 102v582q1 38 -24.5 55t-59.5 17q-12 0 -25 -6t-25 -6q-13 0 -22 20l-17 25q-3 6 -9 16t-16 25l214 195h29l156 -80q12 -4 24 -4q8 0 16 1l18 -30l-94 -82
q-6 0 -20.5 9t-35.5 20t-48.5 21t-60.5 10q-11 0 -24 -3t-23 -9q-30 -18 -40 -33l3 -5q24 5 49 5q77 0 115 -29.5t49 -69.5v-611q0 -37 16.5 -61t41 -38.5t54.5 -20.5t57 -6h594q27 0 55.5 7.5t51 23.5t37.5 40t15 57v547q0 38 -25.5 55t-59.5 17q-12 0 -25 -6t-25 -6
q-13 0 -22 20l-42 66l214 195h29l156 -80q11 -4 24 -4q8 0 16 1l18 -30l-94 -82q-6 0 -20.5 9t-35.5 20t-48.5 21t-60.5 10q-11 0 -24 -3.5t-23 -9.5q-30 -17 -40 -32l3 -5q24 5 49 5q77 0 115 -29.5t49 -69.5v-1011q0 -29 7 -48.5t20 -35.5t32 -30t46 -24t52 -12.5z" />
    <glyph glyph-name="uni17AD" unicode="&#x17ad;" horiz-adv-x="1650" 
d="M1470 59q0 -57 -7 -103.5t-34.5 -92t-66 -69t-71.5 -30t-52 -6.5q-20 0 -61 9.5t-78.5 25t-115.5 51.5q-72 34 -104 48.5t-55.5 24t-52 15.5t-66.5 6q-58 0 -107.5 -19.5t-88 -43.5t-64.5 -43.5t-37 -19.5q-9 0 -9 19q0 18 12 46t30 54.5t41.5 47t50.5 38.5
q51 29 88.5 39.5t85.5 10.5q49 0 98 -14.5t92.5 -34.5t119.5 -56q147 -77 209 -75q57 0 83 39.5t26 105.5v1109l-187 86l-305 -145h-40l-377 145l-124 -88q28 -24 42 -42.5t27 -41.5v-690q21 0 37.5 12t27 28.5t15.5 34t5 29.5q0 9 -12 12.5t-26 13.5t-26 29.5t-12 58.5
q0 43 9 66t23 33.5t27.5 14.5t31.5 4q38 0 66.5 -33t28.5 -93q0 -61 -22 -119.5t-55 -103.5t-72.5 -73t-77.5 -28h-31q-26 0 -50.5 19.5t-24.5 51.5v664q0 29 -23.5 56.5t-56.5 27.5v90l291 215h29l363 -146l304 146h30l299 -143v-1173z" />
    <glyph glyph-name="uni17AE" unicode="&#x17ae;" horiz-adv-x="1650" 
d="M1477.5 15q3.5 -15 22 -35t46.5 -32t56.5 -19.5t46.5 -9t30 -1.5q29 0 47 6t30 14.5t23.5 14.5t23.5 6q13 0 15 -15q0 -23 -12 -41.5t-27 -31t-29.5 -21t-37.5 -16t-64 -7.5q-27 0 -57 5t-58.5 12.5t-51.5 16t-37 15.5q-27 -43 -55.5 -65.5t-55.5 -34t-50 -14.5t-38 -4
q-20 0 -42 3t-42 9t-57.5 22t-115.5 49q-70 32 -101 46.5t-54.5 25t-55.5 18t-70 7.5q-58 0 -105 -19.5t-85.5 -43.5t-64.5 -43.5t-37 -19.5q-9 0 -9 19q0 18 9 44.5t28 53t45 50.5t53 39q51 28 94.5 38.5t94.5 10.5q28 0 49.5 -4.5t50 -16t72 -31.5t115.5 -56t125 -55
t89 -19q57 0 81 39t24 125v1079l-207 93l-285 -139h-40l-379 139l-117 -86q25 -24 39.5 -41.5t24.5 -38.5v-690q21 0 37.5 12t27 28.5t15.5 34t5 29.5q0 9 -12 12.5t-26 13.5t-26 29.5t-12 58.5q0 43 9.5 67t22.5 35.5t25.5 13.5t23.5 2q48 0 76.5 -33t28.5 -93
q0 -61 -22 -119.5t-55 -103.5t-72.5 -73t-77.5 -28h-31q-26 0 -50.5 19.5t-24.5 51.5v664q0 29 -23.5 56.5t-56.5 27.5v90l284 215h29l370 -146l304 146h30l303 -143v-1185q0 -17 3.5 -32z" />
    <glyph glyph-name="uni17AF" unicode="&#x17af;" horiz-adv-x="1725" 
d="M345 253v439q-8 17 -20 22t-22 5q-26 -1 -43 -18.5t-17 -47.5q0 -34 13.5 -44.5t29 -16.5t29 -16t13.5 -41q0 -30 -22.5 -50.5t-62.5 -20.5q-56 0 -77 28.5t-21 94.5q0 39 10 82t46 83q37 42 86 56.5t85 14.5h33q25 0 47 -21t22 -53v-387l453 258l499 -258v723
q0 62 -33.5 95t-82.5 47t-103 17t-93 3h-300q-78 0 -120.5 -2t-82 -7.5t-68.5 -17.5t-49 -31.5t-20 -44.5v-50h-129v447q0 60 -22 83.5t-38.5 31.5t-33 14t-16.5 33q0 29 22 44.5t47 15.5q29 0 59 -10.5t53 -34.5t40.5 -63t17.5 -87v-268q31 28 80 53t116 25h522
q119 0 171.5 -16t82.5 -35.5t51 -44t33 -52.5t16.5 -61t4.5 -73v-843h-188l-436 226l-389 -226h-193z" />
    <glyph glyph-name="uni17B0" unicode="&#x17b0;" horiz-adv-x="1650" 
d="M1474 -146q0 -32 -10.5 -67t-38 -64.5t-77 -48t-126.5 -18.5q-49 0 -84 7.5t-65.5 17t-57.5 24.5q-45 -18 -72 -26.5t-63.5 -15.5t-76.5 -7h-58q-40 0 -74.5 8t-59.5 21.5t-38.5 30t-13.5 34.5v77q0 59 93 78l525 57q45 4 84.5 11.5t74.5 24.5v1130l-189 89l-314 -135
h-40l-359 135l-124 -85q23 -21 37.5 -38.5t24.5 -38.5v-690q21 0 37.5 12t27 28.5t15.5 34t5 29.5q0 9 -12 12.5t-26 13.5t-26 29.5t-12 58.5q0 43 9.5 67t22.5 34t25.5 13.5t28.5 3.5q43 0 71.5 -33t28.5 -93q0 -61 -22 -119.5t-55 -103.5t-72.5 -73t-77.5 -28h-31
q-26 0 -50.5 19.5t-24.5 51.5v664q0 29 -23.5 56.5t-56.5 27.5v90l291 215h29l363 -146l304 146h30l303 -143v-1378zM1336 -85l-573 -69q-91 -9 -91 -46v-15q0 -21 30.5 -25.5t53.5 -4.5h70q24 0 49.5 4.5t47.5 14t36 26t14 40.5h104q0 -23 18.5 -41.5t41 -27t42 -11
t55.5 -2.5t57 9.5t29.5 24.5t12 32.5t3.5 33.5v57z" />
    <glyph glyph-name="uni17B1" unicode="&#x17b1;" horiz-adv-x="1576" 
d="M1401 995q0 -69 -56 -129t-180 -81l-759 -133q-26 -3 -45.5 -22t-19.5 -40v-156q0 -42 23.5 -59t59.5 -17h547q37 0 99 10.5t121 71.5q58 63 75.5 99t17.5 65v54l43 33h36l38 -30v-540l-38 -27h-54l-25 25v284q-14 -18 -36.5 -44.5t-59 -49.5t-90.5 -39.5t-132 -16.5
h-618q-75 0 -99 29t-24 80v258q0 41 17 66.5t49.5 42.5t79 26t104.5 17l680 115q45 9 71 25t38 35.5t16 37.5t4 43v152q0 90 -140 90h-672q-133 0 -133 -60v-249q0 -18 9 -25t25 -7q20 0 31 14.5t11 29.5q0 7 -9.5 8.5t-21 7t-21 19.5t-9.5 46q0 38 20.5 59.5t52.5 21.5
q27 0 49 -20.5t22 -66.5q0 -95 -50.5 -143.5t-117.5 -48.5h-30q-9 0 -20.5 2t-26.5 11t-21.5 28.5t-6.5 54.5v307q0 29 12.5 51.5t33.5 36.5t55 21.5t86 7.5h161q-12 47 -32.5 73t-46 39t-55.5 16t-63 3q-25 0 -44 -2t-37 -7.5t-36 -11.5h-67v54q0 48 31.5 99t85.5 93.5
t124.5 69.5t149.5 27q69 0 138 -18t130 -48t158 -89q155 -103 218 -148l123 -90l-50 -43l-157 96q-84 51 -133 78.5t-115 59.5q-138 63 -192 78t-120 15q-62 0 -92 -7t-50 -16t-50 -32.5t-61 -66.5q33 8 58.5 10t43.5 2q40 0 89.5 -16.5t95.5 -46.5t80.5 -73.5t44.5 -97.5
h485q36 0 65.5 -11t54.5 -31.5t39.5 -56t14.5 -90.5v-192z" />
    <glyph glyph-name="uni17B2" unicode="&#x17b2;" horiz-adv-x="1275" 
d="M921 254h-527q-72 0 -120 52.5t-48 156.5v729q0 72 28 121.5t73 83t107 46.5t128 13h297q80 0 144 -10t114.5 -39t50.5 -62q-1 -24 -14 -33t-35 -9q-27 0 -39 9.5t-31.5 22.5t-55 22.5t-98.5 9.5h-347q-90 0 -146 -50t-56 -136v-699q0 -39 14.5 -63.5t34 -39.5t41 -20.5
t35.5 -5.5h447q60 0 90 37.5t30 114.5q0 67 -30 98.5t-63 31.5q-14 -13 -23.5 -20t-32.5 -7q-29 0 -41.5 18.5t-12.5 42.5q0 18 8 37q28 6 61 30t61 58.5t46 75.5t18 83q0 35 -9 61t-31.5 46t-56.5 26.5t-85 6.5q-77 0 -115 -15t-56.5 -37.5t-25.5 -48t-7 -45.5
q0 -7 2.5 -18.5t8.5 -22t15.5 -17t23.5 -6.5q10 0 14.5 9t10.5 20t19.5 20t40.5 9q25 0 47 -21.5t22 -56.5q0 -45 -37.5 -72t-89.5 -27q-42 0 -71.5 17.5t-48 45t-27 63t-8.5 69.5q0 47 13 89.5t47 77.5t87 54t124 19h55q36 0 83 -13t84 -43t58 -76t21 -102
q0 -83 -31.5 -146.5t-72.5 -99.5q24 -16 47.5 -32t40 -40t27 -61.5t10.5 -97.5q0 -58 -21 -101.5t-55 -73t-76.5 -44.5t-84.5 -15z" />
    <glyph glyph-name="uni17B3" unicode="&#x17b3;" horiz-adv-x="1576" 
d="M1401 985q0 -44 -15.5 -79.5t-49 -61t-79.5 -44.5t-96 -27l-755 -121q-34 -6 -50 -23.5t-16 -38.5v-156q0 -42 24 -59t60 -17h537q47 0 109 10.5t120.5 72.5t76 98t17.5 65v54l43 33h36l38 -30v-540l-38 -27h-54l-25 25v284q-14 -18 -36.5 -44.5t-59 -49.5t-90.5 -39.5
t-132 -16.5h-618q-75 0 -99 29t-24 80v258q0 41 17 66.5t49.5 45t125.5 32.5l657 105q106 17 140 33.5t47.5 37t18 42t4.5 46.5v152q0 90 -140 90h-672q-132 0 -132 -60v-249q-1 -18 11.5 -25t21.5 -7q20 0 31 14.5t11 29.5q0 7 -9.5 8.5t-21 7t-21 19.5t-9.5 46
q0 48 23 64.5t50 16.5t49 -20.5t22 -66.5q0 -95 -50.5 -143.5t-117.5 -48.5h-30q-35 0 -51.5 22.5t-20 54.5t-3.5 71v213q0 50 27 91q54 68 160 68h279q-12 36 -30.5 59.5t-43.5 35.5t-55.5 16.5t-65.5 4.5q-25 0 -41 -2.5t-27 -5.5t-21.5 -6.5t-27.5 -6.5h-67v54
q0 48 33 104t85.5 97t123 64.5t149.5 23.5q73 0 134.5 -16.5t158.5 -84.5q83 -67 108 -91.5t40.5 -37.5t44.5 -13q50 0 80 67q17 41 51 41q15 0 28.5 -14.5t16.5 -45.5q0 -33 -16 -59t-45 -46.5t-60 -31.5t-76 -11q-36 0 -65 15.5t-54.5 38.5t-59 56t-75.5 62q-51 36 -98 49
t-113 13q-51 0 -92 -9t-86.5 -35t-74.5 -78q33 8 58.5 10t43.5 2q39 0 87.5 -13.5t93.5 -43.5t71.5 -72t39.5 -90h383q36 0 67.5 -11.5t57 -36t37.5 -60.5t12 -86v-197z" />
    <glyph glyph-name="uni17B4" unicode="&#x17b4;" horiz-adv-x="600" 
d="M366 1522h-113v247h113v-247zM306 253v822l-321 186l-189 -76v104l229 89h51l351 -204v-921h-121z" />
    <glyph glyph-name="uni17B5" unicode="&#x17b5;" horiz-adv-x="600" 
d="M306 253v822l-321 186l-189 -75v103l229 89h51l351 -204v-921h-121z" />
    <glyph glyph-name="uni17B6" unicode="&#x17b6;" horiz-adv-x="600" 
d="M306 253v822l-321 186l-189 -75v103l229 89h51l351 -204v-921h-121z" />
    <glyph glyph-name="uni17B7" unicode="&#x17b7;" 
d="M-353 1600q-78 61 -140 97t-110 54t-83.5 23.5t-59.5 5.5q-43 0 -89 -10.5t-82.5 -30.5t-58 -52t-25.5 -87h648zM-164 1520h-972q12 141 67 220t164 116q85 26 137 26q33 0 69.5 -4t78.5 -15t89.5 -31.5t102.5 -53.5q36 -22 67.5 -44t62.5 -43.5t63 -45t71 -45.5v-80z
" />
    <glyph glyph-name="uni17B8" unicode="&#x17b8;" 
d="M-164 1520h-972q12 141 67 220t164 116q43 14 82.5 20t64.5 6q107 0 241 -64t284 -173q20 27 27 42t9.5 30.5t2.5 27.5q0 15 -6.5 27t-15 22t-15 19t-6.5 18q0 21 16.5 35t35.5 14q31 0 51 -18.5t20 -57.5q0 -33 -6.5 -57.5t-18.5 -62.5l-25 -84v-80zM-353 1600
q-78 61 -140 97t-110 54t-83.5 23.5t-59.5 5.5q-43 0 -89 -10.5t-83.5 -31t-58.5 -52t-24 -86.5h648z" />
    <glyph glyph-name="uni17B9" unicode="&#x17b9;" 
d="M-216 1864q58 0 98 -40t40 -98q0 -41 -23.5 -76t-62.5 -50v-80h-972q12 141 67 220t163 117q81 25 138 25q31 0 72.5 -4t92.5 -18t113 -45t136 -85q3 57 43.5 95.5t94.5 38.5zM-353 1600q-78 61 -140 97t-110 54t-83.5 23.5t-59.5 5.5q-43 0 -89 -10.5t-83.5 -31t-58 -52
t-24.5 -86.5h648zM-210 1801q-32 0 -53 -21t-21 -51t21 -51t53 -21q30 0 51 21t21 51t-21 51t-51 21z" />
    <glyph glyph-name="uni17BA" unicode="&#x17ba;" 
d="M-164 1520h-972q12 141 67 220t166 118q78 24 135 24q36 0 75.5 -4.5t89 -20.5t112 -46.5t146.5 -84.5q1 13 1 18q0 15 -6.5 27t-15 22.5t-15 19.5t-6.5 18q0 21 16.5 35t35.5 14q30 0 50.5 -18.5t20.5 -57.5q0 -33 -7.5 -57t-19.5 -63q15 -11 29 -20t29 -19
q20 28 26 42.5t9.5 30t3.5 27.5q0 15 -6.5 27t-15 22t-15 19t-6.5 18q0 21 16.5 35t35.5 14q30 0 50.5 -18.5t20.5 -57.5q0 -33 -7 -57t-17 -63l-26 -84v-80zM-353 1600q-78 61 -140 97t-110 54t-83.5 23.5t-59.5 5.5q-43 0 -89 -10.5t-83.5 -31t-58.5 -52t-24 -86.5h648z
" />
    <glyph glyph-name="uni17BB" unicode="&#x17bb;" 
d="M-231 -335q0 -35 -28 -61t-68 -26q-14 0 -33.5 9t-19.5 24v18q0 13 3 16l26 29v271q0 15 -5 26.5t-21 11.5q-25 0 -25 -30q0 -4 1 -9q21 -5 31 -20.5t10 -50.5q0 -18 -7.5 -36t-27.5 -18q-30 0 -42.5 26.5t-12.5 51.5q0 27 6 53.5t20 46.5t36.5 33t57.5 13q43 0 71 -24
t28 -50v-304z" />
    <glyph glyph-name="uni17BC" unicode="&#x17bc;" 
d="M-495 -422h-104q-30 0 -78 8t-93.5 30.5t-78.5 61.5t-33 102v171q0 13 -2.5 24.5t-9.5 18.5t-19 7q-33 0 -33 -33q0 -8 10 -12q12 -6 21 -21t9 -42q0 -29 -13.5 -47.5t-34.5 -18.5q-25 0 -38 18t-13 55q1 38 9.5 61t26.5 46.5t45 40t66 16.5q46 0 75.5 -25.5t29.5 -52.5
v-173q0 -37 16.5 -61t41 -38.5t54.5 -20.5t57 -6h69q27 0 55.5 7.5t51 23.5t37.5 40t15 57v211h128v-249q0 -48 -27 -83t-61 -58.5t-64 -35.5t-57.5 -17t-57.5 -5z" />
    <glyph glyph-name="uni17BD" unicode="&#x17bd;" 
d="M-356 -422l-207 133l-190 -133h-129v373q0 13 -2.5 24.5t-10.5 18.5t-23 7q-30 0 -30 -28q0 -12 10 -16q14 -6 23 -21.5t9 -46.5q0 -24 -11.5 -43t-36.5 -19q-27 0 -39 18t-12 55q1 38 9.5 61t26.5 46.5t45 40t66 16.5q46 0 75.5 -25.5t29.5 -52.5v-336l178 124h32
l187 -124v376h128v-448h-128z" />
    <glyph glyph-name="uni17BE" unicode="&#x17be;" horiz-adv-x="1725" 
d="M475 1085v-702q8 -16 20 -21.5t22 -5.5q26 2 42.5 19t16.5 47q0 35 -13.5 45.5t-29.5 16.5t-28.5 15t-12.5 40q0 30 21.5 51t62.5 21q55 0 77 -27.5t22 -95.5q0 -39 -10 -81.5t-47 -84.5q-36 -41 -85 -55t-85 -14h-33q-25 0 -47 21t-22 52v707q-3 34 -27.5 48.5
t-60.5 14.5q-12 0 -24 -1.5t-29 -1.5q-22 0 -34 25l-27 66l214 195h29l156 -79q12 -5 24 -5q8 0 16 2l18 -30l-94 -83q-6 0 -20.5 9t-35.5 20.5t-48.5 21t-60.5 9.5q-11 0 -26 -3.5t-25 -9.5q-26 -17 -41 -47l3 -4q24 4 54 4q77 0 115 -29t53 -70zM1118 328q0 22 16 38
t38 16q23 0 39.5 -16t16.5 -38q0 -23 -16.5 -38.5t-39.5 -15.5q-22 0 -38 15.5t-16 38.5zM1123 1319q0 23 15 39.5t37 16.5q24 0 39 -16.5t15 -39.5q0 -22 -15 -37t-39 -15q-22 0 -37 15t-15 37zM1039 310q-23 0 -38.5 15t-15.5 37q0 23 15.5 39.5t38.5 16.5q22 0 38 -16.5
t16 -39.5q0 -22 -16 -37t-38 -15zM926 391q-22 0 -38 15t-16 37q0 23 16 38.5t38 15.5q23 0 38.5 -15.5t15.5 -38.5q0 -22 -15.5 -37t-38.5 -15zM848 509q-22 0 -37 16t-15 38q0 23 15 38.5t37 15.5q23 0 39.5 -15.5t16.5 -38.5q0 -22 -16.5 -38t-39.5 -16zM808 638
q-24 0 -39 16t-15 38q0 23 15 38.5t39 15.5q22 0 37 -15.5t15 -38.5q0 -22 -15 -38t-37 -16zM782 770q-24 0 -40 15t-16 38q0 22 16 38.5t40 16.5q23 0 37.5 -16.5t14.5 -38.5q0 -23 -14.5 -38t-37.5 -15zM808 899q-24 0 -39 15t-15 38q0 22 15 38.5t39 16.5q22 0 37 -16.5
t15 -38.5q0 -23 -15 -38t-37 -15zM853 1028q-23 0 -39.5 15t-16.5 38q0 24 16.5 39.5t39.5 15.5q22 0 37 -15.5t15 -39.5q0 -23 -15 -38t-37 -15zM925 1147q-23 0 -38.5 15.5t-15.5 38.5q0 22 15.5 38.5t38.5 16.5q22 0 38 -16.5t16 -38.5q0 -23 -16 -38.5t-38 -15.5z
M1037 1234q-22 0 -38.5 15t-16.5 37q0 23 16.5 38.5t38.5 15.5q23 0 38 -15.5t15 -38.5q0 -22 -15 -37t-38 -15zM1252 362q0 23 15 39.5t37 16.5q23 0 38.5 -16.5t15.5 -39.5q0 -22 -15.5 -37t-38.5 -15q-22 0 -37 15t-15 37zM1364 443q0 23 15 38.5t38 15.5q22 0 38 -15.5
t16 -38.5q0 -22 -16 -37t-38 -15q-23 0 -38 15t-15 37zM1441 563q0 23 15 38.5t39 15.5q22 0 38 -15.5t16 -38.5q0 -22 -16 -38t-38 -16q-24 0 -39 16t-15 38zM1483 692q0 23 15.5 38.5t38.5 15.5q22 0 38 -15.5t16 -38.5q0 -22 -16 -38t-38 -16q-23 0 -38.5 16t-15.5 38z
M1492 823q0 22 15.5 38.5t38.5 16.5q22 0 38.5 -16.5t16.5 -38.5q0 -23 -16.5 -38t-38.5 -15q-23 0 -38.5 15t-15.5 38zM1483 952q0 22 15.5 38.5t38.5 16.5q22 0 38 -16.5t16 -38.5q0 -23 -16 -38t-38 -15q-23 0 -38.5 15t-15.5 38zM1438 1081q0 24 15.5 39.5t38.5 15.5
q22 0 38 -15.5t16 -39.5q0 -23 -16 -38t-38 -15q-23 0 -38.5 15t-15.5 38zM1364 1201q0 22 16 37t38 15q23 0 39.5 -15t16.5 -37q0 -23 -16.5 -38.5t-39.5 -15.5q-22 0 -38 15.5t-16 38.5zM1255 1286q0 23 15 38.5t37 15.5q23 0 38.5 -15.5t15.5 -38.5q0 -22 -15.5 -37
t-38.5 -15q-22 0 -37 15t-15 37zM1651 1520h-972q12 141 67 220t164 116q43 14 82.5 20t64.5 6q107 0 241 -64t284 -173q20 27 27 42t9.5 30.5t2.5 27.5q0 15 -6.5 27t-15 22t-15 19t-6.5 18q0 21 16.5 35t35.5 14q31 0 51 -18.5t20 -57.5q0 -33 -6.5 -57.5t-18.5 -62.5
l-25 -84v-80zM1462 1600q-78 61 -140 97t-110 54t-83.5 23.5t-59.5 5.5q-43 0 -89 -10.5t-83.5 -31t-58.5 -52t-24 -86.5h648z" />
    <glyph glyph-name="uni17BF" unicode="&#x17bf;" horiz-adv-x="2251" 
d="M475 1085v-702q8 -16 20 -21.5t22 -5.5q26 2 42.5 19t16.5 47q0 35 -13.5 45.5t-29.5 16.5t-28.5 15t-12.5 40q0 30 21.5 51t62.5 21q55 0 77 -27.5t22 -95.5q0 -39 -10 -81.5t-47 -84.5q-36 -41 -85 -55t-85 -14h-33q-25 0 -47 21t-22 52v707q-3 34 -27.5 48.5
t-60.5 14.5q-12 0 -24 -1.5t-29 -1.5q-22 0 -34 25l-27 66l214 195h29l156 -79q12 -5 24 -5q8 0 16 2l18 -30l-94 -83q-6 0 -20.5 9t-35.5 20.5t-48.5 21t-60.5 9.5q-11 0 -26 -3.5t-25 -9.5q-26 -17 -41 -47l3 -4q24 4 54 4q77 0 115 -29t53 -70zM1118 328q0 22 16 38
t38 16q23 0 39.5 -16t16.5 -38q0 -23 -16.5 -38.5t-39.5 -15.5q-22 0 -38 15.5t-16 38.5zM1123 1319q0 23 15 39.5t37 16.5q24 0 39 -16.5t15 -39.5q0 -22 -15 -37t-39 -15q-22 0 -37 15t-15 37zM1039 310q-23 0 -38.5 15t-15.5 37q0 23 15.5 39.5t38.5 16.5q22 0 38 -16.5
t16 -39.5q0 -22 -16 -37t-38 -15zM926 391q-22 0 -38 15t-16 37q0 23 16 38.5t38 15.5q23 0 38.5 -15.5t15.5 -38.5q0 -22 -15.5 -37t-38.5 -15zM848 509q-22 0 -37 16t-15 38q0 23 15 38.5t37 15.5q23 0 39.5 -15.5t16.5 -38.5q0 -22 -16.5 -38t-39.5 -16zM808 638
q-24 0 -39 16t-15 38q0 23 15 38.5t39 15.5q22 0 37 -15.5t15 -38.5q0 -22 -15 -38t-37 -16zM782 770q-24 0 -40 15t-16 38q0 22 16 38.5t40 16.5q23 0 37.5 -16.5t14.5 -38.5q0 -23 -14.5 -38t-37.5 -15zM808 899q-24 0 -39 15t-15 38q0 22 15 38.5t39 16.5q22 0 37 -16.5
t15 -38.5q0 -23 -15 -38t-37 -15zM853 1028q-23 0 -39.5 15t-16.5 38q0 24 16.5 39.5t39.5 15.5q22 0 37 -15.5t15 -39.5q0 -23 -15 -38t-37 -15zM925 1147q-23 0 -38.5 15.5t-15.5 38.5q0 22 15.5 38.5t38.5 16.5q22 0 38 -16.5t16 -38.5q0 -23 -16 -38.5t-38 -15.5z
M1037 1234q-22 0 -38.5 15t-16.5 37q0 23 16.5 38.5t38.5 15.5q23 0 38 -15.5t15 -38.5q0 -22 -15 -37t-38 -15zM1252 362q0 23 15 39.5t37 16.5q23 0 38.5 -16.5t15.5 -39.5q0 -22 -15.5 -37t-38.5 -15q-22 0 -37 15t-15 37zM1364 443q0 23 15 38.5t38 15.5q22 0 38 -15.5
t16 -38.5q0 -22 -16 -37t-38 -15q-23 0 -38 15t-15 37zM1441 563q0 23 15 38.5t39 15.5q22 0 38 -15.5t16 -38.5q0 -22 -16 -38t-38 -16q-24 0 -39 16t-15 38zM1483 692q0 23 15.5 38.5t38.5 15.5q22 0 38 -15.5t16 -38.5q0 -22 -16 -38t-38 -16q-23 0 -38.5 16t-15.5 38z
M1492 823q0 22 15.5 38.5t38.5 16.5q22 0 38.5 -16.5t16.5 -38.5q0 -23 -16.5 -38t-38.5 -15q-23 0 -38.5 15t-15.5 38zM1483 952q0 22 15.5 38.5t38.5 16.5q22 0 38 -16.5t16 -38.5q0 -23 -16 -38t-38 -15q-23 0 -38.5 15t-15.5 38zM1438 1081q0 24 15.5 39.5t38.5 15.5
q22 0 38 -15.5t16 -39.5q0 -23 -16 -38t-38 -15q-23 0 -38.5 15t-15.5 38zM1364 1201q0 22 16 37t38 15q23 0 39.5 -15t16.5 -37q0 -23 -16.5 -38.5t-39.5 -15.5q-22 0 -38 15.5t-16 38.5zM1255 1286q0 23 15 38.5t37 15.5q23 0 38.5 -15.5t15.5 -38.5q0 -22 -15.5 -37
t-38.5 -15q-22 0 -37 15t-15 37zM1876 -422h-288q-36 0 -72 10.5t-65 30t-48 48t-19 64.5v111h128v-89q0 -19 9.5 -32t33 -27t68.5 -14h193q30 0 45.5 2t32.5 12.5t23.5 26.5t6.5 37v1590q-24 42 -47 67.5t-53 43.5t-68.5 31.5t-90.5 29.5h-968q12 141 68.5 219.5t99 98.5
t67 27.5t65 12t68.5 4.5q48 0 105 -12t118.5 -37t124.5 -61t93 -59t36 -28q6 30 6 50q0 21 -7.5 34.5t-17.5 22.5t-17.5 18t-7.5 21q0 21 12 32t24 14t26 3q21 0 42 -18.5t21 -53.5t-4.5 -60t-10.5 -57l-6 -30q16 -6 31 -11.5t32 -9.5q10 8 21.5 35t11.5 57q0 19 -8.5 32.5
t-17.5 25t-17 22t-8 22.5q0 19 11.5 31t24 15t25.5 3q28 0 46.5 -18t18.5 -54q0 -37 -4.5 -62t-12.5 -59l-16 -75q42 -12 84 -23.5t81 -33t76.5 -60t70.5 -104.5v-1665q0 -31 -11.5 -57.5t-32.5 -48t-52.5 -33.5t-79.5 -12zM1480 1600q-78 61 -140 97t-110 54t-83.5 23.5
t-59.5 5.5q-43 0 -89 -10.5t-83.5 -31t-58 -52t-24.5 -86.5h648z" />
    <glyph glyph-name="uni17C0" unicode="&#x17c0;" horiz-adv-x="2025" 
d="M1675 -422h-273q-36 0 -72 10.5t-65 30t-48 48t-19 64.5v111h128v-62q0 -32 9.5 -52.5t18.5 -26.5t28 -13.5t50 -7.5h196q38 0 59 13.5t28 28.5t8 36v1722q2 40 -17 66.5t-46.5 40.5t-60.5 19.5t-62 5.5q-27 0 -60.5 -5.5t-63 -16.5t-49.5 -29t-20 -42v-20h-129v77
q0 54 -10.5 76.5t-21 31.5t-23.5 14t-23.5 9t-21 14t-10.5 27q0 29 22 44.5t47 15.5q33 0 62.5 -15t51 -38t36 -52.5t18.5 -57.5q32 25 85 40t110 15q75 0 133.5 -15t98.5 -40.5t61 -59t21 -69.5v-1787q0 -33 -11.5 -60.5t-32.5 -47t-52.5 -31.5t-79.5 -12zM1118 328
q0 22 16 38t38 16q23 0 39.5 -16t16.5 -38q0 -23 -16.5 -38.5t-39.5 -15.5q-22 0 -38 15.5t-16 38.5zM1123 1319q0 23 15 39.5t37 16.5q24 0 39 -16.5t15 -39.5q0 -22 -15 -37t-39 -15q-22 0 -37 15t-15 37zM1039 310q-23 0 -38.5 15t-15.5 37q0 23 15.5 39.5t38.5 16.5
q22 0 38 -16.5t16 -39.5q0 -22 -16 -37t-38 -15zM926 391q-22 0 -38 15t-16 37q0 23 16 38.5t38 15.5q23 0 38.5 -15.5t15.5 -38.5q0 -22 -15.5 -37t-38.5 -15zM848 509q-22 0 -37 16t-15 38q0 23 15 38.5t37 15.5q23 0 39.5 -15.5t16.5 -38.5q0 -22 -16.5 -38t-39.5 -16z
M808 638q-24 0 -39 16t-15 38q0 23 15 38.5t39 15.5q22 0 37 -15.5t15 -38.5q0 -22 -15 -38t-37 -16zM782 770q-24 0 -40 15t-16 38q0 22 16 38.5t40 16.5q23 0 37.5 -16.5t14.5 -38.5q0 -23 -14.5 -38t-37.5 -15zM808 899q-24 0 -39 15t-15 38q0 22 15 38.5t39 16.5
q22 0 37 -16.5t15 -38.5q0 -23 -15 -38t-37 -15zM853 1028q-23 0 -39.5 15t-16.5 38q0 24 16.5 39.5t39.5 15.5q22 0 37 -15.5t15 -39.5q0 -23 -15 -38t-37 -15zM925 1147q-23 0 -38.5 15.5t-15.5 38.5q0 22 15.5 38.5t38.5 16.5q22 0 38 -16.5t16 -38.5q0 -23 -16 -38.5
t-38 -15.5zM1037 1234q-22 0 -38.5 15t-16.5 37q0 23 16.5 38.5t38.5 15.5q23 0 38 -15.5t15 -38.5q0 -22 -15 -37t-38 -15zM1252 362q0 23 15 39.5t37 16.5q23 0 38.5 -16.5t15.5 -39.5q0 -22 -15.5 -37t-38.5 -15q-22 0 -37 15t-15 37zM1364 443q0 23 15 38.5t38 15.5
q22 0 38 -15.5t16 -38.5q0 -22 -16 -37t-38 -15q-23 0 -38 15t-15 37zM1441 563q0 23 15 38.5t39 15.5q22 0 38 -15.5t16 -38.5q0 -22 -16 -38t-38 -16q-24 0 -39 16t-15 38zM1483 692q0 23 15.5 38.5t38.5 15.5q22 0 38 -15.5t16 -38.5q0 -22 -16 -38t-38 -16
q-23 0 -38.5 16t-15.5 38zM1492 823q0 22 15.5 38.5t38.5 16.5q22 0 38.5 -16.5t16.5 -38.5q0 -23 -16.5 -38t-38.5 -15q-23 0 -38.5 15t-15.5 38zM1483 952q0 22 15.5 38.5t38.5 16.5q22 0 38 -16.5t16 -38.5q0 -23 -16 -38t-38 -15q-23 0 -38.5 15t-15.5 38zM1438 1081
q0 24 15.5 39.5t38.5 15.5q22 0 38 -15.5t16 -39.5q0 -23 -16 -38t-38 -15q-23 0 -38.5 15t-15.5 38zM1364 1201q0 22 16 37t38 15q23 0 39.5 -15t16.5 -37q0 -23 -16.5 -38.5t-39.5 -15.5q-22 0 -38 15.5t-16 38.5zM1255 1286q0 23 15 38.5t37 15.5q23 0 38.5 -15.5
t15.5 -38.5q0 -22 -15.5 -37t-38.5 -15q-22 0 -37 15t-15 37zM475 1085v-702q8 -16 20 -21.5t22 -5.5q26 2 42.5 19t16.5 47q0 35 -13.5 45.5t-29.5 16.5t-28.5 15t-12.5 40q0 30 21.5 51t62.5 21q55 0 77 -27.5t22 -95.5q0 -39 -10 -81.5t-47 -84.5q-36 -41 -85 -55
t-85 -14h-33q-25 0 -47 21t-22 52v707q-3 34 -27.5 48.5t-60.5 14.5q-12 0 -24 -1.5t-29 -1.5q-22 0 -34 25l-27 66l214 195h29l156 -79q12 -5 24 -5q8 0 16 2l18 -30l-94 -83q-6 0 -20.5 9t-35.5 20.5t-48.5 21t-60.5 9.5q-11 0 -26 -3.5t-25 -9.5q-26 -17 -41 -47l3 -4
q24 4 54 4q77 0 115 -29t53 -70z" />
    <glyph glyph-name="uni17C1" unicode="&#x17c1;" horiz-adv-x="750" 
d="M475 1085v-702q8 -16 20 -21.5t22 -5.5q26 2 42.5 19t16.5 47q0 35 -13.5 45.5t-29.5 16.5t-28.5 15t-12.5 40q0 30 21.5 51t62.5 21q55 0 77 -27.5t22 -95.5q0 -39 -10 -81.5t-47 -84.5q-36 -41 -85 -55t-85 -14h-33q-25 0 -47 21t-22 52v707q-3 34 -27.5 48.5
t-60.5 14.5q-12 0 -24 -1.5t-29 -1.5q-22 0 -34 25l-27 66l214 195h29l156 -79q12 -5 24 -5q8 0 16 2l18 -30l-94 -83q-6 0 -20.5 9t-35.5 20.5t-48.5 21t-60.5 9.5q-11 0 -26 -3.5t-25 -9.5q-26 -17 -41 -47l3 -4q24 4 54 4q77 0 115 -29t53 -70z" />
    <glyph glyph-name="uni17C2" unicode="&#x17c2;" horiz-adv-x="750" 
d="M475 1085v-702q8 -16 20 -21.5t22 -5.5q26 2 42.5 19t16.5 47q0 35 -13.5 45.5t-29.5 16.5t-28.5 15t-12.5 40q0 30 21.5 51t62.5 21q55 0 77 -27.5t22 -95.5q0 -39 -10 -81.5t-47 -84.5q-36 -41 -85 -55t-85 -14h-33q-25 0 -47 21t-22 52v707q-3 34 -27.5 48.5
t-60.5 14.5q-12 0 -24 -1.5t-29 -1.5q-22 0 -34 25l-27 66l214 195h29l156 -79q12 -5 24 -5q8 0 16 2l18 -30l-94 -83q-6 0 -20.5 9t-35.5 20.5t-48.5 21t-60.5 9.5q-11 0 -26 -3.5t-25 -9.5q-26 -17 -41 -47l3 -4q24 4 54 4q77 0 115 -29t53 -70zM883 1741q0 -36 -10.5 -75
t-42 -71.5t-90.5 -52.5t-227 -20q-90 0 -133 2t-66 4.5t-45.5 7.5t-49 15.5t-46.5 28.5t-33 45t-13 66q0 38 29.5 62.5t80.5 24.5q39 0 63.5 -23t24.5 -58q0 -16 -8.5 -31t-22.5 -15q-13 0 -24 9t-17 9q-9 0 -9 -12t13.5 -21t30 -14.5t39 -9t67 -6t125.5 -2.5q72 0 109.5 4
t56 7t43.5 16.5t36 35t11 47.5q0 22 -6 36.5t-14 26.5t-14 22.5t-6 25.5q0 21 18.5 37.5t42.5 16.5q46 0 66 -39t21 -99z" />
    <glyph glyph-name="uni17C3" unicode="&#x17c3;" horiz-adv-x="751" 
d="M475 1085v-702q8 -16 20 -21.5t22 -5.5q26 2 42.5 19t16.5 47q0 35 -13.5 45.5t-29.5 16.5t-28.5 15t-12.5 40q0 30 21.5 51t62.5 21q55 0 77 -27.5t22 -95.5q0 -39 -10 -81.5t-47 -84.5q-36 -41 -85 -55t-85 -14h-33q-25 0 -47 21t-22 52v707q-3 34 -27.5 48.5
t-60.5 14.5q-12 0 -24 -1.5t-29 -1.5q-22 0 -34 25l-27 66l214 195h29l156 -79q11 -5 24 -5q8 0 16 2l18 -30l-94 -83q-6 0 -20.5 9t-35.5 20.5t-48.5 21t-60.5 9.5q-11 0 -24.5 -3t-23.5 -9q-29 -18 -44 -48l3 -4q24 4 54 4q77 0 115 -29t53 -70zM618 1609q0 -29 -10 -59.5
t-31 -57t-53 -43t-76 -16.5q-28 0 -55 5.5t-48 16.5t-34 29t-13 44q0 31 28 49t64 18q25 0 36.5 -7.5t17.5 -17t12.5 -17t23.5 -7.5q24 0 33 16.5t9 31.5q0 42 -25 72t-80 30q-18 0 -43 -2.5t-46.5 -9t-36.5 -18.5t-15 -30l10 -41q0 -21 -19.5 -30t-43.5 -9q-18 0 -27.5 4.5
t-15.5 11.5t-13.5 27t-20.5 55.5t-50 66.5q-20 17 -34 24.5t-24 12t-16.5 12t-6.5 23.5q0 21 20 37.5t64 16.5q15 0 34.5 -9t36 -24.5t29 -37.5t14.5 -46q4 14 24.5 27.5t47 23.5t54 14t56.5 4q101 0 162 -51.5t61 -138.5z" />
    <glyph glyph-name="uni17C4" unicode="&#x17c4;" horiz-adv-x="2550" 
d="M475 1085v-702q8 -16 20 -21.5t22 -5.5q26 2 42.5 19t16.5 47q0 35 -13.5 45.5t-29.5 16.5t-28.5 15t-12.5 40q0 30 21.5 51t62.5 21q55 0 77 -27.5t22 -95.5q0 -39 -10 -81.5t-47 -84.5q-36 -41 -85 -55t-85 -14h-33q-25 0 -47 21t-22 52v707q-3 34 -27.5 48.5
t-60.5 14.5q-12 0 -24 -1.5t-29 -1.5q-22 0 -34 25l-27 66l214 195h29l156 -79q12 -5 24 -5q8 0 16 2l18 -30l-94 -83q-6 0 -20.5 9t-35.5 20.5t-48.5 21t-60.5 9.5q-11 0 -26 -3.5t-25 -9.5q-26 -17 -41 -47l3 -4q24 4 54 4q77 0 115 -29t53 -70zM1118 328q0 22 16 38
t38 16q23 0 39.5 -16t16.5 -38q0 -23 -16.5 -38.5t-39.5 -15.5q-22 0 -38 15.5t-16 38.5zM1123 1319q0 23 15 39.5t37 16.5q24 0 39 -16.5t15 -39.5q0 -22 -15 -37t-39 -15q-22 0 -37 15t-15 37zM1039 310q-23 0 -38.5 15t-15.5 37q0 23 15.5 39.5t38.5 16.5q22 0 38 -16.5
t16 -39.5q0 -22 -16 -37t-38 -15zM926 391q-22 0 -38 15t-16 37q0 23 16 38.5t38 15.5q23 0 38.5 -15.5t15.5 -38.5q0 -22 -15.5 -37t-38.5 -15zM848 509q-22 0 -37 16t-15 38q0 23 15 38.5t37 15.5q23 0 39.5 -15.5t16.5 -38.5q0 -22 -16.5 -38t-39.5 -16zM808 638
q-24 0 -39 16t-15 38q0 23 15 38.5t39 15.5q22 0 37 -15.5t15 -38.5q0 -22 -15 -38t-37 -16zM782 770q-24 0 -40 15t-16 38q0 22 16 38.5t40 16.5q23 0 37.5 -16.5t14.5 -38.5q0 -23 -14.5 -38t-37.5 -15zM808 899q-24 0 -39 15t-15 38q0 22 15 38.5t39 16.5q22 0 37 -16.5
t15 -38.5q0 -23 -15 -38t-37 -15zM853 1028q-23 0 -39.5 15t-16.5 38q0 24 16.5 39.5t39.5 15.5q22 0 37 -15.5t15 -39.5q0 -23 -15 -38t-37 -15zM925 1147q-23 0 -38.5 15.5t-15.5 38.5q0 22 15.5 38.5t38.5 16.5q22 0 38 -16.5t16 -38.5q0 -23 -16 -38.5t-38 -15.5z
M1037 1234q-22 0 -38.5 15t-16.5 37q0 23 16.5 38.5t38.5 15.5q23 0 38 -15.5t15 -38.5q0 -22 -15 -37t-38 -15zM1252 362q0 23 15 39.5t37 16.5q23 0 38.5 -16.5t15.5 -39.5q0 -22 -15.5 -37t-38.5 -15q-22 0 -37 15t-15 37zM1364 443q0 23 15 38.5t38 15.5q22 0 38 -15.5
t16 -38.5q0 -22 -16 -37t-38 -15q-23 0 -38 15t-15 37zM1441 563q0 23 15 38.5t39 15.5q22 0 38 -15.5t16 -38.5q0 -22 -16 -38t-38 -16q-24 0 -39 16t-15 38zM1483 692q0 23 15.5 38.5t38.5 15.5q22 0 38 -15.5t16 -38.5q0 -22 -16 -38t-38 -16q-23 0 -38.5 16t-15.5 38z
M1492 823q0 22 15.5 38.5t38.5 16.5q22 0 38.5 -16.5t16.5 -38.5q0 -23 -16.5 -38t-38.5 -15q-23 0 -38.5 15t-15.5 38zM1483 952q0 22 15.5 38.5t38.5 16.5q22 0 38 -16.5t16 -38.5q0 -23 -16 -38t-38 -15q-23 0 -38.5 15t-15.5 38zM1438 1081q0 24 15.5 39.5t38.5 15.5
q22 0 38 -15.5t16 -39.5q0 -23 -16 -38t-38 -15q-23 0 -38.5 15t-15.5 38zM1364 1201q0 22 16 37t38 15q23 0 39.5 -15t16.5 -37q0 -23 -16.5 -38.5t-39.5 -15.5q-22 0 -38 15.5t-16 38.5zM1255 1286q0 23 15 38.5t37 15.5q23 0 38.5 -15.5t15.5 -38.5q0 -22 -15.5 -37
t-38.5 -15q-22 0 -37 15t-15 37zM2247 253v822l-426 186l-189 -74v102l229 89h51l456 -204v-921h-121z" />
    <glyph glyph-name="uni17C5" unicode="&#x17c5;" horiz-adv-x="2550" 
d="M475 1085v-702q8 -16 20 -21.5t22 -5.5q26 2 42.5 19t16.5 47q0 35 -13.5 45.5t-29.5 16.5t-28.5 15t-12.5 40q0 30 21.5 51t62.5 21q55 0 77 -27.5t22 -95.5q0 -39 -10 -81.5t-47 -84.5q-36 -41 -85 -55t-85 -14h-33q-25 0 -47 21t-22 52v707q-3 34 -27.5 48.5
t-60.5 14.5q-12 0 -24 -1.5t-29 -1.5q-22 0 -34 25l-27 66l214 195h29l156 -79q12 -5 24 -5q8 0 16 2l18 -30l-94 -83q-6 0 -20.5 9t-35.5 20.5t-48.5 21t-60.5 9.5q-11 0 -26 -3.5t-25 -9.5q-26 -17 -41 -47l3 -4q24 4 54 4q77 0 115 -29t53 -70zM1118 328q0 22 16 38
t38 16q23 0 39.5 -16t16.5 -38q0 -23 -16.5 -38.5t-39.5 -15.5q-22 0 -38 15.5t-16 38.5zM1123 1319q0 23 15 39.5t37 16.5q24 0 39 -16.5t15 -39.5q0 -22 -15 -37t-39 -15q-22 0 -37 15t-15 37zM1039 310q-23 0 -38.5 15t-15.5 37q0 23 15.5 39.5t38.5 16.5q22 0 38 -16.5
t16 -39.5q0 -22 -16 -37t-38 -15zM926 391q-22 0 -38 15t-16 37q0 23 16 38.5t38 15.5q23 0 38.5 -15.5t15.5 -38.5q0 -22 -15.5 -37t-38.5 -15zM848 509q-22 0 -37 16t-15 38q0 23 15 38.5t37 15.5q23 0 39.5 -15.5t16.5 -38.5q0 -22 -16.5 -38t-39.5 -16zM808 638
q-24 0 -39 16t-15 38q0 23 15 38.5t39 15.5q22 0 37 -15.5t15 -38.5q0 -22 -15 -38t-37 -16zM782 770q-24 0 -40 15t-16 38q0 22 16 38.5t40 16.5q23 0 37.5 -16.5t14.5 -38.5q0 -23 -14.5 -38t-37.5 -15zM808 899q-24 0 -39 15t-15 38q0 22 15 38.5t39 16.5q22 0 37 -16.5
t15 -38.5q0 -23 -15 -38t-37 -15zM853 1028q-23 0 -39.5 15t-16.5 38q0 24 16.5 39.5t39.5 15.5q22 0 37 -15.5t15 -39.5q0 -23 -15 -38t-37 -15zM925 1147q-23 0 -38.5 15.5t-15.5 38.5q0 22 15.5 38.5t38.5 16.5q22 0 38 -16.5t16 -38.5q0 -23 -16 -38.5t-38 -15.5z
M1037 1234q-22 0 -38.5 15t-16.5 37q0 23 16.5 38.5t38.5 15.5q23 0 38 -15.5t15 -38.5q0 -22 -15 -37t-38 -15zM1252 362q0 23 15 39.5t37 16.5q23 0 38.5 -16.5t15.5 -39.5q0 -22 -15.5 -37t-38.5 -15q-22 0 -37 15t-15 37zM1364 443q0 23 15 38.5t38 15.5q22 0 38 -15.5
t16 -38.5q0 -22 -16 -37t-38 -15q-23 0 -38 15t-15 37zM1441 563q0 23 15 38.5t39 15.5q22 0 38 -15.5t16 -38.5q0 -22 -16 -38t-38 -16q-24 0 -39 16t-15 38zM1483 692q0 23 15.5 38.5t38.5 15.5q22 0 38 -15.5t16 -38.5q0 -22 -16 -38t-38 -16q-23 0 -38.5 16t-15.5 38z
M1492 823q0 22 15.5 38.5t38.5 16.5q22 0 38.5 -16.5t16.5 -38.5q0 -23 -16.5 -38t-38.5 -15q-23 0 -38.5 15t-15.5 38zM1483 952q0 22 15.5 38.5t38.5 16.5q22 0 38 -16.5t16 -38.5q0 -23 -16 -38t-38 -15q-23 0 -38.5 15t-15.5 38zM1438 1081q0 24 15.5 39.5t38.5 15.5
q22 0 38 -15.5t16 -39.5q0 -23 -16 -38t-38 -15q-23 0 -38.5 15t-15.5 38zM1364 1201q0 22 16 37t38 15q23 0 39.5 -15t16.5 -37q0 -23 -16.5 -38.5t-39.5 -15.5q-22 0 -38 15.5t-16 38.5zM1255 1286q0 23 15 38.5t37 15.5q23 0 38.5 -15.5t15.5 -38.5q0 -22 -15.5 -37
t-38.5 -15q-22 0 -37 15t-15 37zM2274 1544q-6 12 -9 15t-9 3q-5 0 -17.5 -2t-29.5 -2q-51 0 -68 19t-17 42q0 53 35 86.5t79 33.5q27 0 56 -18.5t52.5 -54t39 -87t15.5 -116.5q0 -96 -31 -267v-943h-123v822l-426 186l-189 -72v100l229 89h51l341 -153q57 85 57 178
q0 69 -36 141z" />
    <glyph glyph-name="uni17C6" unicode="&#x17c6;" 
d="M-495 1681q0 28 -19.5 48.5t-48.5 20.5q-27 0 -47 -20.5t-20 -48.5q0 -27 20 -47.5t47 -20.5q29 0 48.5 20.5t19.5 47.5zM-413 1681q0 -32 -12 -59.5t-32 -48t-47 -31.5t-59 -11q-30 0 -57.5 12t-48.5 32t-33 47t-12 59q0 31 12 59t33 49t48.5 33t57.5 12q32 0 59 -12
t47 -33t32 -49t12 -59z" />
    <glyph glyph-name="uni17C7" unicode="&#x17c7;" horiz-adv-x="766" 
d="M499 473q0 33 -25.5 59.5t-59.5 26.5q-36 0 -60 -26.5t-24 -59.5q0 -36 24 -61.5t60 -25.5q34 0 59.5 25.5t25.5 61.5zM499 1160q0 35 -24.5 60.5t-59.5 25.5q-37 0 -61 -25.5t-24 -60.5q0 -36 24 -60.5t61 -24.5q35 0 59.5 24.5t24.5 60.5zM609 473q0 -40 -16 -74.5
t-43 -61t-62 -41.5t-74 -15t-74.5 15t-61.5 41.5t-42 61t-16 74.5q0 39 16 73.5t42 61t61.5 41.5t74.5 15t74 -15t62 -41.5t43 -61t16 -73.5zM609 1160q0 -39 -16 -74t-43 -60.5t-62 -40.5t-73 -15q-40 0 -75.5 15t-61.5 40.5t-42 60.5t-16 74q0 38 16 73t42 61.5t61.5 42
t75.5 15.5q38 0 73 -15.5t62 -42t43 -61.5t16 -73z" />
    <glyph glyph-name="uni17C8" unicode="&#x17c8;" horiz-adv-x="675" 
d="M507 442q0 -30 -11.5 -55t-31 -44.5t-45 -30t-53.5 -10.5q-57 0 -96 40.5t-39 99.5q0 58 39 97t96 39q28 0 53.5 -10.5t45 -28.5t31 -43.5t11.5 -53.5zM507 1163q0 -28 -11.5 -53t-31 -43.5t-45 -29t-53.5 -10.5q-57 0 -96 39.5t-39 96.5q0 59 39 99.5t96 40.5
q28 0 53.5 -10.5t45 -30t31 -45t11.5 -54.5z" />
    <glyph glyph-name="uni17C9" unicode="&#x17c9;" 
d="M-618 1808v-102l-20 -184h-85l-20 184v102l30 26h66zM-416 1808v-102l-19 -184h-86l-19 184v102l28 26h66z" />
    <glyph glyph-name="uni17CA" unicode="&#x17ca;" 
d="M-254 1532h-12l-217 141l-180 -133h-47l-213 133l-103 -76l30 -27l-68 -48l-109 85l276 212h36l228 -150l174 150h37l209 -146q12 -7 28 -7q18 0 35 9l36 -26z" />
    <glyph glyph-name="uni17CB" unicode="&#x17cb;" 
d="M-588 1808v-102l-20 -184h-85l-18 184v102l28 26h66z" />
    <glyph glyph-name="uni17CC" unicode="&#x17cc;" 
d="M-83 1805q0 -27 -12 -48.5t-33 -37.5t-48 -25t-57 -9q-46 0 -79 10t-64 22t-64 21.5t-79 9.5q-26 0 -52 -5t-47 -17t-35.5 -31t-15.5 -44q19 13 47 21.5t52 8.5q34 0 66.5 -5.5t57 -18t39 -35t14.5 -55.5q0 -24 -25 -34.5t-47 -10.5q-26 0 -41.5 10.5t-28.5 30.5
q-13 22 -31 28t-46 6q-33 0 -64 -14.5t-47 -36.5q-45 0 -59.5 26t-14.5 59q0 45 22.5 83.5t61 66t86.5 43.5t100 16q66 0 107.5 -10t70 -21t51 -20t52.5 -9q21 0 41 10.5t20 28.5q0 10 -6 16q15 23 48 23q24 0 42 -16t18 -37z" />
    <glyph glyph-name="uni17CD" unicode="&#x17cd;" 
d="M-591 1744q96 15 127.5 37.5t31.5 71.5q0 9 8 14.5t27 5.5q22 0 36 -5.5t14 -15.5q0 -66 -30.5 -102t-77 -52t-153.5 -20q-93 -6 -123.5 -16t-30.5 -40q0 -19 16.5 -26t44.5 -7q40 0 48 21q5 19 15 27t32 8q19 0 34 -8t15 -25q0 -39 -40.5 -64.5t-103.5 -25.5
q-72 0 -116 26t-44 77q0 53 31.5 76t79.5 31.5t159 11.5z" />
    <glyph glyph-name="uni17CE" unicode="&#x17ce;" 
d="M-512 1658v-132h-85v132h-143v83h143v121h85v-121h144v-83h-144z" />
    <glyph glyph-name="uni17CF" unicode="&#x17cf;" 
d="M-296 1855q0 -68 -30.5 -103t-77 -51t-100.5 -19t-100.5 -5t-77.5 -11t-31 -36q0 -17 13 -29t40 -12q33 0 42.5 9t15.5 22q3 10 10 19t35 9q23 0 38 -7t15 -15q0 -6 -1 -12t-1 -11q0 -9 6.5 -12t16.5 -3t17 7.5t7 21.5q0 8 -3 14.5t-3 11.5q0 14 15.5 20.5t32.5 6.5
q22 0 39.5 -10t17.5 -29q0 -35 -14.5 -57t-30 -31t-38.5 -13.5t-48 -4.5q-19 0 -33.5 3t-36.5 13q-38 -19 -89 -19q-72 0 -114 27t-42 76q0 42 21 65.5t55 34t76.5 14t84.5 5t80.5 7t63.5 20.5q39 22 39 84q0 19 45 19q17 0 31 -5t14 -14z" />
    <glyph glyph-name="uni17D0" unicode="&#x17d0;" 
d="M-158 1741q0 -36 -10.5 -75t-42 -71.5t-90.5 -52.5t-227 -20q-90 0 -133 2t-66 4.5t-45.5 7.5t-49 15.5t-46.5 28.5t-33 45t-13 66q0 38 29.5 62.5t80.5 24.5q39 0 63.5 -23t24.5 -58q0 -16 -8.5 -31t-22.5 -15q-13 0 -24 9t-17 9q-9 0 -9 -12t13.5 -21t30 -14.5t39 -9
t67 -6t125.5 -2.5q72 0 109.5 4t56 7t43.5 16.5t36 35t11 47.5q0 22 -6 36.5t-14 26.5t-14 22.5t-6 25.5q0 21 18.5 37.5t42.5 16.5q46 0 66 -39t21 -99z" />
    <glyph glyph-name="uni17D1" unicode="&#x17d1;" 
d="M-825 1603v115h559v-115h-559z" />
    <glyph glyph-name="uni17D2" unicode="&#x17d2;" 
d="M-341 -68v-113h-75v113h-114v72h114v99h75v-99h114v-72h-114z" />
    <glyph glyph-name="uni17D3" unicode="&#x17d3;" horiz-adv-x="1051" 
d="M840 833q0 50 -19 94t-52 78t-78 53.5t-96 19.5q-49 0 -92.5 -19.5t-76.5 -53.5t-52 -78t-19 -94q0 -52 19 -96.5t52 -77.5t76.5 -51.5t92.5 -18.5q51 0 96 18.5t78 51.5t52 77.5t19 96.5zM960 830q0 -75 -29.5 -141.5t-79.5 -117t-117 -79.5t-142 -29q-76 0 -143 29
t-116.5 79.5t-78.5 117t-29 141.5t29 142.5t78.5 118t116.5 80.5t143 30q75 0 142 -30t117 -80.5t79.5 -118t29.5 -142.5z" />
    <glyph glyph-name="uni17D4" unicode="&#x17d4;" horiz-adv-x="973" 
d="M660 253v748q-11 -20 -32 -37.5t-55.5 -32t-75 -23.5t-73.5 -9q-58 0 -107.5 16.5t-85.5 48t-56.5 78t-20.5 108.5q0 45 16 86t45 72.5t68 50.5t87 19q30 0 61.5 -7t57 -22.5t42 -42t16.5 -63.5q0 -41 -27 -68t-66 -27q-40 0 -71 27t-31 68q0 7 1 11.5t1 10.5
q0 11 -17 11q-18 0 -30.5 -10.5t-21.5 -26.5t-13 -34.5t-4 -33.5q0 -39 15 -67t41.5 -45t59.5 -24.5t69 -7.5q55 0 94 17t64 48t37 71.5t12 86.5v120h121v-1117h-121z" />
    <glyph glyph-name="uni17D5" unicode="&#x17d5;" horiz-adv-x="1198" 
d="M660 253v748q-11 -20 -32 -37.5t-55.5 -32t-75 -23.5t-73.5 -9q-58 0 -107.5 16.5t-85.5 48t-56.5 78t-20.5 108.5q0 45 16 86t45 72.5t68 50.5t87 19q30 0 61.5 -7t57 -22.5t42 -42t16.5 -63.5q0 -41 -27 -68t-66 -27q-40 0 -71 27t-31 68q0 7 1 11.5t1 10.5
q0 11 -17 11q-18 0 -30.5 -10.5t-21.5 -26.5t-13 -34.5t-4 -33.5q0 -39 15 -67t41.5 -45t59.5 -24.5t69 -7.5q55 0 94 17t64 48t37 71.5t12 86.5v120h121v-1117h-121zM904 253v1114h120v-1114h-120z" />
    <glyph glyph-name="uni17D6" unicode="&#x17d6;" horiz-adv-x="690" 
d="M466 518q0 32 -23 53t-55 21q-33 0 -51 -20.5t-18 -53.5q0 -28 20.5 -50t48.5 -22q30 0 54 22t24 50zM466 1108q0 28 -24 50t-54 22t-49.5 -21t-19.5 -51q0 -32 19.5 -52t49.5 -20q32 0 55 20t23 52zM543 523q0 -32 -11.5 -60.5t-31.5 -50t-48.5 -34.5t-63.5 -13
q-31 0 -60.5 13t-50.5 34t-33.5 50t-12.5 61q0 69 46.5 111.5t110.5 42.5q32 0 60.5 -12t49.5 -33t33 -49.5t12 -59.5zM169 775v85h419v-85h-419zM543 1109q0 -30 -12 -58.5t-32.5 -49.5t-49 -33.5t-61.5 -12.5q-31 0 -60.5 12.5t-50.5 33.5t-33.5 49t-12.5 59
q0 33 12.5 61.5t33.5 49.5t50.5 33t60.5 12q69 0 112 -42t43 -114z" />
    <glyph glyph-name="uni17D7" unicode="&#x17d7;" horiz-adv-x="1275" 
d="M1081 359q0 -61 -12.5 -104.5t-35 -73t-54 -47.5t-65.5 -26t-83 -8h-261q-86 0 -148 34.5t-89 61.5t-32.5 37.5t-5.5 25.5q0 16 15 32t32 16q15 0 33.5 -16.5t45.5 -35.5t63 -35.5t86 -16.5h255q46 0 75 11t43.5 44.5t14.5 76.5v866l-66 55l-253 -90l-264 90l-23 -31
v-301q0 -19 11.5 -28.5t30.5 -9.5q20 0 43 11t23 34q0 12 -9 12q-4 0 -11 -1t-15 -1q-16 0 -28 10t-19.5 25.5t-9.5 34.5t-2 34q0 36 22.5 62t58.5 26q46 0 66.5 -33.5t20.5 -74.5q0 -43 -11.5 -85t-34 -76t-57 -55t-80.5 -21q-31 0 -48.5 6t-35.5 20t-28 35t-10 47v344
l117 138h35l267 -97l291 97l142 -110v-909z" />
    <glyph glyph-name="uni17D8" unicode="&#x17d8;" horiz-adv-x="3300" 
d="M660 253v748q-11 -20 -32 -37.5t-55.5 -32t-75 -23.5t-73.5 -9q-58 0 -107.5 16.5t-85.5 48t-56.5 78t-20.5 108.5q0 45 16 86t45 72.5t68 50.5t87 19q30 0 61.5 -7t57 -22.5t42 -42t16.5 -63.5q0 -41 -27 -68t-66 -27q-40 0 -71 27t-31 68q0 7 1 11.5t1 10.5
q0 11 -17 11q-18 0 -30.5 -10.5t-21.5 -26.5t-13 -34.5t-4 -33.5q0 -39 15 -67t41.5 -45t59.5 -24.5t69 -7.5q55 0 94 17t64 48t37 71.5t12 86.5v120h121v-1117h-121zM1978 253h-138q-30 0 -78 8t-94 30.5t-79 61.5t-33 102v684q0 33 -15 57t-37.5 40t-51 23.5t-55.5 7.5
h-139q-27 0 -57 -6t-54.5 -20.5t-41 -38.5t-16.5 -61v-764q7 -16 24 -21.5t28 -5.5q25 2 41.5 19t16.5 47q0 35 -13.5 45.5t-29 16.5t-28.5 15t-13 40q0 30 22 51t62 21q46 0 67.5 -32.5t21.5 -90.5q0 -39 -7 -81.5t-40 -84.5q-36 -41 -84.5 -55t-94.5 -14h-33
q-26 0 -47.5 21t-21.5 52v854q0 63 33 102t78.5 61.5t93.5 30.5t78 8h174q69 0 125 -16.5t103 -74.5q18 -22 28.5 -49.5t10.5 -58.5v-689q1 -37 17.5 -61t41.5 -38.5t55 -20.5t57 -6h104q24 0 51.5 7t51.5 22t40 36.5t16 53.5v565q-3 20 -28 35t-61 15q-12 0 -24 -1.5
t-28 -1.5q-23 0 -35 25l-27 66l215 195h28l156 -79q11 -5 24 -5q11 0 17 2l18 -30l-95 -83q-6 0 -20 9t-35 20.5t-49 21t-61 9.5q-10 0 -23 -3.5t-24 -9.5q-29 -17 -45 -47l3 -4q25 4 55 4q76 0 114.5 -29t51.5 -70v-633q0 -45 -25.5 -81.5t-58.5 -60.5t-64.5 -36t-48 -15
t-36 -4.5t-34.5 -1.5zM2985 253v748q-11 -20 -32 -37.5t-55.5 -32t-75 -23.5t-73.5 -9q-58 0 -107.5 16.5t-85.5 48t-56.5 78t-20.5 108.5q0 45 16 86t45 72.5t68 50.5t87 19q30 0 61.5 -7t57 -22.5t42 -42t16.5 -63.5q0 -41 -27 -68t-66 -27q-40 0 -71 27t-31 68
q0 7 1 11.5t1 10.5q0 11 -17 11q-18 0 -30.5 -10.5t-21.5 -26.5t-13 -34.5t-4 -33.5q0 -39 15 -67t41.5 -45t59.5 -24.5t69 -7.5q55 0 94 17t64 48t37 71.5t12 86.5v120h121v-1117h-121z" />
    <glyph glyph-name="uni17D9" unicode="&#x17d9;" horiz-adv-x="1201" 
d="M739 787q0 48 -30 84.5t-73 36.5q-45 0 -75 -36.5t-30 -84.5q0 -50 30 -86.5t75 -36.5t74 37.5t29 85.5zM852 787q0 -45 -16 -87t-44.5 -74.5t-68 -52.5t-87.5 -20q-50 0 -89.5 20t-67.5 52.5t-43 74.5t-15 87q0 43 12 85t37 75t61 53.5t85 20.5q48 0 91 -20.5t75 -53.5
t51 -75t19 -85zM936 781q0 64 -25.5 125t-70 106.5t-102 73.5t-122.5 28q-64 0 -116 -28t-88.5 -73.5t-56 -106.5t-19.5 -125q0 -65 22.5 -125t62 -106.5t94.5 -74t121 -27.5q64 0 119 27.5t95.5 74t63 106.5t22.5 125zM1045 781q0 -86 -30 -167t-84 -144.5t-129 -102
t-166 -38.5q-92 0 -167.5 38.5t-129.5 102t-84 144.5t-30 167q0 85 26 166t77 144t123 101.5t165 38.5t172 -38.5t136 -101.5t89 -144t32 -166z" />
    <glyph glyph-name="uni17DA" unicode="&#x17da;" horiz-adv-x="1726" 
d="M1599 878q0 -23 -5.5 -31t-25.5 -11t-64 -8q-36 -4 -48 -5.5t-16 -7.5q-11 -21 -26.5 -49.5t-33.5 -55.5t-37 -45.5t-38 -18.5q-12 0 -28 27t-28 61l-34 -165q-3 -15 -16 -33t-41 -18q-12 0 -31 7t-37 16.5t-30.5 21t-12.5 21.5v144q-14 -81 -55 -153.5t-102 -128
t-135 -88t-155 -32.5q-111 0 -184 48t-116.5 121.5t-61.5 161.5t-18 167q0 47 8 100t29.5 106.5t53 101.5t72 85.5t90.5 60t110 22.5q83 0 144.5 -34t102.5 -89.5t61.5 -124.5t20.5 -138q0 -48 -13 -104t-42 -105.5t-77 -82.5t-117 -33q-60 0 -103 21.5t-70.5 55.5t-40.5 76
t-13 81q0 13 4 29.5t11.5 31t18.5 25t28 10.5q21 0 44 -14.5t23 -41.5q0 -13 -4.5 -21.5t-4.5 -20.5q0 -19 10 -39.5t25.5 -37t34.5 -27t37 -10.5q36 0 59 22t36.5 54t19 67.5t5.5 62.5q0 51 -12 99t-37 85.5t-62.5 60.5t-88.5 23q-55 0 -97 -36t-70.5 -89t-43.5 -115.5
t-15 -116.5q0 -70 10.5 -137.5t38 -121t76.5 -86.5t125 -33q59 0 121 31.5t113 90t83.5 141t32.5 183.5q0 24 -3 45t-3 52q0 32 12.5 62t51.5 30q26 0 38 -13.5t20 -37.5l70 -218q6 38 12 72.5t15 69t24 59t40 24.5q26 0 44.5 -23t50.5 -146q4 9 13 21t20.5 22.5t24 18
t26.5 7.5l154 -18q14 0 23 -8.5t9 -32.5z" />
    <glyph glyph-name="uni17DB" unicode="&#x17db;" horiz-adv-x="901" 
d="M823 907q-46 -84 -111 -123.5t-148 -53.5v-407q0 -31 -23.5 -50.5t-48.5 -19.5h-33q-36 0 -76 27.5t-73.5 74t-55.5 104.5t-22 119q0 63 29.5 98.5t75.5 35.5q6 0 19.5 -3t27 -15t24 -37.5t10.5 -70.5q0 -39 -12 -58.5t-26 -29.5t-26 -13.5t-12 -11.5q0 -12 5 -30
t16.5 -36t27 -30.5t36.5 -12.5v361q-46 4 -88.5 9.5t-91.5 23.5q-54 0 -84 31.5t-30 73.5q0 44 30 74.5t75 30.5q39 0 68.5 -21.5t36.5 -56.5q14 -9 34 -15.5t50 -18.5v52q0 53 -21 73t-58 20q-15 0 -26.5 -1.5t-20.5 -1.5q-21 0 -34.5 28t-38.5 76l219 268h28l159 -108
q6 -6 24 -6q15 0 27 9l29 -42l-117 -120q-8 0 -23 13t-36 28.5t-49.5 29t-62.5 13.5q-12 0 -24 -5.5t-22.5 -16t-18.5 -21t-18 -26.5q27 5 50 5q39 0 70.5 -11.5t54 -30t34.5 -42.5t12 -51v-147q52 5 103 27t102 81z" />
    <glyph glyph-name="uni17DC" unicode="&#x17dc;" horiz-adv-x="1051" 
d="M867 1007q0 -25 -17.5 -38t-42.5 -13q-30 0 -49 10.5t-19 40.5v201q0 24 -24 41.5t-56 28t-65 15t-51 4.5q-21 0 -54 -4.5t-63 -16t-52 -29.5t-22 -45v-138q0 -54 38.5 -92t95.5 -69t123.5 -58t123.5 -58.5t95.5 -72t38.5 -98.5v-192q0 -50 -28.5 -83t-74.5 -51.5
t-105 -27t-119 -8.5q-87 0 -147 13.5t-97.5 43.5t-55 77.5t-17.5 114.5v146q0 9 8.5 15t19.5 10.5t22.5 6.5t17.5 2q7 0 17.5 -2t20.5 -6.5t16.5 -10.5t6.5 -15v-144q0 -35 8.5 -63.5t30 -50t57.5 -33.5t92 -12q39 0 75 6t63.5 19.5t44 34.5t16.5 51v132q0 30 -38 58.5
t-95 57.5t-124.5 59t-124.5 64t-95.5 71.5t-38.5 80.5v242q0 46 36 77.5t86.5 51t105 27t92.5 7.5q49 0 106 -7.5t105 -28.5t80.5 -59t32.5 -98v-185z" />
    <glyph glyph-name="uni17DD" unicode="&#x17dd;" 
d="M-141 1643q4 -16 4 -30q0 -27 -15.5 -39.5t-30.5 -12.5h-23q-15 0 -29 9.5t-16 36.5q-3 26 -21.5 49t-49.5 40.5t-70.5 28t-93.5 10.5h-23q-60 0 -93 -12t-63 -30t-51.5 -40.5t-24.5 -42.5q-9 -57 -60 -57q-36 0 -48 15t-12 43q0 34 30.5 75t78.5 75t110 57t135 23h18
q55 0 107.5 -12t97.5 -33.5t79.5 -53t51.5 -70.5z" />
    <glyph glyph-name="uni17E0" unicode="&#x17e0;" horiz-adv-x="1350" 
d="M1044 1088q0 48 -18 83.5t-48 58t-71.5 33.5t-86.5 11h-225q-48 0 -80.5 -4.5t-61.5 -16.5t-49 -28t-36 -48t-16 -72v-557q0 -33 12 -61.5t29.5 -51t43 -38t54 -25.5t74.5 -10h264q92 0 153.5 46t61.5 140v540zM1165 542q0 -79 -22.5 -134.5t-65 -90t-105 -49.5
t-141.5 -15h-314q-52 0 -113 18.5t-118.5 85.5t-57.5 173v588q0 54 18.5 97t49.5 74.5t70.5 51t95.5 30t121 10.5h237q65 0 126.5 -16t110 -49.5t78.5 -87t30 -128.5v-558z" />
    <glyph glyph-name="uni17E1" unicode="&#x17e1;" horiz-adv-x="1348" 
d="M1167 584q0 -85 -19.5 -144.5t-57 -97.5t-101.5 -63.5t-133 -25.5h-313q-96 0 -179 36t-114 72.5t-37 50t-6 25.5q0 18 9.5 28.5t24.5 10.5q9 0 17 -5.5t27 -23t61 -40t91 -36t119 -13.5h304q41 0 82.5 15t61.5 39.5t30 56t10 63.5v568q0 75 -42 125.5t-126 50.5h-327
q-32 0 -67 -10t-65 -28.5t-49.5 -48t-19.5 -68.5v-321q0 -22 22.5 -35t41.5 -13q25 0 45.5 12.5t20.5 27.5q0 14 -14 14q-43 0 -65.5 31t-22.5 85q0 48 25 84t76 36q36 0 54.5 -13.5t30.5 -34t18 -44.5t6 -45q0 -49 -18.5 -92.5t-51 -76t-76.5 -52t-94 -19.5q-54 0 -87 37
t-33 109v331q3 74 39 121t90 73.5t118.5 36t124.5 9.5h289q31 0 74.5 -9t81 -28.5t65 -51.5t43.5 -78t16 -106v-525z" />
    <glyph glyph-name="uni17E2" unicode="&#x17e2;" horiz-adv-x="1575" 
d="M1377 359q0 -24 -12 -43.5t-31.5 -33.5t-45 -21.5t-52.5 -7.5q-35 0 -55 5t-45 12.5t-63 18t-89 20.5t-90.5 15t-68.5 5q-17 0 -53.5 -0.5t-77 -5.5t-76.5 -14t-69 -19q-39 -12 -63 -18.5t-41.5 -10.5t-32.5 -6t-36 -2q-69 0 -110 35t-41 107v1050q0 48 -13.5 70
t-29.5 33t-29.5 21t-13.5 34q0 27 19 39.5t43 12.5q63 0 108.5 -38t45.5 -103v-1075q0 -60 42 -60q24 0 102 21.5t133.5 32.5t105 14.5t87.5 3.5q57 0 116 -8.5t106.5 -17.5t84.5 -17t56 -8q42 0 50 12t8 37v734q0 28 -12 40t-33 12q-24 0 -54 -15l-235 -92l-227 109
l-25 -21v-491q0 -10 10.5 -17t26.5 -7q32 0 46 14.5t14 23.5q0 7 -4 9.5t-18 2.5q-34 0 -51 27.5t-17 63.5q0 39 21 61.5t54 22.5q38 0 59.5 -26.5t21.5 -72.5q0 -42 -13.5 -79.5t-37.5 -66t-58.5 -45t-76.5 -16.5q-12 0 -30 4t-34.5 11.5t-28.5 19.5t-12 28v591l155 98
l247 -119l281 119l162 -95v-918z" />
    <glyph glyph-name="uni17E3" unicode="&#x17e3;" horiz-adv-x="1875" 
d="M354 1142v-759q7 -16 19 -21.5t23 -5.5q25 2 41.5 19t16.5 47q0 35 -13.5 45.5t-29 16.5t-28.5 15t-13 40q0 30 22 51t62 21q56 0 77.5 -27.5t21.5 -95.5q0 -39 -9.5 -81.5t-47.5 -84.5q-36 -41 -84.5 -55t-84.5 -14h-33q-26 0 -47.5 21t-21.5 52v849q0 63 33 102
t78.5 61.5t93.5 31t78 8.5h254h30.5t41.5 -5t57 -20t72 -49q27 21 55.5 35.5t58.5 22.5t57.5 12t48.5 4h239q30 0 73.5 -6t80.5 -26t57 -40t30.5 -37t18 -38t7.5 -53v-925h-129v888q0 33 -14.5 57t-37 39.5t-51 23t-55.5 7.5h-204q-27 0 -57 -6t-54.5 -20t-41 -38t-16.5 -62
v-889h-128v899q0 32 -18.5 55.5t-41 37.5t-48 18.5t-51.5 4.5h-219q-27 0 -57 -6t-54.5 -20t-41 -38t-16.5 -62z" />
    <glyph glyph-name="uni17E4" unicode="&#x17e4;" horiz-adv-x="1425" 
d="M1284 709.5q-9 -30.5 -25.5 -54.5t-42 -39t-58.5 -15q-42 0 -72 29t-30 70q0 45 27.5 79.5t64.5 34.5q9 0 18 -1.5t17 -1.5q9 0 9 16q0 47 -32 71.5t-74 24.5q-53 0 -85 -20t-48.5 -51.5t-22 -62t-5.5 -71.5q0 -58 36 -123t91 -106t118.5 -66.5t120.5 -25.5
q16 -15 24 -29.5t8 -27.5q0 -29 -15 -53t-38 -42q-55 11 -115 23.5t-117 12.5l-561 -30q-50 0 -89 14.5t-68 36t-48.5 48t-34 60t-14.5 141.5v347q0 67 8.5 121t18 85.5t26 62.5t41.5 59.5t56.5 48.5t68.5 32.5t141 38.5l386 90q90 24 122 39t54.5 37t22.5 61v57
q0 27 12 43.5t51 16.5q62 0 62 -48v-78q0 -12 -4 -45.5t-51 -87.5t-174 -89l-506 -135q-53 -14 -91 -31t-62 -49.5t-35.5 -87t-11.5 -143.5v-336q0 -93 39 -132t119 -42h118q93 -1 181 5.5t196 21.5q-54 17 -97 52t-72 78.5t-44 91.5t-15 102q0 51 16 106t52.5 101.5
t91.5 75t120 28.5q102 0 155 -54t64 -111t11 -84q0 -59 -9 -89.5z" />
    <glyph glyph-name="uni17E5" unicode="&#x17e5;" horiz-adv-x="1425" 
d="M1293 755q0 -15 -9 -45.5t-25.5 -54.5t-42 -39t-58.5 -15q-42 0 -72 29t-30 70q0 45 27.5 79.5t69.5 34.5q9 0 14.5 -1.5t13.5 -1.5q11 0 11 16q0 47 -32 71.5t-74 24.5q-53 0 -85 -20t-48.5 -51.5t-22 -72t-5.5 -81.5q0 -58 36 -113t91 -96t118.5 -66.5t120.5 -25.5
q13 -15 22.5 -29.5t9.5 -27.5q0 -29 -15 -53t-38 -42q-55 11 -115 23.5t-117 12.5l-561 -30q-50 0 -89 14.5t-68 36t-48.5 48t-30.5 51.5q-18 42 -18 150v227q0 67 7.5 121t19.5 89q17 52 57.5 106t107.5 86q-42 33 -57.5 64.5t-15.5 80.5q0 36 10.5 67.5t33 57t59.5 42
t90 16.5q86 0 134 -52.5t48 -130.5q0 -40 -14 -73q72 15 123 26t97 23t91 25.5t77 28.5t54.5 37t22.5 61v192q0 27 12 43.5t42 16.5q71 0 71 -48v-213q0 -12 -4 -43t-31 -74q-31 -50 -94 -79t-153 -52.5t-205 -47.5t-248 -61q-53 -14 -91 -31t-62 -49.5t-35.5 -87
t-11.5 -143.5v-216q0 -93 39 -132t119 -42h129q72 -1 135 2.5t231 24.5q-54 17 -97 52t-72 78.5t-44 91.5t-15 92q0 57 18 114t52.5 103.5t84.5 75t115 28.5q114 0 177 -66t63 -183v-44zM531 1240q39 0 65 25.5t26 61.5q0 37 -25.5 63.5t-64.5 26.5q-40 0 -65 -26.5
t-25 -63.5q0 -36 24.5 -61.5t64.5 -25.5z" />
    <glyph glyph-name="uni17E6" unicode="&#x17e6;" horiz-adv-x="1425" 
d="M1233 535q0 -142 -58 -200.5t-139.5 -70t-118.5 -11.5h-332q-57 0 -120 9t-117 35t-89.5 74t-35.5 128v309q0 33 12 63t33 52.5t49.5 35t63.5 12.5q48 0 87.5 -16.5t69 -46.5t45 -71t15.5 -91q0 -25 -6 -53.5t-19.5 -52t-34.5 -39t-51 -15.5q-57 0 -84 30.5t-27 80.5
q0 42 19 65t41.5 34.5t41 15t18.5 9.5q0 29 -24.5 43t-50.5 14q-63 0 -63 -64v-315q0 -39 22.5 -63t55.5 -37.5t71.5 -18t69.5 -4.5h322q67 0 108.5 10.5t66 38t24.5 116.5v501q0 109 -56 159q-64 49 -194 49h-289q-57 0 -103.5 -21t-80 -47t-78.5 -68q-44 0 -68.5 29
t-27.5 71q37 47 42.5 98.5t5.5 99.5q0 141 -8 153q-9 24 -18 37.5t-17 25t-12.5 23.5t-4.5 30q0 28 26 47.5t55 19.5q68 0 93 -37.5t25 -72.5q0 -17 -0.5 -26.5t-3.5 -33.5l-26 -259q45 23 97.5 38t102.5 15h312q96 0 159 -18q90 -24 147 -96t57 -207v-516z" />
    <glyph glyph-name="uni17E7" unicode="&#x17e7;" horiz-adv-x="1575" 
d="M1329.5 1663.5q21.5 -15.5 35 -45t19 -76t5.5 -115.5v-1003q0 -57 -18 -91t-47.5 -52t-66 -23t-72.5 -5q-117 0 -175.5 36t-58.5 129v750q0 27 -16.5 45.5t-46.5 18.5q-8 0 -20 -3t-28 -10l-206 -92l-209 89q-15 7 -30 7q-16 0 -25.5 -10t-9.5 -29v-804q0 -9 9.5 -15.5
t18.5 -6.5q17 0 32.5 12t28.5 28.5t20.5 36t7.5 35.5q0 18 -16.5 20.5t-36 10t-36 29t-16.5 75.5q0 41 23 69.5t67 28.5q25 0 48.5 -9t38.5 -28t21 -44.5t6 -46.5q0 -61 -15 -119t-43.5 -102t-68.5 -71t-89 -27q-18 0 -42 4.5t-45 15t-35.5 24.5t-14.5 35v893l173 145
l274 -117l231 117l186 -111v-878q0 -25 22.5 -39t66.5 -14q34 0 56 12t22 37v1044q0 48 -10.5 79t-60.5 47q-37 11 -37 48q0 15 6.5 31t20 29.5t32.5 21.5t44 8q20 0 39.5 -4.5t41 -20z" />
    <glyph glyph-name="uni17E8" unicode="&#x17e8;" horiz-adv-x="1575" 
d="M1446 1619q0 -27 -10 -39.5t-22.5 -18t-22.5 -13t-10 -26.5v-359q0 -36 -20 -61.5t-53 -25.5h-74q0 14 -12 33.5t-34.5 43t-54.5 44.5t-74 32t-106 11h-356q-47 0 -89.5 -17.5t-75.5 -49t-52.5 -77t-19.5 -101.5v-489q0 -31 13.5 -54.5t30 -39t52.5 -32.5l319 192h62
l280 -184q11 -5 20 -5.5t21 -0.5q34 0 62 32t28 94v329q0 9 -9.5 15t-26.5 6q-35 0 -59 -25t-24 -53q0 -5 1 -12.5t7 -7.5q100 0 100 -99q0 -16 -6.5 -32.5t-18 -30t-28 -22.5t-35.5 -9q-26 0 -48.5 15t-35.5 37.5t-15.5 47t-2.5 44.5q0 46 16.5 89t45.5 75t71 51t93 19
q44 0 76 -18t32 -48v-382q0 -51 -6.5 -94.5t-29.5 -71.5q-30 -39 -75 -58.5t-76 -19.5h-134l-249 165l-286 -165h-114q-27 0 -59.5 12.5t-61 40.5t-48 73t-19.5 109v512q0 82 30 150.5t82 115.5t118.5 73.5t141.5 26.5h372q62 0 111.5 -9t89.5 -31.5t80 -69.5v305
q0 69 28 100.5t83 31.5q50 0 68.5 -25t18.5 -49z" />
    <glyph glyph-name="uni17E9" unicode="&#x17e9;" horiz-adv-x="1425" 
d="M1293 1628q0 -30 -11.5 -40.5t-24 -22.5t-24 -36.5t-11.5 -83.5v-259q0 -31 -18.5 -41t-49.5 -10q-32 0 -40.5 3.5t-17.5 12t-21 21t-34 30.5q-14 11 -29 22t-33 20t-41.5 13t-67.5 4h-352q-57 0 -90.5 -17.5t-51.5 -46.5t-18 -83q0 -63 31 -93t109 -30h499
q29 0 41.5 -19t12.5 -44q0 -26 -12 -51.5t-37 -25.5h-504q-27 0 -52.5 -16.5t-44.5 -39.5t-31 -50t-12 -47v-154q0 -50 16 -86t62.5 -66t120.5 -30h346q27 0 65.5 4.5t68.5 19.5t46 43t16 67v108q0 42 -13.5 68t-59.5 26q-26 0 -53 -14t-27 -44q0 -8 18 -10t39 -9.5
t39 -25.5t18 -66q0 -39 -23 -67t-73 -28q-31 0 -53.5 11.5t-36 31t-20.5 43.5t-7 51q0 99 52 158t143 59q32 0 63.5 -7.5t57.5 -24.5t42.5 -44t16.5 -66v-197q0 -24 -4 -42.5t-19.5 -43.5t-47.5 -49t-73.5 -37.5t-86.5 -18.5t-85 -5h-377q-54 0 -98.5 11t-82.5 33.5
t-66.5 57t-44 84t-15.5 115.5v186q0 24 12 50.5t31.5 50.5t43.5 42.5t49 29.5q-39 7 -65 29.5t-42 52t-22.5 62.5t-6.5 61q0 54 18 97t47 73t68 49.5t89 31.5t128 12h308q32 0 64 -8.5t62 -21t54 -27.5t39 -30v232q0 51 9.5 85t28.5 53.5t39.5 27t47.5 7.5q29 0 49 -19.5
t20 -51.5z" />
    <glyph glyph-name="uni17F0" unicode="&#x17f0;" horiz-adv-x="1125" 
d="M819 1088q0 48 -18 83.5t-48 58t-71.5 33.5t-86.5 11q-114 0 -178.5 -48.5t-64.5 -120.5v-557q0 -81 64 -133.5t188 -52.5q92 0 153.5 46t61.5 140v540zM940 542q0 -79 -22.5 -134.5t-65 -90t-105 -49.5t-141.5 -15q-203 0 -290.5 72t-87.5 205v588q0 69 27 118.5
t75.5 82t116 47.5t148.5 15q65 0 126.5 -16t110 -49.5t78.5 -87t30 -128.5v-558z" />
    <glyph glyph-name="uni17F1" unicode="&#x17f1;" horiz-adv-x="1123" 
d="M1012 259h-170l-231 927l-231 -927h-170l333 1120h136z" />
    <glyph glyph-name="uni17F2" unicode="&#x17f2;" horiz-adv-x="525" 
d="M381 253h-153v1123h153v-1123z" />
    <glyph glyph-name="uni17F3" unicode="&#x17f3;" horiz-adv-x="1725" 
d="M1629 253h-164l-232 928l-224 -928h-174l-224 928l-232 -928h-164l328 1119h136l243 -933l243 933h136z" />
    <glyph glyph-name="uni17F4" unicode="&#x17f4;" horiz-adv-x="1123" 
d="M669 251h-136l-327 1121h165l230 -930l230 930h165z" />
    <glyph glyph-name="uni17F5" unicode="&#x17f5;" horiz-adv-x="973" 
d="M574 542q0 54 -1.5 87t-5 54t-14.5 52.5t-34 45t-36 12.5q-20 0 -37 -10t-33.5 -37.5t-27 -76.5t-10.5 -127q0 -57 9 -90.5t22.5 -51t30.5 -22t34 -4.5q15 0 33.5 7t33.5 24t25.5 50t10.5 87zM562 906q33 -20 55 -47t40 -64.5t27.5 -88.5t9.5 -122q0 -99 -18.5 -162.5
t-48.5 -102t-69 -53.5t-81 -15q-47 0 -85 13.5t-66.5 47.5t-46.5 91t-23 145q0 41 2.5 77t11.5 76.5t21.5 72.5t35.5 66.5t61 65.5l-358 466h151l294 -390l294 390h151z" />
    <glyph glyph-name="uni17F6" unicode="&#x17f6;" horiz-adv-x="825" 
d="M748 259h-151l-383 1113h128z" />
    <glyph glyph-name="uni17F7" unicode="&#x17f7;" horiz-adv-x="1348" 
d="M934 253h-160l-125 951l-307 -951h-140l378 1119h160l125 -951l307 951h140z" />
    <glyph glyph-name="uni17F8" unicode="&#x17f8;" horiz-adv-x="748" 
d="M361 253h-159l378 1128h122z" />
    <glyph glyph-name="uni17F9" unicode="&#x17f9;" horiz-adv-x="1275" 
d="M148 356l846 827l51 -122l-706 -688h454q422 1 422 -306q-2 -309 -422 -311h-75v122h77q300 -2 300 187q0 188 -300 188h-588z" />
    <glyph glyph-name="uni19E0" unicode="&#x19e0;" horiz-adv-x="1197" 
d="M804 1427q0 47 -16.5 82t-45 57.5t-67 34t-80.5 11.5q-31 0 -67 -11.5t-65.5 -33t-49 -52.5t-19.5 -71v-384q0 -45 19 -79.5t49.5 -58t67.5 -35.5t73 -12q42 0 78.5 11.5t63.5 34t43 57t16 82.5v367zM942 1052q0 -79 -22.5 -134.5t-65.5 -90t-105 -49.5t-142 -15
q-76 0 -140.5 16.5t-111 51t-72 87t-25.5 122.5v423q0 74 31.5 124t81 81t109.5 44.5t117 13.5q64 0 125.5 -16t110.5 -49.5t79 -87t30 -128.5v-393zM1101 646q0 -22 -10 -35.5t-22.5 -18.5t-22.5 -12t-10 -23v-183q0 -32 -20 -54.5t-53 -22.5h-74q0 17 -21.5 41.5t-60 47
t-92.5 39t-118 16.5q-47 0 -89.5 -15t-75.5 -42.5t-52.5 -67.5t-19.5 -89v-361q0 -27 7.5 -49.5t30 -36.5t49.5 -14q15 0 28 6l121 162h50l121 -162q26 -6 46 -6q33 0 61.5 28.5t28.5 82.5v245q0 9 -9.5 14t-26.5 5q-35 0 -59 -21.5t-24 -47.5q0 -7 2.5 -11.5t9.5 -4.5
q96 0 96 -80q0 -36 -24.5 -58.5t-63.5 -22.5q-26 0 -46 11.5t-31.5 28t-18 38t-6.5 39.5q0 42 16.5 79t45.5 65.5t71 45t93 16.5q44 0 76 -16t32 -43v-291q0 -46 -6.5 -83t-29.5 -62q-31 -35 -75.5 -52t-75.5 -17h-133l-95 145l-95 -145h-115q-27 0 -60 11t-61 36t-47.5 64
t-19.5 96v369q0 73 30 132.5t82 101.5t118.5 64.5t141.5 22.5q126 0 197.5 -26.5t110.5 -69.5v136q0 63 30.5 89.5t97.5 26.5q36 0 53 -18.5t17 -42.5z" />
    <glyph glyph-name="uni19E1" unicode="&#x19e1;" horiz-adv-x="1126" 
d="M910 1063q0 -90 -25.5 -155.5t-71 -107.5t-111 -62t-146.5 -20q-96 0 -177.5 37t-119 81t-37.5 71q0 18 10 25.5t21 7.5q14 0 33.5 -19t51 -40t66.5 -31.5t75.5 -12.5t90.5 -2q105 0 153.5 60t48.5 168v337q0 47 -17 80.5t-45.5 54.5t-67 31t-80.5 10q-31 0 -66.5 -10
t-65.5 -28.5t-49.5 -48t-19.5 -68.5v-246q0 -22 22.5 -35t42.5 -13q24 0 45 9.5t21 30.5q0 14 -15 14q-42 0 -64.5 31t-22.5 85q0 48 24.5 84t86.5 36q25 0 44 -13.5t31 -34t18 -44.5t6 -45q0 -49 -19 -92.5t-51 -76t-76.5 -52t-93.5 -19.5q-135 0 -135 146v256
q0 65 33.5 110.5t84.5 74t111 41.5t114 13q62 0 123.5 -13.5t110 -45t78.5 -84t30 -129.5v-346zM774 -255v525q-14 -38 -42.5 -64t-64.5 -43.5t-75.5 -25t-75.5 -7.5q-63 0 -116.5 18t-92.5 52.5t-60.5 85t-21.5 116.5q0 48 18 93t48.5 79.5t72.5 54.5t90 20q35 0 70 -6.5
t63.5 -24t46.5 -46t18 -70.5q0 -43 -30 -72.5t-73 -29.5q-44 0 -77.5 29.5t-33.5 74.5q0 6 2 12t2 10q0 12 -18 12q-19 0 -33.5 -11t-24 -28.5t-14 -37t-4.5 -35.5q0 -44 16.5 -74t44 -48t63.5 -26t75 -8q60 0 103 26t70.5 67.5t40.5 92.5t13 100v86h150v-897h-150z" />
    <glyph glyph-name="uni19E2" unicode="&#x19e2;" horiz-adv-x="1126" 
d="M1014 824q0 -22 -11.5 -41.5t-28.5 -34t-39 -22.5t-41 -8q-35 0 -68.5 9.5t-67.5 21t-64 21t-67 9.5q-38 0 -68 -9.5t-60.5 -21t-61 -21t-68.5 -9.5q-74 0 -115 35t-41 107v750q0 48 -13.5 70t-29.5 33t-29.5 21t-13.5 34q0 27 19 39.5t43 12.5q63 0 100.5 -38t37.5 -103
v-790q0 -32 11.5 -50t42.5 -18q27 0 57.5 13.5t56.5 25t57 22.5t66 11q33 0 67.5 -8t66.5 -18.5t62 -19t56 -8.5q22 0 26 13t4 32v554q0 10 -11 24t-26 23.5t-30.5 15.5t-25.5 6q-7 0 -28 -13t-46 -28.5t-47.5 -30.5t-28.5 -20q-74 54 -156 87l-18 -21v-456q0 -10 14 -17
t23 -7q32 0 46 14.5t14 23.5q0 7 -6 10t-22 3q-33 0 -47.5 26t-14.5 62q0 37 18 61.5t53 24.5q40 0 62.5 -29t22.5 -70q0 -42 -13.5 -79.5t-37.5 -66t-58.5 -45t-76.5 -16.5q-12 0 -28.5 4t-30.5 11.5t-24.5 19.5t-10.5 28v546q10 9 30.5 25.5t42 32.5t42 28t29.5 12
t36 -13.5t56 -31t54.5 -34t31.5 -22.5q11 8 37 24.5t55.5 33.5t55.5 30t37 13t29.5 -12.5t38.5 -26.5t39.5 -29t33.5 -27v-708zM774 -255v525q-14 -38 -42.5 -64t-64.5 -43.5t-75.5 -25t-75.5 -7.5q-63 0 -116.5 18t-92.5 52.5t-60.5 85t-21.5 116.5q0 48 18 93t48.5 79.5
t72.5 54.5t90 20q35 0 70 -6.5t63.5 -24t46.5 -46t18 -70.5q0 -43 -30 -72.5t-73 -29.5q-44 0 -77.5 29.5t-33.5 74.5q0 6 2 12t2 10q0 12 -18 12q-19 0 -33.5 -11t-24 -28.5t-14 -37t-4.5 -35.5q0 -44 16.5 -74t44 -48t63.5 -26t75 -8q60 0 103 26t70.5 67.5t40.5 92.5
t13 100v86h150v-897h-150z" />
    <glyph glyph-name="uni19E3" unicode="&#x19e3;" horiz-adv-x="1422" 
d="M1182 719v687q0 35 -13.5 63.5t-36 48t-52 30t-62.5 10.5q-18 0 -50 -4.5t-63.5 -15t-55 -28t-23.5 -42.5v-749h-121v749q0 25 -21 42.5t-51 27t-62.5 14t-56.5 4.5q-76 0 -120.5 -36.5t-44.5 -122.5v-568q0 -9 8.5 -14.5t15.5 -5.5q15 0 28.5 10t24 24t16.5 31.5t6 32.5
q0 3 -0.5 11t-6.5 8q-50 0 -66.5 25t-16.5 73q0 18 4.5 36t13.5 32t23.5 24t33.5 10q24 0 40 -12t25 -31t12 -40.5t3 -41.5q0 -39 -7 -87t-26 -91.5t-53 -72.5t-79 -29q-14 0 -34 2.5t-40.5 12t-31.5 26.5t-11 33v623q0 60 25.5 103.5t66.5 71.5t91.5 41.5t99.5 13.5
q27 0 61 -4t67.5 -12t65 -21t54.5 -31q54 41 124.5 55t137.5 14q56 0 105.5 -15.5t87.5 -45.5t60.5 -76t22.5 -106v-687h-118zM924 -255v525q-14 -38 -42.5 -64t-64.5 -43.5t-75.5 -25t-75.5 -7.5q-63 0 -116.5 18t-92.5 52.5t-60.5 85t-21.5 116.5q0 48 18 93t48.5 79.5
t72.5 54.5t90 20q35 0 70 -6.5t63.5 -24t46.5 -46t18 -70.5q0 -43 -30 -72.5t-73 -29.5q-44 0 -77.5 29.5t-33.5 74.5q0 6 2 12t2 10q0 12 -18 12q-19 0 -33.5 -11t-24 -28.5t-14 -37t-4.5 -35.5q0 -44 16.5 -74t44 -48t63.5 -26t75 -8q60 0 103 26t70.5 67.5t40.5 92.5
t13 100v86h150v-897h-150z" />
    <glyph glyph-name="uni19E4" unicode="&#x19e4;" horiz-adv-x="1128" 
d="M1038 1165q0 -45 -9 -70t-25.5 -45t-42 -33t-58.5 -13q-42 0 -72 24t-30 59q0 37 27.5 65.5t64.5 28.5q10 0 17 -1.5t14 -1.5q13 0 13 14q0 39 -32 59t-74 20q-53 0 -86.5 -15t-50 -42t-20.5 -53t-4 -59q0 -48 36 -101.5t91 -88t118.5 -55.5t120.5 -21q8 -13 20 -27
t12 -26q0 -24 -14 -41.5t-39 -31.5q-55 9 -115 19.5t-117 10.5q-58 0 -151.5 -12.5t-154.5 -12.5q-63 0 -111 20t-79.5 54.5t-47.5 79.5t-16 95v150q0 94 28.5 165.5t86.5 124t146 85.5t161 51t110 28.5t70 24.5t55.5 33t22.5 46v48q0 10 0.5 20t6.5 16t19 9.5t38 3.5
q35 0 53 -9.5t18 -42.5v-39q0 -60 -30 -98.5t-79 -64t-111 -42t-125 -32t-122 -35t-106.5 -55.5t-77 -92.5t-29.5 -146.5v-141q0 -60 40 -101t118 -41q49 0 119 9.5t121 11.5q-54 13 -97 42.5t-72 66t-44 76.5t-15 74q0 55 18 102t52.5 81.5t84.5 58.5t115 24
q112 0 163.5 -45t64 -87.5t12.5 -77.5zM774 -255v525q-14 -38 -42.5 -64t-64.5 -43.5t-75.5 -25t-75.5 -7.5q-63 0 -116.5 18t-92.5 52.5t-60.5 85t-21.5 116.5q0 48 18 93t48.5 79.5t72.5 54.5t90 20q35 0 70 -6.5t63.5 -24t46.5 -46t18 -70.5q0 -43 -30 -72.5t-73 -29.5
q-44 0 -77.5 29.5t-33.5 74.5q0 6 2 12t2 10q0 12 -18 12q-19 0 -33.5 -11t-24 -28.5t-14 -37t-4.5 -35.5q0 -44 16.5 -74t44 -48t63.5 -26t75 -8q60 0 103 26t70.5 67.5t40.5 92.5t13 100v86h150v-897h-150z" />
    <glyph glyph-name="uni19E5" unicode="&#x19e5;" horiz-adv-x="1126" 
d="M640 1523q0 26 -21.5 39.5t-56.5 13.5q-33 0 -56 -15t-23 -41q0 -28 24 -41t55 -13q35 0 56.5 15t21.5 42zM1008 1576q0 -72 -11.5 -115t-35.5 -66t-61.5 -29.5t-79.5 -7t-54 -0.5q-69 0 -140 -14t-128 -44t-94 -76.5t-37 -109.5v-159q0 -23 10 -47t28.5 -44t45 -33
t59.5 -13q19 0 49 3t61.5 7t62.5 8.5t52 7.5q-36 13 -69 36.5t-58 52.5t-40 62t-15 66q0 38 16.5 75.5t46.5 66.5t73 47t97 18q55 0 97 -15t68.5 -36t41.5 -50t15 -64q0 -28 -7.5 -56t-23.5 -50.5t-40.5 -36t-60.5 -13.5t-59 23.5t-23 56.5q0 34 23 61t58 27q7 0 15.5 -1.5
t15.5 -1.5q13 0 13 15q0 18 -10.5 29.5t-26 18t-36 9.5t-39.5 3q-68 0 -94 -35t-26 -80q0 -48 33.5 -85.5t84.5 -65.5t110.5 -49.5t123.5 -35.5q15 -21 27 -34.5t12 -31.5q0 -51 -70 -70q-56 15 -119.5 28.5t-123.5 13.5q-44 0 -85 -6t-81 -13t-76 -13t-67 -6
q-57 0 -100 23.5t-71.5 60t-42.5 81t-14 86.5v190q0 44 21 83t54.5 71.5t80.5 56t96 33.5q-56 20 -79 54.5t-23 81.5q0 30 15 55.5t40.5 43.5t60 28.5t74.5 10.5q84 0 130 -34.5t46 -91.5q0 -20 -6 -45.5t-14 -43.5h77q21 0 35 9t22.5 22.5t12 30t3.5 30.5v162q0 21 23.5 42
t63.5 21q26 0 40 -6t21.5 -17.5t7.5 -26.5q0 -20 -11 -31t-11 -23v-85zM774 -255v525q-14 -38 -42.5 -64t-64.5 -43.5t-75.5 -25t-75.5 -7.5q-63 0 -116.5 18t-92.5 52.5t-60.5 85t-21.5 116.5q0 48 18 93t48.5 79.5t72.5 54.5t90 20q35 0 70 -6.5t63.5 -24t46.5 -46
t18 -70.5q0 -43 -30 -72.5t-73 -29.5q-44 0 -77.5 29.5t-33.5 74.5q0 6 2 12t2 10q0 12 -18 12q-19 0 -33.5 -11t-24 -28.5t-14 -37t-4.5 -35.5q0 -44 16.5 -74t44 -48t63.5 -26t75 -8q60 0 103 26t70.5 67.5t40.5 92.5t13 100v86h150v-897h-150z" />
    <glyph glyph-name="uni19E6" unicode="&#x19e6;" horiz-adv-x="1047" 
d="M903 943q0 -68 -22 -113.5t-63 -73.5t-100.5 -40.5t-132.5 -12.5q-57 0 -120 7.5t-117 30t-89.5 63.5t-35.5 109v186q0 28 12 53.5t33 44.5t49.5 30t63.5 11q48 0 87.5 -14t69 -39.5t45 -61t15.5 -77.5q0 -22 -6 -46t-19.5 -44.5t-34.5 -33t-51 -12.5q-57 0 -84 26
t-27 68q0 38 18 57t41 27.5t42 11.5t19 11q0 24 -24.5 36t-50.5 12q-63 0 -63 -56v-190q0 -35 22.5 -55t55.5 -31.5t71.5 -15t69.5 -3.5q92 0 141.5 33t49.5 106v351q0 95 -55 136t-154 41q-57 0 -103.5 -18t-80 -39.5t-78.5 -57.5q-44 0 -68.5 24.5t-27.5 60.5
q15 15 31.5 42t16.5 50q0 42 -10.5 64t-16.5 29.5t-14 18t-15 22.5t-7 31q0 24 23 40.5t58 16.5q60 0 89 -29t29 -73q0 -10 -3.5 -35t-23.5 -88q45 19 97.5 32t102.5 13q76 0 140 -14.5t109.5 -46.5t70.5 -84.5t25 -127.5v-363zM774 -255v525q-14 -38 -42.5 -64t-64.5 -43.5
t-75.5 -25t-75.5 -7.5q-63 0 -116.5 18t-92.5 52.5t-60.5 85t-21.5 116.5q0 48 18 93t48.5 79.5t72.5 54.5t90 20q35 0 70 -6.5t63.5 -24t46.5 -46t18 -70.5q0 -43 -30 -72.5t-73 -29.5q-44 0 -77.5 29.5t-33.5 74.5q0 6 2 12t2 10q0 12 -18 12q-19 0 -33.5 -11t-24 -28.5
t-14 -37t-4.5 -35.5q0 -44 16.5 -74t44 -48t63.5 -26t75 -8q60 0 103 26t70.5 67.5t40.5 92.5t13 100v86h150v-897h-150z" />
    <glyph glyph-name="uni19E7" unicode="&#x19e7;" horiz-adv-x="1347" 
d="M1121 1738.5q20 -15.5 33.5 -45t19 -76t5.5 -115.5v-628q0 -59 -18 -92.5t-47.5 -51.5t-66 -22.5t-72.5 -4.5q-35 0 -71.5 7.5t-66 25.5t-48 50t-18.5 82v507q0 10 -13.5 25t-31.5 28t-37 22t-29 9q-8 0 -26.5 -14t-39 -33t-65.5 -60q-39 33 -69.5 55.5t-78.5 43.5
l-21 -22v-599q0 -9 9.5 -15.5t18.5 -6.5q17 0 32.5 12t28.5 28.5t20.5 36t7.5 35.5q0 18 -16.5 20.5t-36 10t-36 29t-16.5 75.5q0 41 23 69.5t70 28.5q25 0 46 -12t36 -31t22 -41.5t7 -43.5q0 -61 -15 -119t-43.5 -102t-68.5 -71t-89 -27q-18 0 -44 4t-47 14.5t-33.5 32.5
t-12.5 43v653q11 10 34 34t49.5 49t50.5 43.5t36 18.5q10 0 35 -14t52 -33.5t51 -39t34 -30.5q11 11 32 30.5t45 39t45.5 33.5t33.5 14t34.5 -12t48 -28.5t53.5 -36t50 -34.5v-653q0 -22 16.5 -38.5t48.5 -16.5q42 0 57 17.5t15 38.5v664q0 48 -10.5 79t-60.5 47
q-37 11 -37 48q0 15 6.5 31t20 29.5t32.5 21.5t44 8t43.5 -4.5t38.5 -20zM864 -255v525q-14 -38 -42.5 -64t-64.5 -43.5t-75.5 -25t-75.5 -7.5q-63 0 -116.5 18t-92.5 52.5t-60.5 85t-21.5 116.5q0 48 18 93t48.5 79.5t72.5 54.5t90 20q35 0 70 -6.5t63.5 -24t46.5 -46
t18 -70.5q0 -43 -30 -72.5t-73 -29.5q-44 0 -77.5 29.5t-33.5 74.5q0 6 2 12t2 10q0 12 -18 12q-19 0 -33.5 -11t-24 -28.5t-14 -37t-4.5 -35.5q0 -44 16.5 -74t44 -48t63.5 -26t75 -8q60 0 103 26t70.5 67.5t40.5 92.5t13 100v86h150v-897h-150z" />
    <glyph glyph-name="uni19E8" unicode="&#x19e8;" horiz-adv-x="1197" 
d="M1101 1770q0 -22 -10 -35.5t-22.5 -18.5t-22.5 -12t-10 -23v-183q0 -32 -20 -54.5t-53 -22.5h-74q0 17 -21.5 41.5t-60 47t-92.5 39t-118 16.5q-47 0 -89.5 -15t-75.5 -42.5t-52.5 -67.5t-19.5 -89v-361q0 -27 7.5 -49.5t30 -36.5t49.5 -14q15 0 28 6l121 162h50
l121 -162q26 -6 46 -6q33 0 61.5 28.5t28.5 82.5v245q0 9 -9.5 14t-26.5 5q-35 0 -59 -21.5t-24 -47.5q0 -7 2.5 -11.5t9.5 -4.5q96 0 96 -80q0 -36 -24.5 -58.5t-63.5 -22.5q-26 0 -46 11.5t-31.5 28t-18 38t-6.5 39.5q0 42 16.5 79t45.5 65.5t71 45t93 16.5q44 0 76 -16
t32 -43v-291q0 -46 -6.5 -83t-29.5 -62q-31 -35 -75.5 -52t-75.5 -17h-133l-95 145l-95 -145h-115q-27 0 -60 11t-61 36t-47.5 64t-19.5 96v369q0 73 30 132.5t82 101.5t118.5 64.5t141.5 22.5q126 0 197.5 -26.5t110.5 -69.5v136q0 63 30.5 89.5t97.5 26.5q36 0 53 -18.5
t17 -42.5zM819 -255v525q-14 -38 -42.5 -64t-64.5 -43.5t-75.5 -25t-75.5 -7.5q-63 0 -116.5 18t-92.5 52.5t-60.5 85t-21.5 116.5q0 48 18 93t48.5 79.5t72.5 54.5t90 20q35 0 70 -6.5t63.5 -24t46.5 -46t18 -70.5q0 -43 -30 -72.5t-73 -29.5q-44 0 -77.5 29.5t-33.5 74.5
q0 6 2 12t2 10q0 12 -18 12q-19 0 -33.5 -11t-24 -28.5t-14 -37t-4.5 -35.5q0 -44 16.5 -74t44 -48t63.5 -26t75 -8q60 0 103 26t70.5 67.5t40.5 92.5t13 100v86h150v-897h-150z" />
    <glyph glyph-name="uni19E9" unicode="&#x19e9;" horiz-adv-x="1050" 
d="M978 1754q0 -25 -11.5 -34t-24 -19t-24 -30t-11.5 -71v-144q0 -33 -36 -37.5t-88 -4.5q-11 9 -25 21t-44 33t-65.5 37.5t-98.5 16.5q-33 0 -66.5 -3t-61.5 -15t-46 -37.5t-18 -59.5t33 -55.5t107 -21.5h319q29 0 41.5 -15t12.5 -45q0 -25 -12 -42t-37 -17h-324
q-27 0 -57.5 -10.5t-49.5 -30.5t-26 -45.5t-7 -42.5v-118q0 -42 18 -71.5t47.5 -47.5t68.5 -26t81 -8q30 0 64.5 5t63.5 19.5t48.5 41.5t19.5 72v91q0 36 -16.5 58t-58.5 22q-36 0 -57 -12t-21 -33q0 -11 18 -13.5t39 -8.5t39 -20t18 -52q0 -37 -23 -61t-73 -24
q-63 0 -90 36t-27 80q0 82 54 133t151 51q30 0 60.5 -6t60 -21t47 -39t17.5 -54v-171q0 -22 -7.5 -46t-27 -47t-53 -42t-73.5 -31t-83.5 -16.5t-86.5 -4.5q-75 0 -140.5 12t-112.5 41t-74 78t-27 124v145q0 20 9.5 44t29 44.5t45 35.5t52.5 22q-25 3 -48.5 15t-43.5 29.5
t-32 41t-12 55.5q0 55 30 98t77 69t105.5 37.5t115.5 11.5q32 0 65 -7t60.5 -16.5t51.5 -23t42 -27.5v122q0 45 12 72.5t31.5 44t43.5 22.5t49 6q31 0 52 -16.5t21 -43.5zM774 -255v525q-14 -38 -42.5 -64t-64.5 -43.5t-75.5 -25t-75.5 -7.5q-63 0 -116.5 18t-92.5 52.5
t-60.5 85t-21.5 116.5q0 48 18 93t48.5 79.5t72.5 54.5t90 20q35 0 70 -6.5t63.5 -24t46.5 -46t18 -70.5q0 -43 -30 -72.5t-73 -29.5q-44 0 -77.5 29.5t-33.5 74.5q0 6 2 12t2 10q0 12 -18 12q-19 0 -33.5 -11t-24 -28.5t-14 -37t-4.5 -35.5q0 -44 16.5 -74t44 -48t63.5 -26
t75 -8q60 0 103 26t70.5 67.5t40.5 92.5t13 100v86h150v-897h-150z" />
    <glyph glyph-name="uni19EA" unicode="&#x19ea;" horiz-adv-x="1950" 
d="M1119 -255v525q-14 -38 -42.5 -64t-64.5 -43.5t-75.5 -25t-75.5 -7.5q-63 0 -116.5 18t-92.5 52.5t-60.5 85t-21.5 116.5q0 48 18 93t48.5 79.5t72.5 54.5t90 20q35 0 70 -6.5t63.5 -24t46.5 -46t18 -70.5q0 -43 -30 -72.5t-73 -29.5q-44 0 -77.5 29.5t-33.5 74.5
q0 6 2 12t2 10q0 12 -18 12q-19 0 -33.5 -11t-24 -28.5t-14 -37t-4.5 -35.5q0 -44 16.5 -74t44 -48t63.5 -26t75 -8q60 0 103 26t70.5 67.5t40.5 92.5t13 100v86h150v-897h-150zM910 1063q0 -90 -25.5 -155.5t-71 -107.5t-111 -62t-146.5 -20q-96 0 -177.5 37t-119 81
t-37.5 71q0 18 10 25.5t21 7.5q14 0 33.5 -19t51 -40t66.5 -31.5t75.5 -12.5t90.5 -2q105 0 153.5 60t48.5 168v337q0 47 -17 80.5t-45.5 54.5t-67 31t-80.5 10q-31 0 -66.5 -10t-65.5 -28.5t-49.5 -48t-19.5 -68.5v-246q0 -22 22.5 -35t42.5 -13q24 0 45 9.5t21 30.5
q0 14 -15 14q-42 0 -64.5 31t-22.5 85q0 48 24.5 84t86.5 36q25 0 44 -13.5t31 -34t18 -44.5t6 -45q0 -49 -19 -92.5t-51 -76t-76.5 -52t-93.5 -19.5q-135 0 -135 146v256q0 65 33.5 110.5t84.5 74t111 41.5t114 13q62 0 123.5 -13.5t110 -45t78.5 -84t30 -129.5v-346z
M1659 1383q0 47 -16.5 82t-45 57.5t-67 34t-80.5 11.5q-31 0 -67 -11.5t-65.5 -33t-49 -52.5t-19.5 -71v-384q0 -45 19 -79.5t49.5 -58t67.5 -35.5t73 -12q42 0 78.5 11.5t63.5 34t43 57t16 82.5v367zM1797 1008q0 -79 -22.5 -134.5t-65.5 -90t-105 -49.5t-142 -15
q-76 0 -140.5 16.5t-111 51t-72 87t-25.5 122.5v423q0 74 31.5 124t81 81t109.5 44.5t117 13.5q64 0 125.5 -16t110.5 -49.5t79 -87t30 -128.5v-393z" />
    <glyph glyph-name="uni19EB" unicode="&#x19eb;" horiz-adv-x="1948" 
d="M1209 -255v525q-14 -38 -42.5 -64t-64.5 -43.5t-75.5 -25t-75.5 -7.5q-63 0 -116.5 18t-92.5 52.5t-60.5 85t-21.5 116.5q0 48 18 93t48.5 79.5t72.5 54.5t90 20q35 0 70 -6.5t63.5 -24t46.5 -46t18 -70.5q0 -43 -30 -72.5t-73 -29.5q-44 0 -77.5 29.5t-33.5 74.5
q0 6 2 12t2 10q0 12 -18 12q-19 0 -33.5 -11t-24 -28.5t-14 -37t-4.5 -35.5q0 -44 16.5 -74t44 -48t63.5 -26t75 -8q60 0 103 26t70.5 67.5t40.5 92.5t13 100v86h150v-897h-150zM910 1063q0 -90 -25.5 -155.5t-71 -107.5t-111 -62t-146.5 -20q-96 0 -177.5 37t-119 81
t-37.5 71q0 18 10 25.5t21 7.5q14 0 33.5 -19t51 -40t66.5 -31.5t75.5 -12.5t90.5 -2q105 0 153.5 60t48.5 168v337q0 47 -17 80.5t-45.5 54.5t-67 31t-80.5 10q-31 0 -66.5 -10t-65.5 -28.5t-49.5 -48t-19.5 -68.5v-246q0 -22 22.5 -35t42.5 -13q24 0 45 9.5t21 30.5
q0 14 -15 14q-42 0 -64.5 31t-22.5 85q0 48 24.5 84t86.5 36q25 0 44 -13.5t31 -34t18 -44.5t6 -45q0 -49 -19 -92.5t-51 -76t-76.5 -52t-93.5 -19.5q-135 0 -135 146v256q0 65 33.5 110.5t84.5 74t111 41.5t114 13q62 0 123.5 -13.5t110 -45t78.5 -84t30 -129.5v-346z
M1810 1063q0 -90 -25.5 -155.5t-71 -107.5t-111 -62t-146.5 -20q-96 0 -177.5 37t-119 81t-37.5 71q0 18 10 25.5t21 7.5q14 0 33.5 -19t51 -40t66.5 -31.5t75.5 -12.5t90.5 -2q105 0 153.5 60t48.5 168v337q0 47 -17 80.5t-45.5 54.5t-67 31t-80.5 10q-31 0 -66.5 -10
t-65.5 -28.5t-49.5 -48t-19.5 -68.5v-246q0 -22 22.5 -35t42.5 -13q24 0 45 9.5t21 30.5q0 14 -15 14q-42 0 -64.5 31t-22.5 85q0 48 24.5 84t86.5 36q25 0 44 -13.5t31 -34t18 -44.5t6 -45q0 -49 -19 -92.5t-51 -76t-76.5 -52t-93.5 -19.5q-135 0 -135 146v256
q0 65 33.5 110.5t84.5 74t111 41.5t114 13q62 0 123.5 -13.5t110 -45t78.5 -84t30 -129.5v-346z" />
    <glyph glyph-name="uni19EC" unicode="&#x19ec;" horiz-adv-x="2100" 
d="M1209 -255v525q-14 -38 -42.5 -64t-64.5 -43.5t-75.5 -25t-75.5 -7.5q-63 0 -116.5 18t-92.5 52.5t-60.5 85t-21.5 116.5q0 48 18 93t48.5 79.5t72.5 54.5t90 20q35 0 70 -6.5t63.5 -24t46.5 -46t18 -70.5q0 -43 -30 -72.5t-73 -29.5q-44 0 -77.5 29.5t-33.5 74.5
q0 6 2 12t2 10q0 12 -18 12q-19 0 -33.5 -11t-24 -28.5t-14 -37t-4.5 -35.5q0 -44 16.5 -74t44 -48t63.5 -26t75 -8q60 0 103 26t70.5 67.5t40.5 92.5t13 100v86h150v-897h-150zM910 1063q0 -90 -25.5 -155.5t-71 -107.5t-111 -62t-146.5 -20q-96 0 -177.5 37t-119 81
t-37.5 71q0 18 10 25.5t21 7.5q14 0 33.5 -19t51 -40t66.5 -31.5t75.5 -12.5t90.5 -2q105 0 153.5 60t48.5 168v337q0 47 -17 80.5t-45.5 54.5t-67 31t-80.5 10q-31 0 -66.5 -10t-65.5 -28.5t-49.5 -48t-19.5 -68.5v-246q0 -22 22.5 -35t42.5 -13q24 0 45 9.5t21 30.5
q0 14 -15 14q-42 0 -64.5 31t-22.5 85q0 48 24.5 84t86.5 36q25 0 44 -13.5t31 -34t18 -44.5t6 -45q0 -49 -19 -92.5t-51 -76t-76.5 -52t-93.5 -19.5q-135 0 -135 146v256q0 65 33.5 110.5t84.5 74t111 41.5t114 13q62 0 123.5 -13.5t110 -45t78.5 -84t30 -129.5v-346z
M1944 824q0 -22 -11.5 -41.5t-28.5 -34t-39 -22.5t-41 -8q-35 0 -68.5 9.5t-67.5 21t-64 21t-67 9.5q-38 0 -68 -9.5t-60.5 -21t-61 -21t-68.5 -9.5q-74 0 -115 35t-41 107v750q0 48 -13.5 70t-29.5 33t-29.5 21t-13.5 34q0 27 19 39.5t43 12.5q63 0 100.5 -38t37.5 -103
v-790q0 -32 11.5 -50t42.5 -18q27 0 57.5 13.5t56.5 25t57 22.5t66 11q33 0 67.5 -8t66.5 -18.5t62 -19t56 -8.5q22 0 26 13t4 32v554q0 10 -11 24t-26 23.5t-30.5 15.5t-25.5 6q-7 0 -28 -13t-46 -28.5t-47.5 -30.5t-28.5 -20q-74 54 -156 87l-18 -21v-456q0 -10 14 -17
t23 -7q32 0 46 14.5t14 23.5q0 7 -6 10t-22 3q-33 0 -47.5 26t-14.5 62q0 37 18 61.5t53 24.5q40 0 62.5 -29t22.5 -70q0 -42 -13.5 -79.5t-37.5 -66t-58.5 -45t-76.5 -16.5q-12 0 -28.5 4t-30.5 11.5t-24.5 19.5t-10.5 28v546q10 9 30.5 25.5t42 32.5t42 28t29.5 12
t36 -13.5t56 -31t54.5 -34t31.5 -22.5q11 8 37 24.5t55.5 33.5t55.5 30t37 13t29.5 -12.5t38.5 -26.5t39.5 -29t33.5 -27v-708z" />
    <glyph glyph-name="uni19ED" unicode="&#x19ed;" horiz-adv-x="2323" 
d="M1419 -255v525q-14 -38 -42.5 -64t-64.5 -43.5t-75.5 -25t-75.5 -7.5q-63 0 -116.5 18t-92.5 52.5t-60.5 85t-21.5 116.5q0 48 18 93t48.5 79.5t72.5 54.5t90 20q35 0 70 -6.5t63.5 -24t46.5 -46t18 -70.5q0 -43 -30 -72.5t-73 -29.5q-44 0 -77.5 29.5t-33.5 74.5
q0 6 2 12t2 10q0 12 -18 12q-19 0 -33.5 -11t-24 -28.5t-14 -37t-4.5 -35.5q0 -44 16.5 -74t44 -48t63.5 -26t75 -8q60 0 103 26t70.5 67.5t40.5 92.5t13 100v86h150v-897h-150zM910 1063q0 -90 -25.5 -155.5t-71 -107.5t-111 -62t-146.5 -20q-96 0 -177.5 37t-119 81
t-37.5 71q0 18 10 25.5t21 7.5q14 0 33.5 -19t51 -40t66.5 -31.5t75.5 -12.5t90.5 -2q105 0 153.5 60t48.5 168v337q0 47 -17 80.5t-45.5 54.5t-67 31t-80.5 10q-31 0 -66.5 -10t-65.5 -28.5t-49.5 -48t-19.5 -68.5v-246q0 -22 22.5 -35t42.5 -13q24 0 45 9.5t21 30.5
q0 14 -15 14q-42 0 -64.5 31t-22.5 85q0 48 24.5 84t86.5 36q25 0 44 -13.5t31 -34t18 -44.5t6 -45q0 -49 -19 -92.5t-51 -76t-76.5 -52t-93.5 -19.5q-135 0 -135 146v256q0 65 33.5 110.5t84.5 74t111 41.5t114 13q62 0 123.5 -13.5t110 -45t78.5 -84t30 -129.5v-346z
M2082 719v687q0 35 -13.5 63.5t-36 48t-52 30t-62.5 10.5q-18 0 -50 -4.5t-63.5 -15t-55 -28t-23.5 -42.5v-749h-121v749q0 25 -21 42.5t-51 27t-62.5 14t-56.5 4.5q-76 0 -120.5 -36.5t-44.5 -122.5v-568q0 -9 8.5 -14.5t15.5 -5.5q15 0 28.5 10t24 24t16.5 31.5t6 32.5
q0 3 -0.5 11t-6.5 8q-50 0 -66.5 25t-16.5 73q0 18 4.5 36t13.5 32t23.5 24t33.5 10q24 0 40 -12t25 -31t12 -40.5t3 -41.5q0 -39 -7 -87t-26 -91.5t-53 -72.5t-79 -29q-14 0 -34 2.5t-40.5 12t-31.5 26.5t-11 33v623q0 60 25.5 103.5t66.5 71.5t91.5 41.5t99.5 13.5
q27 0 61 -4t67.5 -12t65 -21t54.5 -31q54 41 124.5 55t137.5 14q56 0 105.5 -15.5t87.5 -45.5t60.5 -76t22.5 -106v-687h-118z" />
    <glyph glyph-name="uni19EE" unicode="&#x19ee;" horiz-adv-x="2100" 
d="M1284 -255v525q-14 -38 -42.5 -64t-64.5 -43.5t-75.5 -25t-75.5 -7.5q-63 0 -116.5 18t-92.5 52.5t-60.5 85t-21.5 116.5q0 48 18 93t48.5 79.5t72.5 54.5t90 20q35 0 70 -6.5t63.5 -24t46.5 -46t18 -70.5q0 -43 -30 -72.5t-73 -29.5q-44 0 -77.5 29.5t-33.5 74.5
q0 6 2 12t2 10q0 12 -18 12q-19 0 -33.5 -11t-24 -28.5t-14 -37t-4.5 -35.5q0 -44 16.5 -74t44 -48t63.5 -26t75 -8q60 0 103 26t70.5 67.5t40.5 92.5t13 100v86h150v-897h-150zM910 1063q0 -90 -25.5 -155.5t-71 -107.5t-111 -62t-146.5 -20q-96 0 -177.5 37t-119 81
t-37.5 71q0 18 10 25.5t21 7.5q14 0 33.5 -19t51 -40t66.5 -31.5t75.5 -12.5t90.5 -2q105 0 153.5 60t48.5 168v337q0 47 -17 80.5t-45.5 54.5t-67 31t-80.5 10q-31 0 -66.5 -10t-65.5 -28.5t-49.5 -48t-19.5 -68.5v-246q0 -22 22.5 -35t42.5 -13q24 0 45 9.5t21 30.5
q0 14 -15 14q-42 0 -64.5 31t-22.5 85q0 48 24.5 84t86.5 36q25 0 44 -13.5t31 -34t18 -44.5t6 -45q0 -49 -19 -92.5t-51 -76t-76.5 -52t-93.5 -19.5q-135 0 -135 146v256q0 65 33.5 110.5t84.5 74t111 41.5t114 13q62 0 123.5 -13.5t110 -45t78.5 -84t30 -129.5v-346z
M1938 1165q0 -45 -9 -70t-25.5 -45t-42 -33t-58.5 -13q-42 0 -72 24t-30 59q0 37 27.5 65.5t64.5 28.5q10 0 17 -1.5t14 -1.5q13 0 13 14q0 39 -32 59t-74 20q-53 0 -86.5 -15t-50 -42t-20.5 -53t-4 -59q0 -48 36 -101.5t91 -88t118.5 -55.5t120.5 -21q8 -13 20 -27t12 -26
q0 -24 -14 -41.5t-39 -31.5q-55 9 -115 19.5t-117 10.5q-58 0 -151.5 -12.5t-154.5 -12.5q-63 0 -111 20t-79.5 54.5t-47.5 79.5t-16 95v150q0 94 28.5 165.5t86.5 124t146 85.5t161 51t110 28.5t70 24.5t55.5 33t22.5 46v48q0 10 0.5 20t6.5 16t19 9.5t38 3.5q35 0 53 -9.5
t18 -42.5v-39q0 -60 -30 -98.5t-79 -64t-111 -42t-125 -32t-122 -35t-106.5 -55.5t-77 -92.5t-29.5 -146.5v-141q0 -60 40 -101t118 -41q49 0 119 9.5t121 11.5q-54 13 -97 42.5t-72 66t-44 76.5t-15 74q0 55 18 102t52.5 81.5t84.5 58.5t115 24q112 0 163.5 -45t64 -87.5
t12.5 -77.5z" />
    <glyph glyph-name="uni19EF" unicode="&#x19ef;" horiz-adv-x="2101" 
d="M1284 -255v525q-14 -38 -42.5 -64t-64.5 -43.5t-75.5 -25t-75.5 -7.5q-63 0 -116.5 18t-92.5 52.5t-60.5 85t-21.5 116.5q0 48 18 93t48.5 79.5t72.5 54.5t90 20q35 0 70 -6.5t63.5 -24t46.5 -46t18 -70.5q0 -43 -30 -72.5t-73 -29.5q-44 0 -77.5 29.5t-33.5 74.5
q0 6 2 12t2 10q0 12 -18 12q-19 0 -33.5 -11t-24 -28.5t-14 -37t-4.5 -35.5q0 -44 16.5 -74t44 -48t63.5 -26t75 -8q60 0 103 26t70.5 67.5t40.5 92.5t13 100v86h150v-897h-150zM910 1063q0 -90 -25.5 -155.5t-71 -107.5t-111 -62t-146.5 -20q-96 0 -177.5 37t-119 81
t-37.5 71q0 18 10 25.5t21 7.5q14 0 33.5 -19t51 -40t66.5 -31.5t75.5 -12.5t90.5 -2q105 0 153.5 60t48.5 168v337q0 47 -17 80.5t-45.5 54.5t-67 31t-80.5 10q-31 0 -66.5 -10t-65.5 -28.5t-49.5 -48t-19.5 -68.5v-246q0 -22 22.5 -35t42.5 -13q24 0 45 9.5t21 30.5
q0 14 -15 14q-42 0 -64.5 31t-22.5 85q0 48 24.5 84t86.5 36q25 0 44 -13.5t31 -34t18 -44.5t6 -45q0 -49 -19 -92.5t-51 -76t-76.5 -52t-93.5 -19.5q-135 0 -135 146v256q0 65 33.5 110.5t84.5 74t111 41.5t114 13q62 0 123.5 -13.5t110 -45t78.5 -84t30 -129.5v-346z
M1540 1523q0 26 -21.5 39.5t-56.5 13.5q-33 0 -56 -15t-23 -41q0 -28 24 -41t55 -13q35 0 56.5 15t21.5 42zM1908 1576q0 -72 -11.5 -115t-35.5 -66t-61.5 -29.5t-79.5 -7t-54 -0.5q-69 0 -140 -14t-128 -44t-94 -76.5t-37 -109.5v-159q0 -23 10 -47t28.5 -44t45 -33
t59.5 -13q19 0 49 3t61.5 7t62.5 8.5t52 7.5q-36 13 -69 36.5t-58 52.5t-40 62t-15 66q0 38 16.5 75.5t46.5 66.5t73 47t97 18q55 0 97 -15t68.5 -36t41.5 -50t15 -64q0 -28 -7.5 -56t-23.5 -50.5t-40.5 -36t-60.5 -13.5t-59 23.5t-23 56.5q0 34 23 61t58 27q7 0 15.5 -1.5
t15.5 -1.5q13 0 13 15q0 18 -10.5 29.5t-26 18t-36 9.5t-39.5 3q-68 0 -94 -35t-26 -80q0 -48 33.5 -85.5t84.5 -65.5t110.5 -49.5t123.5 -35.5q15 -21 27 -34.5t12 -31.5q0 -51 -70 -70q-56 15 -119.5 28.5t-123.5 13.5q-44 0 -85 -6t-81 -13t-76 -13t-67 -6
q-57 0 -100 23.5t-71.5 60t-42.5 81t-14 86.5v190q0 44 21 83t54.5 71.5t80.5 56t96 33.5q-56 20 -79 54.5t-23 81.5q0 30 15 55.5t40.5 43.5t60 28.5t74.5 10.5q84 0 130 -34.5t46 -91.5q0 -20 -6 -45.5t-14 -43.5h77q21 0 35 9t22.5 22.5t12 30t3.5 30.5v162q0 21 23.5 42
t63.5 21q26 0 40 -6t21.5 -17.5t7.5 -26.5q0 -20 -11 -31t-11 -23v-85z" />
    <glyph glyph-name="uni19F0" unicode="&#x19f0;" horiz-adv-x="1197" 
d="M1101 1770q0 -22 -10 -35.5t-22.5 -18.5t-22.5 -12t-10 -23v-183q0 -32 -20 -54.5t-53 -22.5h-74q0 17 -21.5 41.5t-60 47t-92.5 39t-118 16.5q-47 0 -89.5 -15t-75.5 -42.5t-52.5 -67.5t-19.5 -89v-361q0 -27 7.5 -49.5t30 -36.5t49.5 -14q15 0 28 6l121 162h50
l121 -162q26 -6 46 -6q33 0 61.5 28.5t28.5 82.5v245q0 9 -9.5 14t-26.5 5q-35 0 -59 -21.5t-24 -47.5q0 -7 2.5 -11.5t9.5 -4.5q96 0 96 -80q0 -36 -24.5 -58.5t-63.5 -22.5q-26 0 -46 11.5t-31.5 28t-18 38t-6.5 39.5q0 42 16.5 79t45.5 65.5t71 45t93 16.5q44 0 76 -16
t32 -43v-291q0 -46 -6.5 -83t-29.5 -62q-31 -35 -75.5 -52t-75.5 -17h-133l-95 145l-95 -145h-115q-27 0 -60 11t-61 36t-47.5 64t-19.5 96v369q0 73 30 132.5t82 101.5t118.5 64.5t141.5 22.5q126 0 197.5 -26.5t110.5 -69.5v136q0 63 30.5 89.5t97.5 26.5q36 0 53 -18.5
t17 -42.5zM1101 646q0 -22 -10 -35.5t-22.5 -18.5t-22.5 -12t-10 -23v-183q0 -32 -20 -54.5t-53 -22.5h-74q0 17 -21.5 41.5t-60 47t-92.5 39t-118 16.5q-47 0 -89.5 -15t-75.5 -42.5t-52.5 -67.5t-19.5 -89v-361q0 -27 7.5 -49.5t30 -36.5t49.5 -14q15 0 28 6l121 162h50
l121 -162q26 -6 46 -6q33 0 61.5 28.5t28.5 82.5v245q0 9 -9.5 14t-26.5 5q-35 0 -59 -21.5t-24 -47.5q0 -7 2.5 -11.5t9.5 -4.5q96 0 96 -80q0 -36 -24.5 -58.5t-63.5 -22.5q-26 0 -46 11.5t-31.5 28t-18 38t-6.5 39.5q0 42 16.5 79t45.5 65.5t71 45t93 16.5q44 0 76 -16
t32 -43v-291q0 -46 -6.5 -83t-29.5 -62q-31 -35 -75.5 -52t-75.5 -17h-133l-95 145l-95 -145h-115q-27 0 -60 11t-61 36t-47.5 64t-19.5 96v369q0 73 30 132.5t82 101.5t118.5 64.5t141.5 22.5q126 0 197.5 -26.5t110.5 -69.5v136q0 63 30.5 89.5t97.5 26.5q36 0 53 -18.5
t17 -42.5z" />
    <glyph glyph-name="uni19F1" unicode="&#x19f1;" horiz-adv-x="1126" 
d="M774 719v525q-14 -38 -42.5 -64t-64.5 -43.5t-75.5 -25t-75.5 -7.5q-63 0 -116.5 18t-92.5 52.5t-60.5 85t-21.5 116.5q0 48 18 93t48.5 79.5t72.5 54.5t90 20q35 0 70 -6.5t63.5 -24t46.5 -46t18 -70.5q0 -43 -30 -72.5t-73 -29.5q-44 0 -77.5 29.5t-33.5 74.5q0 6 2 12
t2 10q0 12 -18 12q-19 0 -33.5 -11t-24 -28.5t-14 -37t-4.5 -35.5q0 -44 16.5 -74t44 -48t63.5 -26t75 -8q60 0 103 26t70.5 67.5t40.5 92.5t13 100v86h150v-897h-150zM910 -1q0 -90 -25.5 -155.5t-71 -107.5t-111 -62t-146.5 -20q-96 0 -177.5 37t-119 81t-37.5 71
q0 18 10 25.5t21 7.5q14 0 33.5 -19t51 -40t66.5 -31.5t75.5 -12.5t90.5 -2q105 0 153.5 60t48.5 168v337q0 47 -17 80.5t-45.5 54.5t-67 31t-80.5 10q-31 0 -66.5 -10t-65.5 -28.5t-49.5 -48t-19.5 -68.5v-246q0 -22 22.5 -35t42.5 -13q24 0 45 9.5t21 30.5q0 14 -15 14
q-42 0 -64.5 31t-22.5 85q0 48 24.5 84t86.5 36q25 0 44 -13.5t31 -34t18 -44.5t6 -45q0 -49 -19 -92.5t-51 -76t-76.5 -52t-93.5 -19.5q-135 0 -135 146v256q0 65 33.5 110.5t84.5 74t111 41.5t114 13q62 0 123.5 -13.5t110 -45t78.5 -84t30 -129.5v-346z" />
    <glyph glyph-name="uni19F2" unicode="&#x19f2;" horiz-adv-x="1126" 
d="M774 719v525q-14 -38 -42.5 -64t-64.5 -43.5t-75.5 -25t-75.5 -7.5q-63 0 -116.5 18t-92.5 52.5t-60.5 85t-21.5 116.5q0 48 18 93t48.5 79.5t72.5 54.5t90 20q35 0 70 -6.5t63.5 -24t46.5 -46t18 -70.5q0 -43 -30 -72.5t-73 -29.5q-44 0 -77.5 29.5t-33.5 74.5q0 6 2 12
t2 10q0 12 -18 12q-19 0 -33.5 -11t-24 -28.5t-14 -37t-4.5 -35.5q0 -44 16.5 -74t44 -48t63.5 -26t75 -8q60 0 103 26t70.5 67.5t40.5 92.5t13 100v86h150v-897h-150zM1014 -240q0 -22 -11.5 -41.5t-28.5 -34t-39 -22.5t-41 -8q-35 0 -68.5 9.5t-67.5 21t-64 21t-67 9.5
q-38 0 -68 -9.5t-60.5 -21t-61 -21t-68.5 -9.5q-74 0 -115 35t-41 107v750q0 48 -13.5 70t-29.5 33t-29.5 21t-13.5 34q0 27 19 39.5t43 12.5q63 0 100.5 -38t37.5 -103v-790q0 -32 11.5 -50t42.5 -18q27 0 57.5 13.5t56.5 25t57 22.5t66 11q33 0 67.5 -8t66.5 -18.5t62 -19
t56 -8.5q22 0 26 13t4 32v554q0 10 -11 24t-26 23.5t-30.5 15.5t-25.5 6q-7 0 -28 -13t-46 -28.5t-47.5 -30.5t-28.5 -20q-74 54 -156 87l-18 -21v-456q0 -10 14 -17t23 -7q32 0 46 14.5t14 23.5q0 7 -6 10t-22 3q-33 0 -47.5 26t-14.5 62q0 37 18 61.5t53 24.5
q40 0 62.5 -29t22.5 -70q0 -42 -13.5 -79.5t-37.5 -66t-58.5 -45t-76.5 -16.5q-12 0 -28.5 4t-30.5 11.5t-24.5 19.5t-10.5 28v546q10 9 30.5 25.5t42 32.5t42 28t29.5 12t36 -13.5t56 -31t54.5 -34t31.5 -22.5q11 8 37 24.5t55.5 33.5t55.5 30t37 13t29.5 -12.5t38.5 -26.5
t39.5 -29t33.5 -27v-708z" />
    <glyph glyph-name="uni19F3" unicode="&#x19f3;" horiz-adv-x="1422" 
d="M1182 -345v687q0 35 -13.5 63.5t-36 48t-52 30t-62.5 10.5q-18 0 -50 -4.5t-63.5 -15t-55 -28t-23.5 -42.5v-749h-121v749q0 25 -21 42.5t-51 27t-62.5 14t-56.5 4.5q-76 0 -120.5 -36.5t-44.5 -122.5v-568q0 -9 8.5 -14.5t15.5 -5.5q15 0 28.5 10t24 24t16.5 31.5
t6 32.5q0 3 -0.5 11t-6.5 8q-50 0 -66.5 25t-16.5 73q0 18 4.5 36t13.5 32t23.5 24t33.5 10q24 0 40 -12t25 -31t12 -40.5t3 -41.5q0 -39 -7 -87t-26 -91.5t-53 -72.5t-79 -29q-14 0 -34 2.5t-40.5 12t-31.5 26.5t-11 33v623q0 60 25.5 103.5t66.5 71.5t91.5 41.5t99.5 13.5
q27 0 61 -4t67.5 -12t65 -21t54.5 -31q54 41 124.5 55t137.5 14q56 0 105.5 -15.5t87.5 -45.5t60.5 -76t22.5 -106v-687h-118zM924 719v525q-14 -38 -42.5 -64t-64.5 -43.5t-75.5 -25t-75.5 -7.5q-63 0 -116.5 18t-92.5 52.5t-60.5 85t-21.5 116.5q0 48 18 93t48.5 79.5
t72.5 54.5t90 20q35 0 70 -6.5t63.5 -24t46.5 -46t18 -70.5q0 -43 -30 -72.5t-73 -29.5q-44 0 -77.5 29.5t-33.5 74.5q0 6 2 12t2 10q0 12 -18 12q-19 0 -33.5 -11t-24 -28.5t-14 -37t-4.5 -35.5q0 -44 16.5 -74t44 -48t63.5 -26t75 -8q60 0 103 26t70.5 67.5t40.5 92.5
t13 100v86h150v-897h-150z" />
    <glyph glyph-name="uni19F4" unicode="&#x19f4;" horiz-adv-x="1126" 
d="M685 719v525q-14 -38 -42.5 -64t-64.5 -43.5t-75.5 -25t-75.5 -7.5q-63 0 -116.5 18t-92.5 52.5t-60.5 85t-21.5 116.5q0 48 18 93t48.5 79.5t72.5 54.5t90 20q35 0 70 -6.5t63.5 -24t46.5 -46t18 -70.5q0 -43 -30 -72.5t-73 -29.5q-44 0 -77.5 29.5t-33.5 74.5q0 6 2 12
t2 10q0 12 -18 12q-19 0 -33.5 -11t-24 -28.5t-14 -37t-4.5 -35.5q0 -44 16.5 -74t44 -48t63.5 -26t75 -8q60 0 103 26t70.5 67.5t40.5 92.5t13 100v86h150v-897h-150zM1038 101q0 -45 -9 -70t-25.5 -45t-42 -33t-58.5 -13q-42 0 -72 24t-30 59q0 37 27.5 65.5t64.5 28.5
q10 0 17 -1.5t14 -1.5q13 0 13 14q0 39 -32 59t-74 20q-53 0 -86.5 -15t-50 -42t-20.5 -53t-4 -59q0 -48 36 -101.5t91 -88t118.5 -55.5t120.5 -21q8 -13 20 -27t12 -26q0 -24 -14 -41.5t-39 -31.5q-55 9 -115 19.5t-117 10.5q-58 0 -151.5 -12.5t-154.5 -12.5
q-63 0 -111 20t-79.5 54.5t-47.5 79.5t-16 95v150q0 94 28.5 165.5t86.5 124t146 85.5t161 51t110 28.5t70 24.5t55.5 33t22.5 46v48q0 10 0.5 20t6.5 16t19 9.5t38 3.5q35 0 53 -9.5t18 -42.5v-39q0 -60 -30 -98.5t-79 -64t-111 -42t-125 -32t-122 -35t-106.5 -55.5
t-77 -92.5t-29.5 -146.5v-141q0 -60 40 -101t118 -41q49 0 119 9.5t121 11.5q-54 13 -97 42.5t-72 66t-44 76.5t-15 74q0 55 18 102t52.5 81.5t84.5 58.5t115 24q112 0 163.5 -45t64 -87.5t12.5 -77.5z" />
    <glyph glyph-name="uni19F5" unicode="&#x19f5;" horiz-adv-x="1126" 
d="M700 719v525q-14 -38 -42.5 -64t-64.5 -43.5t-75.5 -25t-75.5 -7.5q-63 0 -116.5 18t-92.5 52.5t-60.5 85t-21.5 116.5q0 48 18 93t48.5 79.5t72.5 54.5t90 20q35 0 70 -6.5t63.5 -24t46.5 -46t18 -70.5q0 -43 -30 -72.5t-73 -29.5q-44 0 -77.5 29.5t-33.5 74.5q0 6 2 12
t2 10q0 12 -18 12q-19 0 -33.5 -11t-24 -28.5t-14 -37t-4.5 -35.5q0 -44 16.5 -74t44 -48t63.5 -26t75 -8q60 0 103 26t70.5 67.5t40.5 92.5t13 100v86h150v-897h-150zM640 474q0 26 -21.5 39.5t-56.5 13.5q-33 0 -56 -15t-23 -41q0 -28 24 -41t55 -13q35 0 56.5 15t21.5 42
zM1008 527q0 -72 -11.5 -115t-35.5 -66t-61.5 -29.5t-79.5 -7t-54 -0.5q-69 0 -140 -14t-128 -44t-94 -76.5t-37 -109.5v-159q0 -23 10 -47t28.5 -44t45 -33t59.5 -13q19 0 49 3t61.5 7t62.5 8.5t52 7.5q-36 13 -69 36.5t-58 52.5t-40 62t-15 66q0 38 16.5 75.5t46.5 66.5
t73 47t97 18q55 0 97 -15t68.5 -36t41.5 -50t15 -64q0 -28 -7.5 -56t-23.5 -50.5t-40.5 -36t-60.5 -13.5t-59 23.5t-23 56.5q0 34 23 61t58 27q7 0 15.5 -1.5t15.5 -1.5q13 0 13 15q0 18 -10.5 29.5t-26 18t-36 9.5t-39.5 3q-68 0 -94 -35t-26 -80q0 -48 33.5 -85.5
t84.5 -65.5t110.5 -49.5t123.5 -35.5q15 -21 27 -34.5t12 -31.5q0 -51 -70 -70q-56 15 -119.5 28.5t-123.5 13.5q-44 0 -85 -6t-81 -13t-76 -13t-67 -6q-57 0 -100 23.5t-71.5 60t-42.5 81t-14 86.5v190q0 44 21 83t54.5 71.5t80.5 56t96 33.5q-56 20 -79 54.5t-23 81.5
q0 30 15 55.5t40.5 43.5t60 28.5t74.5 10.5q84 0 130 -34.5t46 -91.5q0 -20 -6 -45.5t-14 -43.5h77q21 0 35 9t22.5 22.5t12 30t3.5 30.5v162q0 21 23.5 42t63.5 21q26 0 40 -6t21.5 -17.5t7.5 -26.5q0 -20 -11 -31t-11 -23v-85z" />
    <glyph glyph-name="uni19F6" unicode="&#x19f6;" horiz-adv-x="1047" 
d="M903 -106q0 -68 -22 -113.5t-63 -73.5t-100.5 -40.5t-132.5 -12.5q-57 0 -120 7.5t-117 30t-89.5 63.5t-35.5 109v186q0 28 12 53.5t33 44.5t49.5 30t63.5 11q48 0 87.5 -14t69 -39.5t45 -61t15.5 -77.5q0 -22 -6 -46t-19.5 -44.5t-34.5 -33t-51 -12.5q-57 0 -84 26
t-27 68q0 38 18 57t41 27.5t42 11.5t19 11q0 24 -24.5 36t-50.5 12q-63 0 -63 -56v-190q0 -35 22.5 -55t55.5 -31.5t71.5 -15t69.5 -3.5q92 0 141.5 33t49.5 106v351q0 95 -55 136t-154 41q-57 0 -103.5 -18t-80 -39.5t-78.5 -57.5q-44 0 -68.5 24.5t-27.5 60.5
q15 15 31.5 42t16.5 50q0 42 -10.5 64t-16.5 29.5t-14 18t-15 22.5t-7 31q0 24 23 40.5t58 16.5q60 0 89 -29t29 -73q0 -10 -3.5 -35t-23.5 -88q45 19 97.5 32t102.5 13q76 0 140 -14.5t109.5 -46.5t70.5 -84.5t25 -127.5v-363zM774 719v525q-14 -38 -42.5 -64t-64.5 -43.5
t-75.5 -25t-75.5 -7.5q-63 0 -116.5 18t-92.5 52.5t-60.5 85t-21.5 116.5q0 48 18 93t48.5 79.5t72.5 54.5t90 20q35 0 70 -6.5t63.5 -24t46.5 -46t18 -70.5q0 -43 -30 -72.5t-73 -29.5q-44 0 -77.5 29.5t-33.5 74.5q0 6 2 12t2 10q0 12 -18 12q-19 0 -33.5 -11t-24 -28.5
t-14 -37t-4.5 -35.5q0 -44 16.5 -74t44 -48t63.5 -26t75 -8q60 0 103 26t70.5 67.5t40.5 92.5t13 100v86h150v-897h-150z" />
    <glyph glyph-name="uni19F7" unicode="&#x19f7;" horiz-adv-x="1347" 
d="M1121 689.5q20 -15.5 33.5 -45t19 -76t5.5 -115.5v-628q0 -59 -18 -92.5t-47.5 -51.5t-66 -22.5t-72.5 -4.5q-35 0 -71.5 7.5t-66 25.5t-48 50t-18.5 82v507q0 10 -13.5 25t-31.5 28t-37 22t-29 9q-8 0 -26.5 -14t-39 -33t-65.5 -60q-39 33 -69.5 55.5t-78.5 43.5
l-21 -22v-599q0 -9 9.5 -15.5t18.5 -6.5q17 0 32.5 12t28.5 28.5t20.5 36t7.5 35.5q0 18 -16.5 20.5t-36 10t-36 29t-16.5 75.5q0 41 23 69.5t70 28.5q25 0 46 -12t36 -31t22 -41.5t7 -43.5q0 -61 -15 -119t-43.5 -102t-68.5 -71t-89 -27q-18 0 -44 4t-47 14.5t-33.5 32.5
t-12.5 43v653q11 10 34 34t49.5 49t50.5 43.5t36 18.5q10 0 35 -14t52 -33.5t51 -39t34 -30.5q11 11 32 30.5t45 39t45.5 33.5t33.5 14t34.5 -12t48 -28.5t53.5 -36t50 -34.5v-653q0 -22 16.5 -38.5t48.5 -16.5q42 0 57 17.5t15 38.5v664q0 48 -10.5 79t-60.5 47
q-37 11 -37 48q0 15 6.5 31t20 29.5t32.5 21.5t44 8t43.5 -4.5t38.5 -20zM700 719v525q-14 -38 -42.5 -64t-64.5 -43.5t-75.5 -25t-75.5 -7.5q-63 0 -116.5 18t-92.5 52.5t-60.5 85t-21.5 116.5q0 48 18 93t48.5 79.5t72.5 54.5t90 20q35 0 70 -6.5t63.5 -24t46.5 -46
t18 -70.5q0 -43 -30 -72.5t-73 -29.5q-44 0 -77.5 29.5t-33.5 74.5q0 6 2 12t2 10q0 12 -18 12q-19 0 -33.5 -11t-24 -28.5t-14 -37t-4.5 -35.5q0 -44 16.5 -74t44 -48t63.5 -26t75 -8q60 0 103 26t70.5 67.5t40.5 92.5t13 100v86h150v-897h-150z" />
    <glyph glyph-name="uni19F8" unicode="&#x19f8;" horiz-adv-x="1197" 
d="M1101 646q0 -22 -10 -35.5t-22.5 -18.5t-22.5 -12t-10 -23v-183q0 -32 -20 -54.5t-53 -22.5h-74q0 17 -21.5 41.5t-60 47t-92.5 39t-118 16.5q-47 0 -89.5 -15t-75.5 -42.5t-52.5 -67.5t-19.5 -89v-361q0 -27 7.5 -49.5t30 -36.5t49.5 -14q15 0 28 6l121 162h50l121 -162
q26 -6 46 -6q33 0 61.5 28.5t28.5 82.5v245q0 9 -9.5 14t-26.5 5q-35 0 -59 -21.5t-24 -47.5q0 -7 2.5 -11.5t9.5 -4.5q96 0 96 -80q0 -36 -24.5 -58.5t-63.5 -22.5q-26 0 -46 11.5t-31.5 28t-18 38t-6.5 39.5q0 42 16.5 79t45.5 65.5t71 45t93 16.5q44 0 76 -16t32 -43
v-291q0 -46 -6.5 -83t-29.5 -62q-31 -35 -75.5 -52t-75.5 -17h-133l-95 145l-95 -145h-115q-27 0 -60 11t-61 36t-47.5 64t-19.5 96v369q0 73 30 132.5t82 101.5t118.5 64.5t141.5 22.5q126 0 197.5 -26.5t110.5 -69.5v136q0 63 30.5 89.5t97.5 26.5q36 0 53 -18.5t17 -42.5
zM700 719v525q-14 -38 -42.5 -64t-64.5 -43.5t-75.5 -25t-75.5 -7.5q-63 0 -116.5 18t-92.5 52.5t-60.5 85t-21.5 116.5q0 48 18 93t48.5 79.5t72.5 54.5t90 20q35 0 70 -6.5t63.5 -24t46.5 -46t18 -70.5q0 -43 -30 -72.5t-73 -29.5q-44 0 -77.5 29.5t-33.5 74.5q0 6 2 12
t2 10q0 12 -18 12q-19 0 -33.5 -11t-24 -28.5t-14 -37t-4.5 -35.5q0 -44 16.5 -74t44 -48t63.5 -26t75 -8q60 0 103 26t70.5 67.5t40.5 92.5t13 100v86h150v-897h-150z" />
    <glyph glyph-name="uni19F9" unicode="&#x19f9;" horiz-adv-x="1126" 
d="M700 719v525q-14 -38 -42.5 -64t-64.5 -43.5t-75.5 -25t-75.5 -7.5q-63 0 -116.5 18t-92.5 52.5t-60.5 85t-21.5 116.5q0 48 18 93t48.5 79.5t72.5 54.5t90 20q35 0 70 -6.5t63.5 -24t46.5 -46t18 -70.5q0 -43 -30 -72.5t-73 -29.5q-44 0 -77.5 29.5t-33.5 74.5q0 6 2 12
t2 10q0 12 -18 12q-19 0 -33.5 -11t-24 -28.5t-14 -37t-4.5 -35.5q0 -44 16.5 -74t44 -48t63.5 -26t75 -8q60 0 103 26t70.5 67.5t40.5 92.5t13 100v86h150v-897h-150zM1113 690q0 -25 -11.5 -34t-24 -19t-24 -30t-11.5 -71v-144q0 -33 -36 -37.5t-88 -4.5q-11 9 -25 21
t-44 33t-65.5 37.5t-98.5 16.5q-33 0 -66.5 -3t-61.5 -15t-46 -37.5t-18 -59.5t33 -55.5t107 -21.5h319q29 0 41.5 -15t12.5 -45q0 -25 -12 -42t-37 -17h-324q-27 0 -57.5 -10.5t-49.5 -30.5t-26 -45.5t-7 -42.5v-118q0 -42 18 -71.5t47.5 -47.5t68.5 -26t81 -8q30 0 64.5 5
t63.5 19.5t48.5 41.5t19.5 72v91q0 36 -16.5 58t-58.5 22q-36 0 -57 -12t-21 -33q0 -11 18 -13.5t39 -8.5t39 -20t18 -52q0 -37 -23 -61t-73 -24q-63 0 -90 36t-27 80q0 82 54 133t151 51q30 0 60.5 -6t60 -21t47 -39t17.5 -54v-171q0 -22 -7.5 -46t-27 -47t-53 -42
t-73.5 -31t-83.5 -16.5t-86.5 -4.5q-75 0 -140.5 12t-112.5 41t-74 78t-27 124v145q0 20 9.5 44t29 44.5t45 35.5t52.5 22q-25 3 -48.5 15t-43.5 29.5t-32 41t-12 55.5q0 55 30 98t77 69t105.5 37.5t115.5 11.5q32 0 65 -7t60.5 -16.5t51.5 -23t42 -27.5v122q0 45 12 72.5
t31.5 44t43.5 22.5t49 6q31 0 52 -16.5t21 -43.5z" />
    <glyph glyph-name="uni19FA" unicode="&#x19fa;" horiz-adv-x="1950" 
d="M1119 719v525q-14 -38 -42.5 -64t-64.5 -43.5t-75.5 -25t-75.5 -7.5q-63 0 -116.5 18t-92.5 52.5t-60.5 85t-21.5 116.5q0 48 18 93t48.5 79.5t72.5 54.5t90 20q35 0 70 -6.5t63.5 -24t46.5 -46t18 -70.5q0 -43 -30 -72.5t-73 -29.5q-44 0 -77.5 29.5t-33.5 74.5
q0 6 2 12t2 10q0 12 -18 12q-19 0 -33.5 -11t-24 -28.5t-14 -37t-4.5 -35.5q0 -44 16.5 -74t44 -48t63.5 -26t75 -8q60 0 103 26t70.5 67.5t40.5 92.5t13 100v86h150v-897h-150zM910 -1q0 -90 -25.5 -155.5t-71 -107.5t-111 -62t-146.5 -20q-96 0 -177.5 37t-119 81
t-37.5 71q0 18 10 25.5t21 7.5q14 0 33.5 -19t51 -40t66.5 -31.5t75.5 -12.5t90.5 -2q105 0 153.5 60t48.5 168v337q0 47 -17 80.5t-45.5 54.5t-67 31t-80.5 10q-31 0 -66.5 -10t-65.5 -28.5t-49.5 -48t-19.5 -68.5v-246q0 -22 22.5 -35t42.5 -13q24 0 45 9.5t21 30.5
q0 14 -15 14q-42 0 -64.5 31t-22.5 85q0 48 24.5 84t86.5 36q25 0 44 -13.5t31 -34t18 -44.5t6 -45q0 -49 -19 -92.5t-51 -76t-76.5 -52t-93.5 -19.5q-135 0 -135 146v256q0 65 33.5 110.5t84.5 74t111 41.5t114 13q62 0 123.5 -13.5t110 -45t78.5 -84t30 -129.5v-346z
M1659 318q0 47 -16.5 82t-45 57.5t-67 34t-80.5 11.5q-31 0 -67 -11.5t-65.5 -33t-49 -52.5t-19.5 -71v-384q0 -45 19 -79.5t49.5 -58t67.5 -35.5t73 -12q42 0 78.5 11.5t63.5 34t43 57t16 82.5v367zM1797 -57q0 -79 -22.5 -134.5t-65.5 -90t-105 -49.5t-142 -15
q-76 0 -140.5 16.5t-111 51t-72 87t-25.5 122.5v423q0 74 31.5 124t81 81t109.5 44.5t117 13.5q64 0 125.5 -16t110.5 -49.5t79 -87t30 -128.5v-393z" />
    <glyph glyph-name="uni19FB" unicode="&#x19fb;" horiz-adv-x="1950" 
d="M1209 719v525q-14 -38 -42.5 -64t-64.5 -43.5t-75.5 -25t-75.5 -7.5q-63 0 -116.5 18t-92.5 52.5t-60.5 85t-21.5 116.5q0 48 18 93t48.5 79.5t72.5 54.5t90 20q35 0 70 -6.5t63.5 -24t46.5 -46t18 -70.5q0 -43 -30 -72.5t-73 -29.5q-44 0 -77.5 29.5t-33.5 74.5
q0 6 2 12t2 10q0 12 -18 12q-19 0 -33.5 -11t-24 -28.5t-14 -37t-4.5 -35.5q0 -44 16.5 -74t44 -48t63.5 -26t75 -8q60 0 103 26t70.5 67.5t40.5 92.5t13 100v86h150v-897h-150zM910 -1q0 -90 -25.5 -155.5t-71 -107.5t-111 -62t-146.5 -20q-96 0 -177.5 37t-119 81
t-37.5 71q0 18 10 25.5t21 7.5q14 0 33.5 -19t51 -40t66.5 -31.5t75.5 -12.5t90.5 -2q105 0 153.5 60t48.5 168v337q0 47 -17 80.5t-45.5 54.5t-67 31t-80.5 10q-31 0 -66.5 -10t-65.5 -28.5t-49.5 -48t-19.5 -68.5v-246q0 -22 22.5 -35t42.5 -13q24 0 45 9.5t21 30.5
q0 14 -15 14q-42 0 -64.5 31t-22.5 85q0 48 24.5 84t86.5 36q25 0 44 -13.5t31 -34t18 -44.5t6 -45q0 -49 -19 -92.5t-51 -76t-76.5 -52t-93.5 -19.5q-135 0 -135 146v256q0 65 33.5 110.5t84.5 74t111 41.5t114 13q62 0 123.5 -13.5t110 -45t78.5 -84t30 -129.5v-346z
M1810 -1q0 -90 -25.5 -155.5t-71 -107.5t-111 -62t-146.5 -20q-96 0 -177.5 37t-119 81t-37.5 71q0 18 10 25.5t21 7.5q14 0 33.5 -19t51 -40t66.5 -31.5t75.5 -12.5t90.5 -2q105 0 153.5 60t48.5 168v337q0 47 -17 80.5t-45.5 54.5t-67 31t-80.5 10q-31 0 -66.5 -10
t-65.5 -28.5t-49.5 -48t-19.5 -68.5v-246q0 -22 22.5 -35t42.5 -13q24 0 45 9.5t21 30.5q0 14 -15 14q-42 0 -64.5 31t-22.5 85q0 48 24.5 84t86.5 36q25 0 44 -13.5t31 -34t18 -44.5t6 -45q0 -49 -19 -92.5t-51 -76t-76.5 -52t-93.5 -19.5q-135 0 -135 146v256
q0 65 33.5 110.5t84.5 74t111 41.5t114 13q62 0 123.5 -13.5t110 -45t78.5 -84t30 -129.5v-346z" />
    <glyph glyph-name="uni19FC" unicode="&#x19fc;" horiz-adv-x="2100" 
d="M1299 719v525q-14 -38 -42.5 -64t-64.5 -43.5t-75.5 -25t-75.5 -7.5q-63 0 -116.5 18t-92.5 52.5t-60.5 85t-21.5 116.5q0 48 18 93t48.5 79.5t72.5 54.5t90 20q35 0 70 -6.5t63.5 -24t46.5 -46t18 -70.5q0 -43 -30 -72.5t-73 -29.5q-44 0 -77.5 29.5t-33.5 74.5
q0 6 2 12t2 10q0 12 -18 12q-19 0 -33.5 -11t-24 -28.5t-14 -37t-4.5 -35.5q0 -44 16.5 -74t44 -48t63.5 -26t75 -8q60 0 103 26t70.5 67.5t40.5 92.5t13 100v86h150v-897h-150zM910 -1q0 -90 -25.5 -155.5t-71 -107.5t-111 -62t-146.5 -20q-96 0 -177.5 37t-119 81
t-37.5 71q0 18 10 25.5t21 7.5q14 0 33.5 -19t51 -40t66.5 -31.5t75.5 -12.5t90.5 -2q105 0 153.5 60t48.5 168v337q0 47 -17 80.5t-45.5 54.5t-67 31t-80.5 10q-31 0 -66.5 -10t-65.5 -28.5t-49.5 -48t-19.5 -68.5v-246q0 -22 22.5 -35t42.5 -13q24 0 45 9.5t21 30.5
q0 14 -15 14q-42 0 -64.5 31t-22.5 85q0 48 24.5 84t86.5 36q25 0 44 -13.5t31 -34t18 -44.5t6 -45q0 -49 -19 -92.5t-51 -76t-76.5 -52t-93.5 -19.5q-135 0 -135 146v256q0 65 33.5 110.5t84.5 74t111 41.5t114 13q62 0 123.5 -13.5t110 -45t78.5 -84t30 -129.5v-346z
M1944 -240q0 -22 -11.5 -41.5t-28.5 -34t-39 -22.5t-41 -8q-35 0 -68.5 9.5t-67.5 21t-64 21t-67 9.5q-38 0 -68 -9.5t-60.5 -21t-61 -21t-68.5 -9.5q-74 0 -115 35t-41 107v750q0 48 -13.5 70t-29.5 33t-29.5 21t-13.5 34q0 27 19 39.5t43 12.5q63 0 100.5 -38t37.5 -103
v-790q0 -32 11.5 -50t42.5 -18q27 0 57.5 13.5t56.5 25t57 22.5t66 11q33 0 67.5 -8t66.5 -18.5t62 -19t56 -8.5q22 0 26 13t4 32v554q0 10 -11 24t-26 23.5t-30.5 15.5t-25.5 6q-7 0 -28 -13t-46 -28.5t-47.5 -30.5t-28.5 -20q-74 54 -156 87l-18 -21v-456q0 -10 14 -17
t23 -7q32 0 46 14.5t14 23.5q0 7 -6 10t-22 3q-33 0 -47.5 26t-14.5 62q0 37 18 61.5t53 24.5q40 0 62.5 -29t22.5 -70q0 -42 -13.5 -79.5t-37.5 -66t-58.5 -45t-76.5 -16.5q-12 0 -28.5 4t-30.5 11.5t-24.5 19.5t-10.5 28v546q10 9 30.5 25.5t42 32.5t42 28t29.5 12
t36 -13.5t56 -31t54.5 -34t31.5 -22.5q11 8 37 24.5t55.5 33.5t55.5 30t37 13t29.5 -12.5t38.5 -26.5t39.5 -29t33.5 -27v-708z" />
    <glyph glyph-name="uni19FD" unicode="&#x19fd;" horiz-adv-x="2323" 
d="M1419 719v525q-14 -38 -42.5 -64t-64.5 -43.5t-75.5 -25t-75.5 -7.5q-63 0 -116.5 18t-92.5 52.5t-60.5 85t-21.5 116.5q0 48 18 93t48.5 79.5t72.5 54.5t90 20q35 0 70 -6.5t63.5 -24t46.5 -46t18 -70.5q0 -43 -30 -72.5t-73 -29.5q-44 0 -77.5 29.5t-33.5 74.5
q0 6 2 12t2 10q0 12 -18 12q-19 0 -33.5 -11t-24 -28.5t-14 -37t-4.5 -35.5q0 -44 16.5 -74t44 -48t63.5 -26t75 -8q60 0 103 26t70.5 67.5t40.5 92.5t13 100v86h150v-897h-150zM910 -1q0 -90 -25.5 -155.5t-71 -107.5t-111 -62t-146.5 -20q-96 0 -177.5 37t-119 81
t-37.5 71q0 18 10 25.5t21 7.5q14 0 33.5 -19t51 -40t66.5 -31.5t75.5 -12.5t90.5 -2q105 0 153.5 60t48.5 168v337q0 47 -17 80.5t-45.5 54.5t-67 31t-80.5 10q-31 0 -66.5 -10t-65.5 -28.5t-49.5 -48t-19.5 -68.5v-246q0 -22 22.5 -35t42.5 -13q24 0 45 9.5t21 30.5
q0 14 -15 14q-42 0 -64.5 31t-22.5 85q0 48 24.5 84t86.5 36q25 0 44 -13.5t31 -34t18 -44.5t6 -45q0 -49 -19 -92.5t-51 -76t-76.5 -52t-93.5 -19.5q-135 0 -135 146v256q0 65 33.5 110.5t84.5 74t111 41.5t114 13q62 0 123.5 -13.5t110 -45t78.5 -84t30 -129.5v-346z
M2082 -345v687q0 35 -13.5 63.5t-36 48t-52 30t-62.5 10.5q-18 0 -50 -4.5t-63.5 -15t-55 -28t-23.5 -42.5v-749h-121v749q0 25 -21 42.5t-51 27t-62.5 14t-56.5 4.5q-76 0 -120.5 -36.5t-44.5 -122.5v-568q0 -9 8.5 -14.5t15.5 -5.5q15 0 28.5 10t24 24t16.5 31.5t6 32.5
q0 3 -0.5 11t-6.5 8q-50 0 -66.5 25t-16.5 73q0 18 4.5 36t13.5 32t23.5 24t33.5 10q24 0 40 -12t25 -31t12 -40.5t3 -41.5q0 -39 -7 -87t-26 -91.5t-53 -72.5t-79 -29q-14 0 -34 2.5t-40.5 12t-31.5 26.5t-11 33v623q0 60 25.5 103.5t66.5 71.5t91.5 41.5t99.5 13.5
q27 0 61 -4t67.5 -12t65 -21t54.5 -31q54 41 124.5 55t137.5 14q56 0 105.5 -15.5t87.5 -45.5t60.5 -76t22.5 -106v-687h-118z" />
    <glyph glyph-name="uni19FE" unicode="&#x19fe;" horiz-adv-x="2100" 
d="M1284 719v525q-14 -38 -42.5 -64t-64.5 -43.5t-75.5 -25t-75.5 -7.5q-63 0 -116.5 18t-92.5 52.5t-60.5 85t-21.5 116.5q0 48 18 93t48.5 79.5t72.5 54.5t90 20q35 0 70 -6.5t63.5 -24t46.5 -46t18 -70.5q0 -43 -30 -72.5t-73 -29.5q-44 0 -77.5 29.5t-33.5 74.5
q0 6 2 12t2 10q0 12 -18 12q-19 0 -33.5 -11t-24 -28.5t-14 -37t-4.5 -35.5q0 -44 16.5 -74t44 -48t63.5 -26t75 -8q60 0 103 26t70.5 67.5t40.5 92.5t13 100v86h150v-897h-150zM910 -1q0 -90 -25.5 -155.5t-71 -107.5t-111 -62t-146.5 -20q-96 0 -177.5 37t-119 81
t-37.5 71q0 18 10 25.5t21 7.5q14 0 33.5 -19t51 -40t66.5 -31.5t75.5 -12.5t90.5 -2q105 0 153.5 60t48.5 168v337q0 47 -17 80.5t-45.5 54.5t-67 31t-80.5 10q-31 0 -66.5 -10t-65.5 -28.5t-49.5 -48t-19.5 -68.5v-246q0 -22 22.5 -35t42.5 -13q24 0 45 9.5t21 30.5
q0 14 -15 14q-42 0 -64.5 31t-22.5 85q0 48 24.5 84t86.5 36q25 0 44 -13.5t31 -34t18 -44.5t6 -45q0 -49 -19 -92.5t-51 -76t-76.5 -52t-93.5 -19.5q-135 0 -135 146v256q0 65 33.5 110.5t84.5 74t111 41.5t114 13q62 0 123.5 -13.5t110 -45t78.5 -84t30 -129.5v-346z
M1938 101q0 -45 -9 -70t-25.5 -45t-42 -33t-58.5 -13q-42 0 -72 24t-30 59q0 37 27.5 65.5t64.5 28.5q10 0 17 -1.5t14 -1.5q13 0 13 14q0 39 -32 59t-74 20q-53 0 -86.5 -15t-50 -42t-20.5 -53t-4 -59q0 -48 36 -101.5t91 -88t118.5 -55.5t120.5 -21q8 -13 20 -27t12 -26
q0 -24 -14 -41.5t-39 -31.5q-55 9 -115 19.5t-117 10.5q-58 0 -151.5 -12.5t-154.5 -12.5q-63 0 -111 20t-79.5 54.5t-47.5 79.5t-16 95v150q0 94 28.5 165.5t86.5 124t146 85.5t161 51t110 28.5t70 24.5t55.5 33t22.5 46v48q0 10 0.5 20t6.5 16t19 9.5t38 3.5q35 0 53 -9.5
t18 -42.5v-39q0 -60 -30 -98.5t-79 -64t-111 -42t-125 -32t-122 -35t-106.5 -55.5t-77 -92.5t-29.5 -146.5v-141q0 -60 40 -101t118 -41q49 0 119 9.5t121 11.5q-54 13 -97 42.5t-72 66t-44 76.5t-15 74q0 55 18 102t52.5 81.5t84.5 58.5t115 24q112 0 163.5 -45t64 -87.5
t12.5 -77.5z" />
    <glyph glyph-name="uni19FF" unicode="&#x19ff;" horiz-adv-x="2100" 
d="M1119 719v525q-14 -38 -42.5 -64t-64.5 -43.5t-75.5 -25t-75.5 -7.5q-63 0 -116.5 18t-92.5 52.5t-60.5 85t-21.5 116.5q0 48 18 93t48.5 79.5t72.5 54.5t90 20q35 0 70 -6.5t63.5 -24t46.5 -46t18 -70.5q0 -43 -30 -72.5t-73 -29.5q-44 0 -77.5 29.5t-33.5 74.5
q0 6 2 12t2 10q0 12 -18 12q-19 0 -33.5 -11t-24 -28.5t-14 -37t-4.5 -35.5q0 -44 16.5 -74t44 -48t63.5 -26t75 -8q60 0 103 26t70.5 67.5t40.5 92.5t13 100v86h150v-897h-150zM910 -1q0 -90 -25.5 -155.5t-71 -107.5t-111 -62t-146.5 -20q-96 0 -177.5 37t-119 81
t-37.5 71q0 18 10 25.5t21 7.5q14 0 33.5 -19t51 -40t66.5 -31.5t75.5 -12.5t90.5 -2q105 0 153.5 60t48.5 168v337q0 47 -17 80.5t-45.5 54.5t-67 31t-80.5 10q-31 0 -66.5 -10t-65.5 -28.5t-49.5 -48t-19.5 -68.5v-246q0 -22 22.5 -35t42.5 -13q24 0 45 9.5t21 30.5
q0 14 -15 14q-42 0 -64.5 31t-22.5 85q0 48 24.5 84t86.5 36q25 0 44 -13.5t31 -34t18 -44.5t6 -45q0 -49 -19 -92.5t-51 -76t-76.5 -52t-93.5 -19.5q-135 0 -135 146v256q0 65 33.5 110.5t84.5 74t111 41.5t114 13q62 0 123.5 -13.5t110 -45t78.5 -84t30 -129.5v-346z
M1540 459q0 26 -21.5 39.5t-56.5 13.5q-33 0 -56 -15t-23 -41q0 -28 24 -41t55 -13q35 0 56.5 15t21.5 42zM1908 512q0 -72 -11.5 -115t-35.5 -66t-61.5 -29.5t-79.5 -7t-54 -0.5q-69 0 -140 -14t-128 -44t-94 -76.5t-37 -109.5v-159q0 -23 10 -47t28.5 -44t45 -33t59.5 -13
q19 0 49 3t61.5 7t62.5 8.5t52 7.5q-36 13 -69 36.5t-58 52.5t-40 62t-15 66q0 38 16.5 75.5t46.5 66.5t73 47t97 18q55 0 97 -15t68.5 -36t41.5 -50t15 -64q0 -28 -7.5 -56t-23.5 -50.5t-40.5 -36t-60.5 -13.5t-59 23.5t-23 56.5q0 34 23 61t58 27q7 0 15.5 -1.5t15.5 -1.5
q13 0 13 15q0 18 -10.5 29.5t-26 18t-36 9.5t-39.5 3q-68 0 -94 -35t-26 -80q0 -48 33.5 -85.5t84.5 -65.5t110.5 -49.5t123.5 -35.5q15 -21 27 -34.5t12 -31.5q0 -51 -70 -70q-56 15 -119.5 28.5t-123.5 13.5q-44 0 -85 -6t-81 -13t-76 -13t-67 -6q-57 0 -100 23.5
t-71.5 60t-42.5 81t-14 86.5v190q0 44 21 83t54.5 71.5t80.5 56t96 33.5q-56 20 -79 54.5t-23 81.5q0 30 15 55.5t40.5 43.5t60 28.5t74.5 10.5q84 0 130 -34.5t46 -91.5q0 -20 -6 -45.5t-14 -43.5h77q21 0 35 9t22.5 22.5t12 30t3.5 30.5v162q0 21 23.5 42t63.5 21
q26 0 40 -6t21.5 -17.5t7.5 -26.5q0 -20 -11 -31t-11 -23v-85z" />
    <glyph glyph-name="uni200A" unicode="&#x200a;" horiz-adv-x="256" 
 />
    <glyph glyph-name="uni200B" unicode="&#x200b;" 
 />
    <glyph glyph-name="uni200C" unicode="&#x200c;" horiz-adv-x="66" 
d="M0 253v1341h66v-1341h-66z" />
    <glyph glyph-name="uni200D" unicode="&#x200d;" horiz-adv-x="63" 
d="M189 1481l-126 126v-1354h-63v1351l-123 -123l-42 45l156 156l-156 156l42 45l156 -156l156 156l45 -45l-159 -156l159 -156z" />
    <glyph glyph-name="endash" unicode="&#x2013;" horiz-adv-x="1024" 
d="M1024 506h-1024v129h1024v-129z" />
    <glyph glyph-name="emdash" unicode="&#x2014;" horiz-adv-x="2048" 
d="M2048 506h-2048v129h2048v-129z" />
    <glyph glyph-name="quoteleft" unicode="&#x2018;" horiz-adv-x="469" 
d="M364 1458l-108 -446h-150l140 446h118z" />
    <glyph glyph-name="quoteright" unicode="&#x2019;" horiz-adv-x="469" 
d="M368 1458l-140 -446h-118l111 446h147z" />
    <glyph glyph-name="quotesinglbase" unicode="&#x201a;" horiz-adv-x="469" 
d="M346 217l-141 -445h-117l110 445h148z" />
    <glyph glyph-name="quotedblleft" unicode="&#x201c;" horiz-adv-x="772" 
d="M668 1458l-111 -446h-147l141 446h117zM364 1458l-108 -446h-150l140 446h118z" />
    <glyph glyph-name="quotedblright" unicode="&#x201d;" horiz-adv-x="772" 
d="M672 1458l-140 -446h-118l108 446h150zM368 1458l-140 -446h-118l111 446h147z" />
    <glyph glyph-name="quotedblbase" unicode="&#x201e;" horiz-adv-x="772" 
d="M649 217l-139 -445h-119l109 445h149zM346 217l-141 -445h-117l110 445h148z" />
    <glyph glyph-name="dagger" unicode="&#x2020;" horiz-adv-x="768" 
d="M728 893l-262 30l-40 -694h-76l-40 694l-262 -30v150l302 -20l-40 410h156l-40 -410l302 20v-150z" />
    <glyph glyph-name="daggerdbl" unicode="&#x2021;" horiz-adv-x="768" 
d="M728 519l-302 20l40 -310h-156l40 310l-302 -20v150l262 -30l58 192l-58 192l-262 -30v150l302 -20l-40 310h156l-40 -310l302 20v-150l-262 30l-58 -192l58 -192l262 30v-150z" />
    <glyph glyph-name="bullet" unicode="&#x2022;" horiz-adv-x="832" 
d="M418 408q-104 0 -179 73t-75 177q0 103 75 178.5t179 75.5t177 -75t73 -179t-73 -177t-177 -73z" />
    <glyph glyph-name="ellipsis" unicode="&#x2026;" horiz-adv-x="1501" 
d="M1252 -18q-46 0 -77.5 32t-31.5 78t31.5 79.5t77.5 33.5q45 0 77.5 -33.5t32.5 -79.5t-32.5 -78t-77.5 -32zM750 -18q-46 0 -78.5 32t-32.5 78t32.5 79.5t78.5 33.5q45 0 77.5 -33.5t32.5 -79.5t-32.5 -78t-77.5 -32zM248 -18q-46 0 -77 32t-31 78t31 79.5t77 33.5
q45 0 77.5 -33.5t32.5 -79.5t-32 -78t-78 -32z" />
    <glyph glyph-name="perthousand" unicode="&#x2030;" horiz-adv-x="2478" 
d="M404 715q-148 0 -236 97.5t-88 260.5q0 178 93 280.5t251 102.5q153 0 237.5 -95t84.5 -267t-94.5 -275.5t-247.5 -103.5zM418 1346q-95 0 -150 -70.5t-55 -193.5q0 -121 54 -188.5t147 -67.5q94 0 147 70t53 194q0 121 -52.5 188.5t-143.5 67.5zM1366 1434l-922 -1444
h-143l921 1444h144zM2056 -22q-148 0 -236 98t-88 260q0 177 94.5 281t249.5 104q153 0 237.5 -95.5t84.5 -269.5q0 -171 -94 -274.5t-248 -103.5zM2070 608q-96 0 -150 -70.5t-54 -193.5q0 -120 53.5 -187t146.5 -67q95 0 148 70.5t53 193.5q0 121 -53 187.5t-144 66.5z
M1258 -22q-148 0 -236 98t-88 260q0 178 94 281.5t250 103.5q152 0 237 -96t85 -269q0 -171 -94.5 -274.5t-247.5 -103.5zM1272 608q-96 0 -150.5 -70t-54.5 -194q0 -119 54 -186.5t147 -67.5q94 0 147 70.5t53 193.5q0 122 -52.5 188t-143.5 66z" />
    <glyph glyph-name="guilsinglleft" unicode="&#x2039;" horiz-adv-x="647" 
d="M557 200h-166l-299 336l299 344h168l-305 -344z" />
    <glyph glyph-name="guilsinglright" unicode="&#x203a;" horiz-adv-x="647" 
d="M559 538l-301 -338h-166l304 338l-304 342h166z" />
    <glyph glyph-name="fraction" unicode="&#x2044;" horiz-adv-x="354" 
d="M690 1434l-858 -1434h-144l859 1434h143z" />
    <glyph glyph-name="fraction" unicode="&#x2215;" horiz-adv-x="354" 
d="M690 1434l-858 -1434h-144l859 1434h143z" />
    <glyph glyph-name="Euro" unicode="&#x20ac;" horiz-adv-x="1104" 
d="M1014 50q-133 -74 -282 -74q-427 0 -509 506h-121v140h108q-4 31 -4 77q0 48 6 108h-110v140h131q51 240 192.5 375.5t343.5 135.5q137 0 245 -56v-162q-114 78 -256 78q-125 0 -222.5 -100.5t-136.5 -270.5h497v-140h-519q-8 -99 -1 -185h520v-140h-504
q72 -366 350 -366q131 0 272 87v-153z" />
    <glyph glyph-name="trademark" unicode="&#x2122;" horiz-adv-x="1583" 
d="M1396 772h-108v478h-4l-219 -478h-59l-214 478h-4v-478h-102v662h127l225 -496h4l228 496h126v-662zM602 1336h-209v-564h-111v564h-206v98h526v-98z" />
    <glyph glyph-name="uni2236" unicode="&#x2236;" horiz-adv-x="444" 
d="M223 1024q-46 0 -78.5 33t-32.5 79t32.5 78t78.5 32q47 0 80 -32t33 -78t-33 -79t-80 -33zM223 178q-46 0 -78.5 33t-32.5 79t32.5 79.5t78.5 33.5q47 0 80 -33.5t33 -79.5t-33 -79t-80 -33z" />
    </font>
</defs>
</svg>
