<?xml version="1.0" standalone="no"?>
<!DOCTYPE svg PUBLIC "-//W3C//DTD SVG 1.1//EN" "http://www.w3.org/Graphics/SVG/1.1/DTD/svg11.dtd" >
<svg xmlns="http://www.w3.org/2000/svg" xmlns:xlink="http://www.w3.org/1999/xlink" version="1.1">
<metadata>
Created by FontForge 20190801 at Fri Oct  1 21:51:35 2021
 By www-data
Copyright (c) Niskala Huruf
</metadata>
<defs>
<font id="sunnyspells" horiz-adv-x="392" >
  <font-face 
    font-family="sunnyspells"
    font-weight="400"
    font-stretch="normal"
    units-per-em="1000"
    panose-1="0 0 0 0 0 0 0 0 0 0"
    ascent="800"
    descent="-200"
    x-height="616"
    cap-height="619"
    bbox="-59 -198 697.34 782"
    underline-thickness="50"
    underline-position="-125"
    unicode-range="U+000D-FB02"
  />
<missing-glyph horiz-adv-x="260" 
 />
    <glyph glyph-name="fi" unicode="fi" horiz-adv-x="382" 
d="M302 495q-14 0 -44.5 24t-57.5 24q-26 0 -34 -20t-8 -59v-62h52q28 0 28 -42q0 -18 -7 -33t-22 -15h-50v-203q0 -109 -65 -109h-2q-26 0 -34 30.5t-8 90.5v191h-16q-11 0 -18 14t-7 36q0 40 25 40h16v48q0 181 140 181q25 0 49 -2.5t55.5 -9.5t51 -24t19.5 -42
q0 -26 -18 -42t-45 -16zM77 471q4 0 5.5 6t2 14t0.5 9q7 48 51 91q2 1 0.5 4.5t-3.5 3.5q-21 0 -41.5 -37.5t-20.5 -70.5q0 -20 6 -20zM306 -4q-23 0 -36.5 10t-13.5 26v388q0 24 12 45.5t38 21.5q27 0 41.5 -19.5t14.5 -42.5v-393q0 -16 -16 -26t-40 -10zM274 390
q3 0 4 9.5t1.5 23.5t2.5 21q0 1 2 7t1.5 7.5t-1.5 3.5q-9 0 -14 -16.5t-5 -29.5q0 -26 9 -26zM90 29q0 7 -9 22t-10 23q0 22 -6 22q-4 0 -4 -18q0 -7 2.5 -21t7.5 -28t11 -13q8 2 8 13z" />
    <glyph glyph-name="fl" unicode="fl" horiz-adv-x="443" 
d="M92 0q-26 0 -34 30.5t-8 90.5v191h-16q-11 0 -18 14t-7 36q0 40 25 40h16v48q0 181 135 181q53 0 87 -45q10 32 50 32q26 0 39 -17t13 -35v-429q0 -43 13 -43h11q14 0 22.5 -13.5t8.5 -33.5q0 -47 -44 -47h-44q-46 0 -59 27t-13 86v346q-8 29 -30 56t-49 27
q-10 0 -16 -5.5t-11 -28t-5 -63.5v-43h62q28 0 28 -42q0 -18 -7 -33t-22 -15h-60v-203q0 -109 -65 -109h-2zM295 564q10 0 19 14q6 10 6 19.5t-8 9.5q-11 0 -20 -10.5t-9 -21.5t12 -11zM77 471q4 0 5.5 6t2 14t0.5 9q7 48 51 91q2 1 0.5 4.5t-3.5 3.5q-21 0 -41.5 -37.5
t-20.5 -70.5q0 -20 6 -20zM90 29q0 7 -9 22t-10 23q0 22 -6 22q-4 0 -4 -18q0 -7 2.5 -21t7.5 -28t11 -13q8 2 8 13z" />
    <glyph glyph-name=".notdef" horiz-adv-x="260" 
 />
    <glyph glyph-name="uni0000" horiz-adv-x="0" 
 />
    <glyph glyph-name="uni0000" horiz-adv-x="0" 
 />
    <glyph glyph-name="uni000D" unicode="&#xd;" horiz-adv-x="250" 
 />
    <glyph glyph-name="space" unicode=" " horiz-adv-x="275" 
 />
    <glyph glyph-name="exclam" unicode="!" horiz-adv-x="167" 
d="M81 112q-31 0 -38 44.5t-7 191.5q0 195 8.5 231.5t53.5 36.5q13 0 19.5 -6.5t11 -31t6 -67.5t1.5 -122q0 -151 -11 -214t-44 -63zM68 593q-3 0 -6.5 -5t-6.5 -17t-3 -27q0 -38 10 -38q7 0 9 5.5t1 17.5t-1 16q0 6 1 14t1.5 13t0.5 10.5t-1.5 8t-4.5 2.5zM82 -8
q-19 0 -30.5 12.5t-11.5 33.5t11 36.5t31 15.5q22 0 34.5 -15t12.5 -37t-13 -34t-34 -12zM64 44q0 6 3 14t3.5 10.5t-2.5 4.5q-6 0 -11 -13.5t-5 -26.5q0 -10 5 -10q4 0 7 21z" />
    <glyph glyph-name="quotedbl" unicode="&#x22;" horiz-adv-x="196" 
d="M52 528q-18 0 -28.5 22t-13.5 46q-4 27 5 60t37 33q29 0 38 -32t4 -61q-13 -68 -42 -68zM147 528q-18 0 -28.5 22t-13.5 46q-4 27 5 60t37 33q29 0 38 -32t4 -61q-13 -68 -42 -68zM47 650q6 22 -5 22q-5 0 -10.5 -14t-5.5 -21q0 -15 7 -15t14 28zM142 650q6 22 -5 22
q-5 0 -10.5 -14t-5.5 -21q0 -15 7 -15t14 28z" />
    <glyph glyph-name="numbersign" unicode="#" horiz-adv-x="459" 
d="M240 108q-30 0 -32 39q-1 12 5 34t6 30q0 5 -17 5h-31q-27 -73 -51 -86q-7 -4 -14 -4q-28 0 -30 34q-1 11 3 27.5t4 26.5q0 6 -9.5 8t-21.5 2.5t-22 10t-11 29.5q-1 22 17.5 30t44.5 8q9 0 16 4.5t11.5 14t6.5 16.5t4.5 19.5t3.5 15.5q-70 0 -71 37q-1 25 13 32.5t53 7.5
q16 0 22 4t11 19q1 2 4.5 13t6.5 17t8.5 14.5t14 13t19.5 4.5q34 0 36 -35q0 -6 -3.5 -18t-2.5 -19q0 -13 35 -13q11 0 19 19.5t18.5 39t27.5 19.5q18 0 28 -14.5t11 -29.5q0 -5 -3 -15.5t-3 -16.5t10.5 -7.5t22.5 -1.5t22 -7t11 -23q1 -24 -27 -33t-58 -9q-5 -13 -12 -36
t-11 -35q3 0 14.5 0.5t16.5 0t13.5 -2t12.5 -5t8 -10.5t4 -17q1 -26 -19 -38t-46 -12h-5l-11 1h-5q-2 -5 -5 -22.5t-7 -29.5t-10.5 -26.5t-18 -22t-27.5 -7.5zM172 457q5 0 14.5 19.5t9.5 26.5q0 5 -5 5q-7 1 -16.5 -16t-8.5 -26q0 -9 6 -9zM70 404q4 0 7.5 10.5t2.5 15.5
q0 4 -3 4q-5 1 -9.5 -5.5t-3.5 -12.5q0 -12 6 -12zM217 298q20 0 31 23.5t10 44.5q0 9 -6 9q-23 0 -32 -6t-17 -27q-11 -30 -10 -38v-1q9 -5 24 -5zM52 279q0 6 -7 6q-8 0 -11.5 -11.5t-1.5 -17.5q2 -5 4 -6q2 0 6.5 6t7 13t2.5 10z" />
    <glyph glyph-name="dollar" unicode="$" horiz-adv-x="354" 
d="M173 -41q-11 0 -17 7t-8 23.5t-2.5 23t-0.5 24.5v58q-44 0 -74 20t-30 48q0 31 32 31q13 0 44 -8t52 -8q22 0 44 13t22 34q0 23 -18.5 35t-49.5 12q-61 0 -95 32.5t-34 96.5q0 57 29.5 95t77.5 46v45q0 2 -0.5 10.5t0 15t1 16t2 17t5 14.5t9 10.5t12.5 3.5q25 0 25 -102
q0 -20 2 -25t14 -5q26 0 48.5 -16.5t22.5 -40.5q0 -10 -3.5 -15.5t-11.5 -7t-16 -1t-23.5 1.5t-26.5 1q-66 0 -66 -60q0 -36 56 -45q63 -9 96.5 -38.5t33.5 -90.5q0 -57 -34.5 -92.5t-91.5 -40.5v-60v-9v-11v-11t-1 -12t-2 -11t-3 -9.5t-4.5 -7.5t-6.5 -5.5t-9 -1.5z
M101 476q3 5 13.5 13t10.5 14t-7 6q-16 0 -30 -19.5t-14 -36.5q0 -7 4 -7t8 4.5t9 14t6 11.5zM83 425q0 9 -9 9q-5 0 -6.5 -4.5t0.5 -10.5t7 -6q8 0 8 12z" />
    <glyph glyph-name="percent" unicode="%" horiz-adv-x="482" 
d="M105 -6q-11 0 -27 9t-16 20q0 50 110 257q40 76 85.5 166t56.5 110q33 63 69 63q16 0 23 -12t5.5 -30t-6 -35.5t-11.5 -31.5q-39 -82 -138.5 -277.5t-109.5 -210.5q-18 -28 -41 -28zM111 393q-44 0 -69 33.5t-25 83.5q0 41 26 74.5t66 33.5q90 0 90 -101q0 -52 -26 -88
t-62 -36zM111 460q12 0 19 18.5t7 38.5q0 18 -7 29.5t-19 11.5q-11 0 -19 -14t-8 -32q0 -19 7.5 -35.5t19.5 -16.5zM43 512q0 31 -3 31q-10 0 -10 -29q0 -34 13 -34q2 0 2 3t-1 12t-1 17zM68 453q0 11 -9 11q-6 0 -6 -8q0 -3 2.5 -6.5t5.5 -3.5q7 0 7 7zM380 -6
q-44 0 -69 33.5t-25 83.5q0 41 26 74.5t66 33.5q90 0 90 -101q0 -52 -26 -88t-62 -36zM380 61q12 0 19 18.5t7 38.5q0 18 -7 29.5t-19 11.5q-11 0 -19 -14t-8 -32q0 -19 7.5 -35.5t19.5 -16.5zM312 113q0 31 -3 31q-10 0 -10 -29q0 -34 13 -34q2 0 2 3t-1 12t-1 17zM103 82
q-4 4 -10 -0.5t-9 -12.5q-9 -23 -9 -35q2 -24 13 2l2 4q15 40 13 42zM337 54q0 11 -9 11q-6 0 -6 -8q0 -3 2.5 -6.5t5.5 -3.5q7 0 7 7z" />
    <glyph glyph-name="ampersand" unicode="&#x26;" horiz-adv-x="536" 
d="M232 -6q-96 0 -148.5 52.5t-52.5 146.5q0 45 12.5 81t30 56t35 33t30 20t12.5 10q0 1 -15.5 37.5t-15.5 64.5q0 57 39 92t101 35q40 0 71.5 -17t42.5 -38q6 -13 -5 -36t-32 -23q-16 0 -35 14.5t-31 14.5q-44 0 -44 -56q0 -17 12 -43.5t43 -72t47.5 -68.5t60.5 -83
q12 24 21 51q11 34 42 34q14 0 23.5 -10t9.5 -29q0 -41 -47 -114q69 -97 69 -123q0 -18 -17 -26.5t-38 -8.5q-15 0 -75 79q-71 -73 -146 -73zM154 499q7 0 16 26q11 28 26 45l8 8q7 8 7 10t-1 2q-19 0 -39.5 -32.5t-20.5 -50.5q0 -8 4 -8zM164 472q0 8 -6 8q-8 0 -8 -8t7 -8
t7 8zM329 134q-9 12 -26 36t-26.5 37t-23.5 32t-22 29.5t-17 21.5t-14.5 16t-8.5 5q-26 0 -46.5 -34.5t-20.5 -72.5q0 -45 31.5 -79t80.5 -34q45 0 93 43zM75 126q6 5 -2 30q-10 35 -2 62q5 19 -3 20q-17 -14 -16 -51.5t15 -56.5q3 -7 8 -4z" />
    <glyph glyph-name="quotesingle" unicode="'" horiz-adv-x="105" 
d="M52 528q-18 0 -28.5 22t-13.5 46q-4 27 5 60t37 33q29 0 38 -32t4 -61q-13 -68 -42 -68zM47 650q6 22 -5 22q-5 0 -10.5 -14t-5.5 -21q0 -15 7 -15t14 28z" />
    <glyph glyph-name="parenleft" unicode="(" horiz-adv-x="300" 
d="M206 -72q-68 27 -113 85.5t-62 122t-17 133.5q0 94 33 188.5t89 151.5q63 63 97 63q14 0 23.5 -11.5t9.5 -24.5q0 -5 -4.5 -10.5t-18.5 -19t-25 -24.5q-103 -109 -103 -310q0 -88 29 -166t91 -113q15 -8 20 -11t9.5 -9.5t4.5 -15.5q0 -13 -13 -23t-30 -10q-11 0 -20 4z
M192 620q14 14 13 15t-3 1q-15 0 -38.5 -24.5t-23.5 -37.5q0 -5 4 -5q7 0 17 18q6 11 31 33zM134 547q0 8 -6 8q-12 0 -12 -8q0 -9 8 -9q10 0 10 9z" />
    <glyph glyph-name="parenright" unicode=")" horiz-adv-x="300" 
d="M80 -93q-14 0 -26.5 8.5t-12.5 18.5q0 9 21 39t45.5 67.5t45.5 109t21 155.5q0 97 -29.5 180t-76.5 109q-1 1 -5.5 3.5t-6 3t-6 3.5t-6 4.5t-5 4t-5 5.5t-3.5 6t-2.5 6.5t-0.5 7.5q0 15 13 24.5t34 9.5q78 0 138.5 -103.5t60.5 -266.5q0 -72 -7.5 -125t-26 -94
t-34.5 -64.5t-47 -62.5q-40 -49 -79 -49zM48 621q4 0 7.5 7.5t3.5 15.5q0 13 -7 13q-4 0 -7.5 -7.5t-3.5 -15.5q0 -13 7 -13zM75 -60q4 10 5 20t-3 11t-12.5 -13.5t-8.5 -21.5q0 -8 4 -9q8 -2 15 13z" />
    <glyph glyph-name="asterisk" unicode="*" horiz-adv-x="283" 
d="M78 459q-17 0 -25.5 0.5t-17 6t-8.5 15.5q0 15 14.5 24.5t39.5 8.5q-43 32 -21 58q6 6 14 6q13 0 36 -18q5 39 23 39q22 0 27 -41q25 20 38 20q7 0 12 -4q16 -15 -15 -61h4q52 0 52 -23q0 -13 -9 -20t-17 -8.5t-27 -2.5q27 -39 6 -57q-4 -3 -8 -3q-14 0 -27 23
q-7 -47 -27 -47q-22 0 -30 49q-15 -28 -30 -28q-8 0 -15 6q-4 3 -6 7t-1.5 8.5t1 8t3 9t4 8t5.5 9t5 7.5zM59 489l5 3q4 3 4 7t-9 4t-15 -8t-6 -15q0 -10 6 -10q5 0 15 19z" />
    <glyph glyph-name="plus" unicode="+" horiz-adv-x="399" 
d="M202 116q-8 0 -14.5 3t-11.5 9t-8.5 12t-6 16.5t-4.5 18t-3 20t-1.5 19t-1.5 18.5t-1 16q-8 0 -26 -2t-30 -2q-22 0 -37 11t-15 34q0 14 7 23.5t21.5 13.5t25.5 6t29.5 3t23.5 2q0 1 0.5 13.5t0.5 18t1 19.5t2.5 22t4 20t6 19t8 14.5t11.5 11t15 3.5q17 0 28 -10t16 -30
t6.5 -34t2 -39t0.5 -28q104 12 104 -40q0 -16 -11.5 -27.5t-29.5 -16t-33 -6.5t-30 -2q0 -129 -49 -129zM179 396q6 0 10 10t7 22.5t6 15.5t3 7q0 7 -7 7q-11 0 -17.5 -18.5t-6.5 -32.5q0 -11 5 -11zM187 375q0 6 -6 6q-10 0 -10 -14q0 -7 8 -7q3 0 5.5 5.5t2.5 9.5z" />
    <glyph glyph-name="comma" unicode="," horiz-adv-x="153" 
d="M140 58q0 -38 -29.5 -71t-67.5 -33q-20 0 -20 19q0 10 25 14q16 3 18 16q1 9 -7 9q-12 0 -20 12t-8 28q0 25 16 44t43 19q23 0 36.5 -17t13.5 -40zM59 64q0 3 2.5 7l5 8t3.5 5q2 4 2.5 7t-0.5 4l-1 1q-8 0 -16.5 -13.5t-8.5 -24.5q0 -13 3 -13q5 0 10 19z" />
    <glyph glyph-name="hyphen" unicode="-" horiz-adv-x="359" 
d="M288 329q0 -50 -66 -52q-78 -2 -118 -2q-53 0 -53 44q0 43 64 45q84 2 127 2q46 0 46 -37zM69 300q7 0 16 17t9 22q0 11 -6 11q-12 0 -19 -12.5t-7 -24.5q0 -13 7 -13z" />
    <glyph glyph-name="period" unicode="." horiz-adv-x="146" 
d="M66 -6q-26 0 -43 16t-17 42q0 27 18 48t45 21q59 0 59 -60q0 -25 -18 -46t-44 -21zM32 41q3 0 4.5 3t2 8.5t1.5 6.5q3 8 12 20.5t12 17.5q1 2 -0.5 5t-3.5 3q-10 1 -22 -19.5t-12 -32.5t6 -12z" />
    <glyph glyph-name="slash" unicode="/" horiz-adv-x="399" 
d="M82 -77q-15 0 -42 10t-27 26q0 14 124.5 326t147.5 351q18 30 44 30q15 0 32 -10t17 -23q0 -30 -69 -186q-3 -8 -58.5 -149.5t-105.5 -258t-63 -116.5zM57 -37q3 10 16 39.5t19.5 48t0.5 19.5q-11 4 -15 -4q-7 -14 -22.5 -50.5t-15.5 -46.5q0 -4 4 -7t8 -2.5t5 3.5z" />
    <glyph glyph-name="zero" unicode="0" horiz-adv-x="396" 
d="M203 -17q-50 0 -86 27.5t-56 75.5t-29 103t-9 118q0 84 17.5 152t61.5 115t109 47q39 0 69 -24t47 -59t28 -80.5t14.5 -82t3.5 -68.5q0 -53 -9.5 -107t-28 -104t-53 -81.5t-79.5 -31.5zM96 512q19 40 19 41q0 5 -7 1q-3 -1 -6 -5q-10 -13 -25.5 -46.5t-15.5 -46.5
q0 -10 8 -3q3 3 5 7q16 40 22 52zM204 59q91 0 91 257q0 29 -3.5 62t-11.5 72.5t-26 65t-43 25.5q-39 0 -62 -83t-23 -157v-40t2 -47.5t7 -57t13 -46.5t22.5 -38.5t33.5 -12.5z" />
    <glyph glyph-name="one" unicode="1" horiz-adv-x="245" 
d="M159 0q-45 0 -45 47v403q0 23 -3 23t-12.5 -12t-21.5 -26t-21 -19t-19 -5q-14 0 -23 10t-9 24q0 3 26 41q25 36 70 83t66 47q47 0 47 -29v-539q0 -18 -17 -33t-38 -15zM158 592l8 14q-11 0 -22 -11q-21 -18 -21 -23q0 -3 4 -4q13 -1 31 24zM147 45q0 5 -2.5 13t-2.5 16
q0 13 -6 13q-8 0 -8 -30t8 -30q11 0 11 18z" />
    <glyph glyph-name="two" unicode="2" horiz-adv-x="344" 
d="M45 0q-9 0 -16.5 13t-5.5 25t46 68q72 91 114.5 187.5t42.5 171.5q0 69 -55 69q-21 0 -35.5 -17.5t-14.5 -52.5q0 -16 5 -34t5 -27q0 -12 -14 -19t-28 -7q-26 0 -43.5 26.5t-17.5 66.5q0 64 41 108t103 44q64 0 110.5 -45.5t46.5 -119.5q0 -53 -17 -110.5t-41 -102
t-48 -81t-41 -59.5t-17 -25q10 -1 32 0l87 3q7 0 13 -0.5t10 -1t7.5 -3.5t5.5 -4t4 -5.5t2.5 -6t1 -7.5t0.5 -7.5v-9v-8.5q0 -18 -10.5 -23.5t-42.5 -5.5h-230zM61 488q0 8 -0.5 14t-2 9t-3.5 2q-7 -1 -9 -19.5t-1 -28.5q2 -13 5 -15q6 -6 8 8q2 9 3 30zM63 424q0 7 -7 7
t-7 -8t6 -8q8 0 8 9zM62 50l3.5 10.5t1.5 6.5v2q-7 0 -14.5 -9.5t-7.5 -19.5q0 -8 4 -8q5 0 13 18z" />
    <glyph glyph-name="three" unicode="3" horiz-adv-x="347" 
d="M223 486q0 54 -56 54q-33 0 -49 -26t-16 -84q0 -13 -9.5 -19.5t-22.5 -6.5q-61 0 -61 89q0 53 47.5 91t106.5 38q82 0 124.5 -39t42.5 -96q0 -36 -17.5 -68.5t-39 -50.5t-39 -32t-17.5 -18t12 -9.5t29 -14.5t34 -23.5t29 -41.5t12 -62q0 -85 -59 -129t-142 -44
q-39 0 -77 20t-38 57q0 34 23 34q16 0 44.5 -14.5t49.5 -14.5q49 0 70.5 26t21.5 64q0 33 -18 54.5t-47 21.5q-76 0 -76 50q0 21 34.5 55.5t69 72.5t34.5 66zM50 515q0 8 -0.5 14t-2 9t-3.5 2q-8 -1 -14 -19.5t-4 -28.5q2 -13 5 -15q9 -9 15 11zM44 451q0 7 -7 7t-7 -8t6 -8
q8 0 8 9zM118 291q7 15 15 28q10 16 4 16q-8 0 -21.5 -20t-13.5 -31q0 -9 5 -9t11 16zM48 80q0 21 -9 12q-10 -10 -8 -30q1 -7 7 -7q2 0 6 9t4 16z" />
    <glyph glyph-name="four" unicode="4" horiz-adv-x="387" 
d="M299 0q-41 0 -41 62v68q0 12 -13 12h-181q-20 0 -31.5 9.5t-11.5 21.5q0 15 56.5 208.5t65.5 210.5q11 22 38 22q13 0 33 -8t20 -19q0 -17 -35.5 -154t-54.5 -190q-4 -12 -4 -14q0 -5 8 -5h97q13 0 13 11v301q0 80 51 80q26 0 39.5 -18.5t13.5 -47.5v-480q0 -70 -63 -70z
M278 541q7 0 13 18.5t6 31.5q0 7 -7 7q-5 0 -11.5 -15t-6.5 -25q0 -17 6 -17zM65 215q9 29 8 36q0 8 -5 8q-5 -1 -13.5 -25t-7.5 -35q0 -11 5 -11q7 1 13 27zM55 169q0 10 -8 10t-8 -10q1 -7 8 -7q8 0 8 7zM291 29q-1 3 -5 8t-4 8q0 16 -6 16t-6 -11q0 -9 5 -22t10 -13
q3 0 6 4.5t0 9.5z" />
    <glyph glyph-name="five" unicode="5" horiz-adv-x="376" 
d="M88 -8q-62 0 -62 56q0 18 11 27t21 10t30 1q86 0 123 26t37 84q0 107 -101 107q-29 0 -53 -9.5t-34 -9.5q-29 0 -29 82v202q0 48 46 48h233q8 0 15 -8t7 -21q0 -18 -7.5 -34.5t-16.5 -16.5l-168 -1q-9 0 -9 -14v-122q0 -10 1.5 -14.5t3.5 -5t8 -0.5l24 1
q83 3 132.5 -43.5t49.5 -139.5q0 -84 -68 -144.5t-194 -60.5zM59 403q0 35 -4 35q-2 0 -4 -2q-7 -6 -7 -41t7 -41q3 -3 4 -3q4 0 4 52zM67 326q0 10 -5 10q-11 0 -11 -14q0 -7 8 -7t8 11zM58 48v6t0.5 7.5t-1 6t-4.5 2.5q-10 0 -8 -28q2 -30 13 -30q2 0 3 5t0.5 14t-3.5 17z
" />
    <glyph glyph-name="six" unicode="6" horiz-adv-x="407" 
d="M207 -11q-97 0 -144.5 67.5t-47.5 168.5q0 112 35.5 210t108.5 152q45 33 106 33q14 0 29.5 -6.5t15.5 -20.5q0 -12 -1.5 -18.5t-10 -14t-25.5 -13.5q-88 -29 -134 -162q-13 -35 -13 -60q0 -10 4 -10q2 0 14 15t37 30t57 15q75 0 116.5 -51t41.5 -137q0 -81 -56 -139.5
t-133 -58.5zM202 80q43 0 68 28t25 82q0 96 -70 96q-38 0 -72.5 -35.5t-34.5 -72.5q0 -98 84 -98zM76 107q-2 6 -7 19.5t-7 21.5l-1.5 6t-1.5 4.5t-2.5 3.5t-3.5 1q-3 0 -5 -8q-1 -9 5 -27.5t13.5 -33t10.5 -13.5q5 0 5 5q0 3 -2.5 10t-3.5 11z" />
    <glyph glyph-name="seven" unicode="7" horiz-adv-x="318" 
d="M87 -2q-14 0 -23.5 8.5t-9.5 18.5q0 24 60 213.5t90 275.5q4 15 -7 15h-130q-29 0 -43 9.5t-14 34.5t15 34t44 9h211q17 0 29 -10.5t12 -24.5q0 -29 -78.5 -277t-101.5 -293q-6 -13 -54 -13zM42 594q0 8 -5 8q-6 0 -12 -8t-6 -18q0 -20 8 -20q6 0 10.5 14t4.5 24zM87 38
q1 5 2.5 13.5t3 14t2.5 7.5q4 5 2.5 10t-6.5 5t-12 -23t-7 -34q0 -12 5 -12t10 19z" />
    <glyph glyph-name="eight" unicode="8" horiz-adv-x="407" 
d="M195 -6q-78 1 -129 51.5t-51 117.5q0 35 17 65t37.5 46.5t37.5 30.5t17 20t-15.5 17t-34.5 24.5t-34.5 41.5t-15.5 63q0 62 54 108t124 46q60 0 115 -43.5t55 -112.5q0 -34 -14 -59.5t-30.5 -36.5t-30.5 -19.5t-14 -13.5q0 -7 17 -20.5t37.5 -29.5t37.5 -48.5t17 -72.5
q0 -68 -59 -122t-138 -53zM67 512q3 12 37 47q11 12 11 19q0 4 -4 4q-17 0 -38.5 -31.5t-21.5 -49.5q0 -8 4 -8q7 0 12 19zM202 371q26 0 48.5 31.5t22.5 66.5q0 36 -20.5 61t-51.5 25q-33 0 -55.5 -22.5t-22.5 -59.5q0 -33 22 -67.5t57 -34.5zM57 469q0 9 -7 9q-8 0 -8 -9
q1 -8 7 -8q2 0 5 2.5t3 5.5zM197 73q46 0 64.5 24t18.5 72q0 37 -26.5 76.5t-48.5 39.5q-30 0 -57 -40t-27 -82q0 -34 21.5 -62t54.5 -28zM61 222q3 8 0 10.5t-10 -3.5q-8 -8 -18 -28.5t-11 -34.5q-1 -8 3 -15.5t10 -7.5q5 0 6.5 6t0.5 14t1 16q2 9 5.5 17t7.5 15.5t5 10.5z
" />
    <glyph glyph-name="nine" unicode="9" horiz-adv-x="402" 
d="M200 623q53 0 92 -21t60 -56.5t30.5 -75t9.5 -83.5q0 -101 -43.5 -201.5t-109.5 -151.5q-54 -42 -106 -42q-43 0 -43 29q0 41 43 55q89 29 131 151q13 35 13 60q0 10 -4 10q-1 0 -13 -12.5t-38 -25t-61 -12.5q-69 0 -109 48t-40 130t50 140t138 58zM205 535
q-42 0 -67.5 -27.5t-25.5 -75.5q0 -42 18.5 -67.5t51.5 -25.5q39 0 71 29t32 66q0 101 -80 101zM62 486q7 30 7 31q0 7 -7 7t-19 -44.5t-8 -64.5q3 -12 8 -12q8 0 12 23q3 12 4 31.5t3 28.5zM58 380q0 12 -6 12q-13 0 -13 -16q0 -9 9 -9q10 0 10 13zM130 58q-1 7 -13 -2
q-14 -10 -14 -28q0 -14 7 -14q4 0 12 20.5t8 23.5z" />
    <glyph glyph-name="colon" unicode=":" horiz-adv-x="175" 
d="M79 512q-22 0 -36.5 13.5t-14.5 35.5q0 23 15 40.5t38 17.5q50 0 50 -50q0 -21 -15 -39t-37 -18zM50 552q2 0 3.5 2.5t2 7t1.5 5.5q2 7 10 18t10 14q1 2 -0.5 4.5t-2.5 2.5q-9 1 -19 -16.5t-10 -27.5t5 -10zM81 -6q-22 0 -36.5 13.5t-14.5 35.5q0 23 15 40.5t38 17.5
q50 0 50 -50q0 -21 -15 -39t-37 -18zM52 34q2 0 3.5 2.5t2 7t1.5 5.5q2 7 10 18t10 14q1 2 -0.5 4.5t-2.5 2.5q-9 1 -19 -16.5t-10 -27.5t5 -10z" />
    <glyph glyph-name="semicolon" unicode=";" horiz-adv-x="176" 
d="M79 512q-22 0 -36.5 13.5t-14.5 35.5q0 23 15 40.5t38 17.5q50 0 50 -50q0 -21 -15 -39t-37 -18zM50 552q2 0 3.5 2.5t2 7t1.5 5.5q2 7 10 18t10 14q1 2 -0.5 4.5t-2.5 2.5q-9 1 -19 -16.5t-10 -27.5t5 -10zM125 46q0 -35 -26.5 -64.5t-60.5 -29.5q-18 0 -18 17
q0 9 23 13q16 3 16 15q0 7 -7 7q-10 0 -17.5 11t-7.5 25q0 23 14.5 40t38.5 17q21 0 33 -15.5t12 -35.5zM52 51q1 4 6 11l4 7l1 11q-8 0 -15 -12.5t-7 -21.5q0 -12 2 -12q6 0 9 17z" />
    <glyph glyph-name="less" unicode="&#x3c;" horiz-adv-x="255" 
d="M200 168q-35 16 -107 68.5t-72 72.5q0 26 82 89t106 63q8 0 16 -14.5t8 -24.5q0 -9 -26 -34t-56.5 -50t-32.5 -27q3 -3 39 -26t59 -42t23 -30q0 -13 -14.5 -31t-24.5 -14zM79 346q3 8 -6 8q-6 0 -20 -16.5t-11 -21.5q5 -6 13 0q18 16 24 30z" />
    <glyph glyph-name="equal" unicode="=" horiz-adv-x="385" 
d="M94 335q-27 9 -32.5 33t14.5 37q18 11 117 11q86 0 105.5 -7.5t19.5 -38.5q0 -24 -25 -32t-100 -8q-81 0 -99 5zM102 396q0 3 -2.5 4t-6.5 -2q-10 -6 -10 -28q0 -7 2 -7q5 0 8 13zM97 218q-19 3 -28.5 17.5t-2.5 28.5q9 17 33.5 21t105.5 4q79 0 104 -6.5t25 -27.5
q0 -27 -28 -36.5t-107 -9.5q-53 0 -102 9zM100 267q0 3 -3 3t-4 -1q-8 -4 -8 -17q0 -9 1.5 -10t6.5 4q7 7 7 21z" />
    <glyph glyph-name="greater" unicode="&#x3e;" horiz-adv-x="270" 
d="M53 171q-12 0 -24 15t-12 27q0 16 23.5 35.5t55.5 39.5t40 27q-6 7 -37.5 30t-55 45t-23.5 37q0 12 11 21.5t22 9.5q27 0 100.5 -60t73.5 -83q0 -25 -77 -84.5t-97 -59.5zM57 445q-6 2 -11 -3t-6 -12q-3 -16 7 -16q2 0 6 12q0 1 3 7t3 7.5t-2 4.5zM56 211q0 23 -7 23
q-3 0 -6.5 -9t-3.5 -16t3.5 -11.5t7.5 -4.5q6 0 6 18z" />
    <glyph glyph-name="question" unicode="?" horiz-adv-x="300" 
d="M98 104q-21 0 -31.5 22.5t-10.5 46.5q0 94 65 147q57 47 57 123q0 33 -17.5 59t-51.5 26q-8 0 -26 -4q-28 -7 -45.5 7t-17.5 40q0 46 86 54q75 7 129 -40t54 -136q0 -88 -89 -175q-8 -8 -24.5 -22t-19.5 -19t-7.5 -20.5t-5.5 -40.5q-2 -68 -45 -68zM51 583q2 4 7 8.5t7 7
t0 3.5q-10 4 -20.5 -8t-10.5 -22q0 -12 7 -12q2 0 3 3t3 9.5t4 10.5zM99 141q-9 17 -9 44l1 3v1l2 14v2l1 3q0 8 -4 8q-13 0 -13 -33q0 -58 22 -58q1 0 2 2.5t0.5 6t-2.5 7.5zM98 -9q-38 0 -38 36q0 18 12 31.5t29 13.5q14 0 26.5 -12.5t12.5 -25.5q0 -19 -11 -31t-31 -12z
M89 57q-5 0 -8.5 -10.5t-3.5 -19.5t3 -9q9 0 9 16q0 4 1 8t1.5 6.5t1 4.5t-0.5 3t-3 1z" />
    <glyph glyph-name="at" unicode="@" horiz-adv-x="575" 
d="M261 1q-113 0 -183.5 73t-70.5 193q0 136 81.5 228t203.5 92q119 0 189 -75t70 -187q0 -77 -38.5 -131.5t-93.5 -54.5q-25 0 -41 13t-23.5 26t-10.5 13t-18 -13.5t-38 -26.5t-47 -13q-42 0 -70 36t-28 89q0 67 41.5 121t93.5 54q21 0 34 -11t14 -11q2 0 13 14t26 14
q16 0 25 -12t11.5 -33t2.5 -39t-1.5 -40.5t-1.5 -27.5q0 -27 11 -52t24 -25t22.5 25t9.5 63q0 100 -39 153t-128 53q-92 0 -151 -65.5t-59 -164.5q0 -88 50.5 -145t125.5 -57q38 0 102.5 21t83.5 21q28 0 28 -21q0 -35 -70.5 -66t-149.5 -31zM179 316q2 0 5.5 5t6.5 11t3 7
q12 21 40 49q5 5 -1 5q-14 0 -36.5 -27.5t-22.5 -42.5q0 -7 5 -7zM265 220q21 0 40.5 32t19.5 68q0 42 -32 42q-27 0 -49.5 -26t-22.5 -58q0 -58 44 -58zM177 291q0 7 -5 9q-3 1 -6.5 -2.5t-3.5 -6.5q0 -11 8 -11q7 0 7 11z" />
    <glyph glyph-name="A" unicode="A" horiz-adv-x="451" 
d="M231 621q64 0 82 -34q17 -35 70.5 -268.5t53.5 -270.5q0 -20 -20.5 -35.5t-45.5 -15.5q-24 0 -33 14q-20 27 -43 141q-3 18 -10 23.5t-19 5.5q-22 0 -50.5 0.5t-33.5 0.5q-36 0 -42 -20l-26 -100q-7 -29 -25 -46.5t-40 -17.5q-36 0 -36 50q0 52 30.5 199t63.5 250
q24 74 50 99t74 25zM170 561q27 35 22 37q-16 3 -32 -19q-12 -17 -16.5 -36t3.5 -21q2 0 4.5 5.5t7.5 16t11 17.5zM186 377q-17 -89 -14 -96q2 -3 5 -4h88q8 0 -1 43q0 2 -1 6q-4 19 -6 31q0 2 -6.5 48.5t-13 76.5t-13.5 30q-12 0 -38 -135zM45 63q5 25 -6 27q-6 0 -9 -13
q-4 -19 -1 -38t11 -21q5 -1 6 3t-2 12q-3 7 1 30zM350 64q-12 24 -13 24q-3 0 -5 -10q-1 -11 9 -36t20 -26t-6 38z" />
    <glyph glyph-name="B" unicode="B" horiz-adv-x="406" 
d="M66 0q-28 0 -38.5 22.5t-10.5 80.5v428q0 44 13.5 64.5t46.5 20.5q17 0 28.5 -10t11.5 -20q0 -34 6 -34q2 0 9.5 11t17.5 24.5t30 24.5t45 11q64 0 106 -47t42 -115q0 -45 -15.5 -76.5t-37.5 -44.5t-44 -19t-37.5 -7.5t-15.5 -3.5t17.5 -3t42.5 -7t49.5 -18.5t42 -43
t17.5 -74.5q0 -75 -61.5 -119.5t-134.5 -44.5h-130zM53 535q-5 6 -5 17q0 15 14.5 30t14.5 16q0 5 -10 5q-14 0 -25 -17t-11 -41q0 -26 11 -26q3 0 7 5t4 11zM150 361h30q34 0 56.5 26.5t22.5 68.5q0 31 -14 50.5t-40 19.5q-34 0 -54 -24.5t-20 -56.5v-52q0 -13 5.5 -22.5
t13.5 -9.5zM159 91h28q39 0 65 21t26 63q0 79 -103 79h-25q-19 0 -19 -40v-87q0 -24 4.5 -30t23.5 -6zM43 73q6 0 6 75q0 42 -8 42q-7 0 -7 -42q0 -75 9 -75zM43 59q-8 0 -8 -11q0 -13 9 -13q6 0 6 13q0 7 -1 9t-6 2z" />
    <glyph glyph-name="C" unicode="C" horiz-adv-x="386" 
d="M212 -10q-91 0 -146 83.5t-55 218.5q0 143 60 237t152 94q62 0 105.5 -41.5t43.5 -100.5q0 -57 -41 -57q-23 0 -38.5 18t-16.5 45q-2 41 -39 41q-49 0 -78 -66t-29 -172q0 -96 24 -149t69 -53q22 0 37 12t15 30q0 19 18 36t38 17q18 0 29 -15.5t11 -41.5q0 -55 -47 -95.5
t-112 -40.5zM95 513q3 0 22 20t44 39.5t43 18.5q14 -2 14 7q1 4 -2.5 6.5t-8.5 3.5q-32 3 -73 -31.5t-43 -58.5q0 -5 4 -5zM85 502q-5 0 -9 -6t-5 -14q0 -9 3 -9q8 -1 14 16q4 12 -3 13z" />
    <glyph glyph-name="D" unicode="D" horiz-adv-x="409" 
d="M107 0q-91 0 -91 88v428q0 52 32.5 77t82.5 25h45q90 0 155.5 -80t65.5 -212q0 -143 -69 -234.5t-166 -91.5h-55zM144 96h13q53 0 88.5 64.5t35.5 168.5q0 92 -29.5 141.5t-78.5 49.5h-15q-17 0 -22.5 -7.5t-5.5 -32.5v-348q0 -36 14 -36zM47 83q3 0 5 6.5t2 17.5v21
t-0.5 20.5t-0.5 12.5q0 55 -6 55q-9 0 -9 -55q0 -71 5 -76q1 -2 4 -2zM46 69q-7 0 -7 -11q0 -18 8 -18q7 0 7 18q0 11 -8 11z" />
    <glyph glyph-name="E" unicode="E" horiz-adv-x="362" 
d="M195 -4q-83 0 -127.5 27t-44.5 95v409q0 48 23.5 68.5t54.5 20.5h195q17 0 26.5 -13t9.5 -32t-8.5 -34.5t-23.5 -16.5l-141 -4q-10 0 -16 -7t-6 -17v-92q0 -30 22 -30l119 1q33 0 33 -52q0 -39 -32 -40l-115 -4q-27 -1 -27 -31v-66q0 -23 0.5 -31.5t3.5 -23.5t9.5 -20
t19.5 -9.5t33 -4.5q24 0 65 15t52 15q12 0 19 -18t7 -36q0 -35 -52.5 -52t-98.5 -17zM87 60q-28 37 -32 62q-2 7 -4 10.5t-5 2.5q-8 0 -5 -18q3 -23 17 -48t30 -23q8 2 -1 14z" />
    <glyph glyph-name="F" unicode="F" horiz-adv-x="337" 
d="M85 0q-62 0 -62 49v494q0 74 102 74l170 -1q11 0 20 -11.5t9 -25.5q0 -18 -7 -39t-17 -21l-137 1q-26 0 -26 -26v-149q0 -19 23 -19l106 3q14 1 24.5 -17.5t10.5 -35.5q0 -39 -38 -40l-106 -3q-8 0 -14 -6t-6 -14v-165q0 -48 -52 -48zM73 26q0 2 -4.5 8.5t-9.5 17.5
t-6 26q-2 19 -11 19q-6 0 -3 -22q1 -9 3.5 -21t9.5 -24t15 -11q6 0 6 7z" />
    <glyph glyph-name="G" unicode="G" horiz-adv-x="439" 
d="M241 -5q-52 0 -92.5 22t-65.5 56t-41 79.5t-22 88.5t-6 87q0 59 12 110t37.5 94t71.5 68t107 25q69 0 113.5 -38.5t44.5 -120.5q0 -28 -19 -38.5t-39 -10.5q-39 0 -39 49q0 81 -70 81q-42 0 -71.5 -64.5t-29.5 -168.5q0 -36 4 -70.5t14.5 -74t34.5 -63.5t58 -24
q85 0 79 132q-1 13 -10 16t-32 3h-7h-51q-11 0 -18.5 19t-7.5 34q0 17 11.5 29t32.5 12l108 -1q33 0 57 -21t24 -56q0 -46 -10 -88.5t-31 -81t-59 -61.5t-88 -23zM146 58q0 4 -20 26q-17 17 -34 48t-17 41q0 8 -7 8q-8 0 -8 -11q0 -24 30.5 -71t49.5 -47q6 0 6 6zM169 45
q0 7 -7 7t-7 -8q0 -7 7 -7t7 8z" />
    <glyph glyph-name="H" unicode="H" horiz-adv-x="382" 
d="M310 0q-50 0 -50 92v145q0 26 -13 26h-107q-18 0 -18 -16v-142q0 -23 -3.5 -44.5t-16 -41t-32.5 -19.5q-60 0 -60 105v441q0 11 4 25.5t18 29.5t35 15q27 0 41 -23t14 -49v-175q0 -20 13 -20l114 -1q4 0 6 1t3.5 5t1.5 13v173q0 76 45 76q25 0 46 -19.5t21 -59.5v-446
q0 -33 -16.5 -62t-45.5 -29zM27 555q5 -1 16 14.5t14 23.5q1 2 1 4.5t-1 4.5t-3 2q-12 -3 -20.5 -18t-8.5 -23q0 -7 2 -8zM297 575q0 4 3.5 11t4.5 9.5t-2 4.5q-8 1 -16.5 -9t-10.5 -23q-1 -14 5 -16q11 -1 16 23zM52 30q0 5 -4 9q-9 9 -9 47q0 17 -7 17q-6 0 -6 -17
q0 -16 5 -37.5t15 -21.5q6 0 6 3zM298 26q-6 6 -10.5 23.5t-4.5 27.5q0 4 -2 4q-7 0 -7 -23q0 -41 24 -41q3 0 2.5 3.5t-2.5 5.5z" />
    <glyph glyph-name="I" unicode="I" horiz-adv-x="232" 
d="M53 1q-35 0 -35 23q0 10 10 18t26 8q14 0 14 18v480q0 7 -8 13t-16 6q-35 0 -35 27q0 14 24 19.5t89 5.5q58 0 77 -3.5t19 -14.5q0 -24 -32 -35q-11 -4 -11 -19v-479q0 -18 7 -20q27 -8 28 -9q5 -5 5 -12q0 -13 -8 -19q-7 -6 -74 -8h-31t-29 0.5t-20 0.5zM102 149
q0 49 -9 49q-7 0 -8.5 -46.5t4.5 -52.5q8 -8 11 10q2 13 2 40zM102 77q0 3 -2 5t-4 2h-2q-10 0 -10 -7q0 -8 9 -8t9 8z" />
    <glyph glyph-name="J" unicode="J" horiz-adv-x="357" 
d="M175 -8q-86 0 -126.5 44t-40.5 113q0 91 42 91q52 0 52 -52q0 -21 1.5 -36t6.5 -33t17 -28t31 -10q36 0 49.5 24t13.5 94q0 20 0.5 91t0.5 122v105q0 8 -7 13.5t-16 5.5h-41q-53 0 -76 10t-23 33q0 27 27.5 32t124.5 5q116 0 124 -32q2 -8 0 -231q0 -39 -0.5 -87
t-0.5 -66t-1 -42.5t-3.5 -38t-6.5 -29.5q-13 -46 -57 -72t-91 -26zM115 594q2 5 -2 6q-7 2 -20.5 -2.5t-15.5 -10.5q-2 -9 3 -11q8 -2 20.5 5t14.5 13zM29 144q2 0 4 4t2.5 8.5t1.5 10t1 6.5q4 28 14 41q5 5 4 9q0 2 -2.5 3.5t-3.5 0.5q-15 -1 -22.5 -26.5t-6.5 -37.5
q1 -9 3 -14.5t5 -4.5z" />
    <glyph glyph-name="K" unicode="K" horiz-adv-x="389" 
d="M68 0q-11 0 -20 3.5t-14 11.5t-8 14t-4.5 20t-2 18.5t0 20.5t0.5 17v99l-1 198v99q0 61 11 88t48 27q23 0 40.5 -19t17.5 -48q0 -3 -0.5 -25.5t-0.5 -47v-50.5t1 -42.5t4 -16.5q6 0 40.5 62t74 124.5t59.5 62.5q22 0 41.5 -13t19.5 -36q0 -19 -73 -135t-73 -119
q0 -6 77.5 -124.5t77.5 -140.5q0 -23 -26 -36t-47 -13q-23 0 -56 58q-2 4 -15.5 29t-27 49.5t-28.5 51t-26.5 43t-15.5 16.5q-3 0 -5 -2t-2.5 -6t-0.5 -7.5v-9v-6.5v-51l1 -39v-23q0 -102 -67 -102zM38 561q8 -1 16.5 11.5t11.5 23.5q1 3 -2 5.5t-6 2.5q-7 0 -15.5 -16
t-7.5 -23q0 -4 3 -4zM288 558q7 -1 21 15t13 23q0 4 -4 4q-6 2 -22.5 -14t-14.5 -22q2 -5 7 -6zM53 70q0 64 -10 64q-11 0 -11 -39q0 -52 15 -52q6 0 6 27zM314 21q0 7 -11 22.5t-17 15.5q-4 0 -4 -9q0 -8 9 -21.5t17 -13.5q6 0 6 6zM63 25q1 4 -1.5 7.5t-6.5 3.5t-7 -3.5
t-1 -7.5q2 -8 8 -8t8 8z" />
    <glyph glyph-name="L" unicode="L" horiz-adv-x="321" 
d="M60 0q-11 0 -19.5 8t-8.5 19v526q0 63 58 63q22 0 39 -18t17 -38v-439q0 -27 23 -27t56.5 1.5t56.5 1.5q24 0 24 -43q0 -20 -12.5 -37.5t-26.5 -17.5h-47l-83 1h-77zM50 549q5 0 16 21t12 29q0 5 -8 5q-10 -1 -18.5 -20t-6.5 -29q0 -6 5 -6zM61 59q10 0 10 96
q0 36 -14 36q-8 0 -8 -61q0 -71 12 -71zM78 30q0 11 -7 11q-10 0 -10 -11q0 -8 8 -8q9 0 9 8z" />
    <glyph glyph-name="M" unicode="M" horiz-adv-x="492" 
d="M410 0q-48 0 -48 92l3 294q0 24 -10 24q-8 0 -29 -35.5t-46 -71t-42 -35.5q-9 0 -20 9t-23.5 26t-22 32t-21.5 35.5t-16 27.5t-7 7q-5 0 -5 -22v-295q0 -43 -18.5 -65.5t-47.5 -22.5q-35 0 -35 84v363q0 117 16 143t37 26q29 0 61.5 -43t60 -97t33.5 -61q4 -6 10 -6
q5 0 8 6q2 4 34.5 64t62 98.5t52.5 38.5q25 0 42 -16t24 -41t9.5 -43.5t2.5 -35.5v-392q0 -34 -18.5 -61t-46.5 -27zM47 514q4 41 28 79q2 3 -1 5t-6 2q-11 1 -22 -24t-12 -44q-2 -24 4 -25q9 0 9 7zM406 22q0 6 -6.5 24t-6.5 31q0 14 -11 14q-7 0 -7 -12q0 -15 8.5 -38.5
t19.5 -23.5q3 0 3 5zM60 19q0 8 -8.5 26.5t-15.5 18.5q-2 -2 -2 -13.5t6 -25t15 -13.5q5 0 5 7z" />
    <glyph glyph-name="N" unicode="N" horiz-adv-x="439" 
d="M72 0q-53 0 -53 103v460q0 25 14.5 39t33.5 14q61 0 92 -63q14 -27 123 -253q12 -25 20 -25q7 0 7 18v246q0 38 11 57.5t46 19.5q18 0 28.5 -5t14.5 -15t5 -16t1 -18v-449q0 -113 -39 -113q-37 0 -63 41q-24 39 -80.5 139.5t-85.5 168.5q-9 22 -14 22q-7 0 -7 -67v-159
q0 -78 -12.5 -111.5t-41.5 -33.5zM340 547q1 2 5 19t8 22q9 12 -5 15q-7 1 -14 -17.5t-8 -35t5 -20.5q4 0 9 17zM44 544q4 26 11 42q7 14 0 14q-9 0 -17 -19q-6 -14 -7.5 -38t4.5 -25q6 0 9 26zM44 490q0 7 -5 7q-7 0 -7 -7q0 -9 5 -9q7 0 7 9zM69 23q0 1 -5 8t-10 18.5
t-5 24.5q0 11 -5 11t-5 -14q0 -19 8.5 -36t16.5 -17q5 0 5 5z" />
    <glyph glyph-name="O" unicode="O" horiz-adv-x="444" 
d="M231 -9q-69 0 -119.5 46t-73 113.5t-22.5 145.5q0 80 20.5 152t71.5 124.5t124 52.5q99 0 150.5 -95.5t51.5 -238.5q0 -77 -20.5 -143t-68 -111.5t-114.5 -45.5zM79 468q3 0 9 9t14 23t13 21q12 16 28 32.5t24.5 25t8.5 10.5q0 3 -5 4q-23 0 -59.5 -47.5t-36.5 -72.5
q0 -5 4 -5zM231 71q28 0 48 21.5t30 57.5t14 72.5t4 76.5q0 234 -95 234q-29 0 -51 -27t-32 -68.5t-14.5 -77t-4.5 -64.5q0 -32 3.5 -64t13 -71.5t31 -64.5t53.5 -25zM80 446q0 8 -7 10q-4 0 -8.5 -4t-4.5 -11q0 -9 8 -9q4 0 8 3.5t4 10.5z" />
    <glyph glyph-name="P" unicode="P" horiz-adv-x="396" 
d="M71 0q-23 0 -38.5 16.5t-15.5 52.5v457q0 41 30 65.5t73 24.5h59q33 0 66.5 -12.5t65 -37t51 -69t19.5 -100.5q0 -109 -63.5 -178.5t-131.5 -69.5h-29q-26 0 -26 -17v-67q0 -32 -18.5 -48.5t-41.5 -16.5zM162 238h13q38 0 65 36.5t27 110.5q0 79 -26 113t-63 34h-22
q-25 0 -25 -34v-237q0 -23 31 -23zM57 35q-12 12 -12 45q0 25 -7 25q-8 0 -8 -29q0 -24 7 -40t17 -16q8 0 8 6q0 4 -5 9z" />
    <glyph glyph-name="Q" unicode="Q" horiz-adv-x="454" 
d="M438 291q0 -65 -18.5 -117.5t-37 -79.5t-18.5 -30q0 -5 59 -5q18 0 18 -39q0 -11 -1.5 -18t-8 -9.5t-9.5 -3t-16 0t-18 0.5h-38l-77 1h-38q-53 0 -96 29.5t-68 76.5t-38 98.5t-13 100.5q0 51 12.5 105.5t37 106t68 84.5t98.5 33q49 0 86.5 -22.5t59 -56.5t34.5 -80.5
t17.5 -88t4.5 -86.5zM87 483q3 0 9 8.5t15 22t15 20.5q13 16 29.5 30.5t26.5 22.5t10 10q0 5 -4 5q-13 1 -34 -15.5t-38 -37.5q-31 -40 -33 -62q0 -4 4 -4zM235 71q28 0 47.5 18.5t28.5 41t14 60.5t5.5 57t0.5 51q0 234 -95 234q-29 0 -51 -27t-32 -68.5t-14.5 -77
t-4.5 -64.5q0 -32 3.5 -64t13 -71.5t31 -64.5t53.5 -25zM86 460q0 11 -6 11q-4 0 -8.5 -3.5t-5.5 -10.5q-2 -9 7 -9q4 -1 8 2.5t5 9.5z" />
    <glyph glyph-name="R" unicode="R" horiz-adv-x="365" 
d="M313 0q-5 0 -9.5 1t-8 3t-6.5 3.5t-6 5t-4.5 5.5t-4.5 6.5t-3.5 6.5t-3.5 7t-3 6q-4 7 -15 33t-22.5 50.5t-25 50t-26.5 41.5t-23 16h-10q-13 0 -13 -27v-140q0 -31 -16 -49.5t-44 -18.5q-27 0 -38.5 22.5t-11.5 46.5v458q0 54 11.5 71.5t54.5 17.5h83q73 0 124.5 -43.5
t51.5 -127.5q0 -70 -31 -116t-70 -60q-6 -2 -6 -8q0 -4 5 -9q39 -39 59 -61.5t42 -65.5t22 -85q0 -19 -16 -29.5t-36 -10.5zM173 331q30 0 51 33t21 81q0 40 -15.5 60t-53.5 21l-24 1q-12 1 -15.5 -3.5t-3.5 -20.5v-159q0 -13 18 -13h22zM67 27q0 4 -4.5 6.5t-5.5 5.5
q-4 11 -7 26t-5.5 23t-5.5 8q-7 0 -7 -18q0 -13 8 -37t19 -24q8 0 8 10zM310 20q-1 2 -7 7.5t-7 7.5q-10 18 -12 37q0 8 -3 15.5t-5 7.5q-8 -2 -6 -35q1 -16 10 -31.5t21 -14.5q9 0 9 6z" />
    <glyph glyph-name="S" unicode="S" horiz-adv-x="357" 
d="M175 -9q-62 0 -112.5 42t-50.5 94q0 31 18 50.5t45 18.5q32 -1 32 -50q0 -37 13.5 -53.5t44.5 -16.5q64 0 64 65q0 26 -13 52t-24 38t-37 38q-72 72 -102.5 119.5t-30.5 88.5q0 68 42.5 107.5t116.5 39.5q52 0 98 -30t46 -63q0 -31 -18 -55t-43 -24q-13 0 -26 10.5
t-14 26.5q-2 42 -47 42q-42 0 -42 -48q0 -31 19 -61t72 -85q65 -67 90 -107.5t25 -78.5q0 -70 -46.5 -115t-119.5 -45zM80 543q11 20 26 32q11 10 10 18q-13 1 -35 -25.5t-24 -43.5q0 -6 6 -6q3 0 5.5 3t5.5 10.5t6 11.5zM64 498q0 7 -6 7q-8 0 -8 -8q0 -5 7 -6q5 0 7 7z
M49 129q3 6 9.5 20t7.5 20q0 5 -3 5q-17 2 -26.5 -21.5t-2.5 -47.5q4 -10 8 -10q3 0 3 4.5t0.5 13.5t3.5 16z" />
    <glyph glyph-name="T" unicode="T" horiz-adv-x="323" 
d="M162 0q-18 0 -35.5 11.5t-17.5 28.5v485h-7q-19 0 -31 0.5t-30 4.5t-27 14t-9 26q0 21 13.5 33.5t35.5 12.5h230q15 0 24 -13t9 -29q0 -22 -16 -33.5t-31.5 -13.5t-39.5 -2h-8v-478q0 -22 -18.5 -34.5t-41.5 -12.5zM28 553q5 0 5 7q0 20 12 38q3 5 -5 5q-9 0 -15 -11
t-6 -23q0 -16 9 -16zM143 23q9 0 9 9q0 4 -4 5q-11 3 -11 28q0 1 0.5 6t0.5 9.5v9t-1.5 7.5t-4.5 3q-11 0 -11 -32q0 -14 5.5 -29.5t16.5 -15.5z" />
    <glyph glyph-name="U" unicode="U" horiz-adv-x="423" 
d="M208 -4q-90 0 -142.5 61.5t-52.5 163.5v309q0 30 12 58t41 28q34 0 47.5 -18t13.5 -70v-300v-19.5v-20t1 -18t2.5 -19t4.5 -16t7 -15.5t10.5 -11.5t15 -10t19.5 -5t25 -2.5q20 0 35 7t24 23t14 29.5t7 39.5t2.5 40t0.5 42v12v247q0 17 3.5 35t15.5 35t31 17q63 0 63 -86
v-286q0 -116 -51.5 -183t-148.5 -67zM323 556q0 14 13 28q15 19 0 19q-8 0 -17 -15q-9 -18 -10 -30q0 -14 7 -14t7 12zM55 570q2 5 8.5 14t6.5 14t-3 5q-11 0 -20 -13t-13.5 -26.5t-4 -21t4.5 -7.5q8 0 21 35zM124 48q0 2 -3 5t-9.5 8.5t-10.5 10.5q-27 29 -36 50
q-8 18 -16 18q-4 0 -4 -7q1 -19 27.5 -55t45.5 -36q6 0 6 6zM147 39q0 1 -2.5 4t-5.5 3q-9 -2 -9 -9q2 -8 8 -7q9 0 9 9z" />
    <glyph glyph-name="V" unicode="V" horiz-adv-x="432" 
d="M219 -5q-66 0 -85 57q-50 156 -87 307.5t-37 211.5q0 45 63 45q15 0 24.5 -16t18.5 -57q13 -63 51.5 -221.5t43.5 -175.5q6 -20 9 -20q6 0 11 20q10 34 35 148t48 206t34 107q7 10 21 10q11 0 32 -8t21 -18q0 -38 -62 -282t-83 -282q-17 -32 -58 -32zM359 569q6 16 7 23
t-3 9q-8 -1 -15.5 -19.5t-5.5 -29.5q2 -8 6 -8l3 1.5t1.5 2.5t1 4.5t2 7t3.5 9.5zM38 556q-2 22 2 29q7 15 -1 15q-8 -1 -12 -17t-2 -37q1 -7 3 -10.5t5 -2.5q6 0 5 23zM174 46q-5 7 -9 17t-7 16.5t-6 6.5q-4 -1 -3.5 -9t5 -20t9.5 -21q5 -8 14 -13.5t14.5 -7.5t8.5 -2
t-0.5 4t-11.5 12.5t-14 16.5z" />
    <glyph glyph-name="W" unicode="W" horiz-adv-x="579" 
d="M392 0q-43 0 -65 21t-37 66q-1 3 -3 13t-4 16.5t-4 6.5q-1 0 -10 -26q-21 -55 -41 -76t-58 -21q-78 0 -116.5 49.5t-38.5 133.5v355q0 26 15 52t46 26q51 0 51 -73l1 -350q0 -31 10.5 -64.5t33.5 -33.5q15 0 26.5 14.5t18.5 44.5t11.5 64t7 84t3 92t0.5 100q0 65 10 89
t40 24q29 0 39 -28t10 -124q0 -173 2 -227.5t11 -81.5q16 -52 42 -52q59 0 59 145v316q0 61 50 61q30 0 45.5 -16.5t15.5 -44.5v-335q0 -89 -46.5 -154.5t-124.5 -65.5zM40 531q10 0 13 19q2 10 13 25t13 20q0 8 -7 8q-12 0 -25.5 -21.5t-13.5 -38.5q0 -12 7 -12zM485 549
q0 15 10 33t0 18q-15 0 -22 -17q-5 -16 -3.5 -31t9.5 -15q6 0 6 12zM266 543q0 12 7 26t8.5 18t-0.5 5q-11 0 -18 -11q-7 -9 -9.5 -21t0 -20t7.5 -8t5 11zM117 37q0 3 -6.5 8t-15 11.5t-11.5 10.5q-6 6 -11 14.5t-8 13t-6 4.5q-4 -2 -3 -12t12.5 -26t27.5 -27q9 -7 16 -5
q5 0 5 8zM383 22q0 6 -10 6q-14 2 -31 29q-10 15 -18 17q-3 0 -3 -5q-1 -8 15.5 -29.5t35.5 -22.5q10 0 11 5z" />
    <glyph glyph-name="X" unicode="X" horiz-adv-x="424" 
d="M42 -3q-15 0 -26.5 10t-11.5 22q0 7 4 14l129 222q16 28 16 39t-13 31l-112 191q-14 24 -14 48q0 16 15.5 29t40.5 13q13 0 23 -10t30 -44l78 -132q14 -22 15 -22q2 0 14 22l95 172q7 14 25 14q21 0 43 -15t8 -40l-113 -208q-16 -29 -16 -37q0 -3 27 -51l123 -222
q4 -6 -3.5 -16t-24.5 -18.5t-36 -8.5q-18 0 -24 11l-103 178q-14 24 -18 24t-20 -27l-93 -152q-22 -37 -58 -37zM344 576q0 6 11 17t5 11q-15 0 -22 -13q-11 -20 0 -20q6 0 6 5zM45 563q0 9 5 16t5 9q-2 8 -9 8q-9 0 -13.5 -19t2.5 -33q4 -6 8 -5q3 1 3.5 5t-0.5 10.5
t-1 8.5zM365 13q3 5 -11 14q-5 3 -14 19t-11 16q-5 0 -5 -6q-1 -9 9.5 -27t21.5 -19q10 0 10 3zM33 20q-1 2 -3.5 6t-4.5 8t-1 7q1 7 -1 7.5t-5 -5.5q-3 -8 -0.5 -18t8.5 -12q4 -2 7 0t0 7z" />
    <glyph glyph-name="Y" unicode="Y" horiz-adv-x="417" 
d="M208 0q-25 0 -39 16t-14 36v139q0 25 -5.5 42t-25.5 61l-119 262q-8 16 9.5 38t47.5 22q22 0 31 -21l93 -218q14 -35 24 -35t25 35l100 223q7 16 32 16q24 0 37 -23t5 -41l-125 -271q-14 -30 -16.5 -45.5t-2.5 -61.5v-122q0 -28 -17.5 -40t-39.5 -12zM36 551q-2 6 -2 14
v10q-1 5 -3 9t-4 3q-18 -7 -5 -41q5 -11 12 -9q7 3 2 14zM192 33q-10 24 -11 41q-1 23 -5 23q-5 0 -6 -16q-1 -29 5.5 -44.5t16.5 -15.5q6 0 0 12z" />
    <glyph glyph-name="Z" unicode="Z" horiz-adv-x="355" 
d="M78 0q-27 0 -48 13t-21 42q0 25 11 47l208 411q3 6 3 12q-1 6 -11 6l-178 2q-13 0 -21.5 10.5t-8.5 25.5q0 49 48 49l246 -2q41 0 41 -68q0 -30 -15 -60l-174 -330q-25 -47 -25 -58q0 -13 28 -13l148 -1q39 0 39 -51q0 -14 -9 -24.5t-18 -10.5h-243zM42 574q10 17 9 21
q0 2 -3.5 4.5t-5.5 2.5q-20 -3 -15 -42q0 -8 6 -8q2 0 9 22zM35 49q7 -1 15.5 26.5t9.5 41.5q0 4 -4 4q-9 -1 -19 -20.5t-11 -29.5q-2 -22 9 -22zM50 27q0 7 -5 7q-9 0 -9 -9q0 -6 5 -6q9 0 9 8z" />
    <glyph glyph-name="bracketleft" unicode="[" horiz-adv-x="260" 
d="M44 -70q-6 6 -7 54t-1 282q0 316 5 349q3 23 12 34q13 15 117 15q59 0 70 -24q5 -11 -7 -24q-12 -14 -63 -14q-27 0 -31 -7t-4 -38v-577h18q43 0 57.5 -7.5t14.5 -28.5q0 -19 -15.5 -23t-78.5 -4q-55 0 -67.5 1.5t-19.5 11.5zM81 616q2 7 11 13.5t15 6.5q9 0 9 7
q0 1 -9 1q-16 0 -29.5 -10t-13.5 -24q0 -12 4 -12q8 0 13 18z" />
    <glyph glyph-name="backslash" unicode="\" horiz-adv-x="384" 
d="M82 666q13 0 63 -116.5t105.5 -258t58.5 -149.5q69 -156 69 -186q0 -13 -17 -23t-32 -10q-26 0 -44 30q-23 39 -147.5 351t-124.5 326q0 16 27 26t42 10zM57 626q-1 3 -5 3.5t-8 -2.5t-4 -7q0 -10 15.5 -46.5t22.5 -50.5q4 -8 15 -4q6 1 -0.5 19.5t-19.5 48t-16 39.5z
" />
    <glyph glyph-name="bracketright" unicode="]" horiz-adv-x="239" 
d="M50 -80q-14 0 -25 8t-11 17q0 38 47 38q45 0 56 7.5t11 30.5v530q0 26 -10.5 37.5t-24.5 11.5q-8 0 -23.5 -2t-22.5 -2q-33 0 -33 37q0 12 17 20.5t45 8.5q133 0 141 -15q2 -4 3 -13.5t1 -36.5v-60t0.5 -100.5t1.5 -141.5q4 -242 3 -274q-1 -92 -47 -97q-38 -4 -129 -4z
M45 644q-4 5 -11 1t-7 -12q0 -10 4 -10t4 7q0 2 6.5 6t3.5 8z" />
    <glyph glyph-name="asciicircum" unicode="^" horiz-adv-x="237" 
d="M18 465q4 31 46.5 105t59.5 74q16 0 53 -82t37 -106q0 -9 -8 -17t-17 -8q-11 0 -35 49.5t-30 49.5q-3 0 -31 -49.5t-42 -49.5q-12 0 -23 11.5t-10 22.5zM94 583q4 0 8 6.5t8.5 15t7.5 11.5t3 8t-3 5q-6 0 -17.5 -17t-11.5 -23t5 -6z" />
    <glyph glyph-name="underscore" unicode="_" horiz-adv-x="312" 
d="M290 -38q0 -50 -66 -52q-78 -2 -158 -2q-53 0 -53 44q0 43 64 45q84 2 167 2q46 0 46 -37zM31 -67q7 0 16 17t9 22q0 11 -6 11q-12 0 -19 -12.5t-7 -24.5q0 -13 7 -13z" />
    <glyph glyph-name="grave" unicode="`" horiz-adv-x="213" 
d="M137 638q-8 -8 -15 -8q-16 0 -44 41t-32 63q-1 12 8 25t21 13q17 0 60 -60q15 -22 15 -41.5t-13 -32.5z" />
    <glyph glyph-name="a" unicode="a" horiz-adv-x="408" 
d="M158 -8q-67 0 -104.5 79.5t-37.5 219.5q0 152 44 238.5t124 91.5q26 1 47 -7t31 -19t17.5 -20t9.5 -9t4 14.5t12.5 29t32.5 14.5q19 0 32 -9.5t13 -22.5v-388q0 -31 3 -77.5t3 -55.5q0 -35 -13.5 -57t-34.5 -22q-24 0 -39 27t-15 69q0 26 -5 26q-3 0 -11.5 -19t-20 -42
t-36 -42t-56.5 -19zM312 557q5 0 9 20q1 5 3.5 11.5t4 10.5t1.5 7q0 5 -4 5q-6 0 -13.5 -11t-7.5 -25q0 -18 7 -18zM182 90q28 0 59.5 95.5t31.5 180.5q0 66 -21 114.5t-49 48.5q-33 0 -56.5 -65.5t-23.5 -157.5q0 -82 18.5 -149t40.5 -67zM110 33q4 0 6.5 3.5t1.5 6.5
q-1 2 -16.5 22t-18.5 32q-1 3 -3.5 14t-5 18t-6.5 7q-3 0 -4 -6t0.5 -17.5t5.5 -23.5q8 -21 20 -38.5t20 -17.5zM339 22q0 3 -11.5 16.5t-11.5 24.5t-7 11t-7 -12q0 -16 9 -32.5t18 -16.5q10 0 10 9zM135 17q8 0 12 13q3 12 -8 12q-12 0 -12 -12q0 -13 8 -13z" />
    <glyph glyph-name="b" unicode="b" horiz-adv-x="399" 
d="M66 0q-28 0 -38.5 22.5t-10.5 80.5v428q0 44 13.5 64.5t46.5 20.5q7 0 58 1.5t90 1.5q65 0 106.5 -45t41.5 -113q0 -45 -15.5 -77t-37.5 -46t-44 -20.5t-37.5 -8.5t-15.5 -4t9 -2t23 -1t31.5 -4t35 -12t31.5 -23t23 -40.5t9 -60.5q0 -75 -58 -118.5t-131 -43.5h-130z
M53 535q-5 6 -5 17q0 13 11 25.5t23 11.5q5 0 8.5 3.5t3.5 5.5q0 7 -14 7q-20 0 -34.5 -17.5t-14.5 -42.5q0 -26 11 -26q3 0 7 5t4 11zM144 356h36q34 0 56.5 28.5t22.5 71.5q0 70 -60 70h-53q-3 0 -6 -0.5t-5 -1.5t-3.5 -3t-2.5 -3t-2 -4l-1.5 -4.5t-0.5 -4.5v-4v-5v-4
v-104q0 -13 5.5 -22.5t13.5 -9.5zM153 91h34q84 0 84 82q0 76 -96 76h-31q-19 0 -19 -40v-82q0 -24 4.5 -30t23.5 -6zM43 73q6 0 6 75q0 42 -8 42q-7 0 -7 -42q0 -75 9 -75zM43 59q-8 0 -8 -11q0 -13 9 -13q6 0 6 13q0 7 -1 9t-6 2z" />
    <glyph glyph-name="c" unicode="c" horiz-adv-x="386" 
d="M212 -10q-91 0 -146 83.5t-55 218.5q0 143 60 237t152 94q75 0 115 -59t34 -166q-3 -57 -41 -57q-21 0 -33 6t-16.5 19.5t-5 23.5t1 30t1.5 28q0 34 -14 57t-39 23q-42 0 -69 -67t-27 -171q0 -96 24 -149t69 -53q21 0 37.5 19t16.5 42q0 25 11 42t34 17t37 -18t14 -45
q0 -63 -46.5 -109t-114.5 -46zM79 480q3 0 18 23t36 47t39 26q6 1 10 3.5t3 5.5q0 10 -13 8q-32 -2 -66 -43t-32 -66q3 -3 5 -4zM66 470q-12 -2 -10 -22q2 -8 4 -8q5 0 9 9t2 16q-3 5 -5 5z" />
    <glyph glyph-name="d" unicode="d" horiz-adv-x="410" 
d="M66 0q-28 0 -38.5 22.5t-10.5 80.5v428q0 44 13 64.5t41 20.5q46 0 46 -44q0 -20 3 -20t14.5 18t35 35.5t54.5 17.5q75 0 124.5 -92t49.5 -231q0 -145 -60.5 -222.5t-184.5 -77.5h-87zM53 526q-5 6 -5 17q0 15 14.5 30t14.5 16q0 5 -10 5q-14 0 -25 -17t-11 -41
q0 -26 11 -26q3 0 7 5t4 11zM187 91q44 0 70 55.5t26 150.5q0 100 -22.5 164.5t-60.5 64.5q-26 0 -47.5 -24.5t-21.5 -62.5v-312q0 -24 4.5 -30t23.5 -6h28zM43 73q6 0 6 75q0 42 -8 42q-7 0 -7 -42q0 -75 9 -75zM43 59q-8 0 -8 -11q0 -13 9 -13q6 0 6 13q0 7 -1 9t-6 2z
" />
    <glyph glyph-name="e" unicode="e" 
d="M210 -10q-89 0 -144 83t-55 219q0 144 60.5 237.5t153.5 93.5q68 0 111 -49.5t39 -123.5q-5 -89 -69 -156t-153 -67q-17 0 -17 -14q0 -62 21.5 -93.5t58.5 -31.5q26 0 43.5 19.5t17.5 47.5q0 24 13 38.5t33 14.5q23 0 36.5 -19t13.5 -50q0 -61 -48 -105t-115 -44zM80 477
q3 0 18 23t36 47t39 26q6 1 10 3.5t3 5.5q0 10 -13 8q-32 -2 -66 -43t-32 -66q1 -7 5 -4zM133 315q3 -4 14 -4q51 0 91.5 45.5t40.5 97.5q0 32 -15.5 53t-38.5 21q-31 0 -56 -49t-34.5 -100.5t-1.5 -63.5zM67 467q-12 -2 -10 -22q2 -8 4 -8q5 0 9 9t2 16q-3 5 -5 5z" />
    <glyph glyph-name="f" unicode="f" horiz-adv-x="281" 
d="M92 0q-26 0 -34 30.5t-8 90.5v191h-16q-11 0 -18 14t-7 36q0 40 25 40h16v48q0 181 140 181q39 0 63.5 -20t24.5 -41q0 -19 -13 -37.5t-29 -18.5q-11 0 -21 14t-25 14q-10 0 -16 -5.5t-11 -28t-5 -63.5v-43h62q28 0 28 -42q0 -18 -7 -33t-22 -15h-60v-203
q0 -109 -65 -109h-2zM77 471q4 0 5.5 6t2 14t0.5 9q7 48 51 91q2 1 0.5 4.5t-3.5 3.5q-21 0 -41.5 -37.5t-20.5 -70.5q0 -20 6 -20zM90 29q0 7 -9 22t-10 23q0 22 -6 22q-4 0 -4 -18q0 -7 2.5 -21t7.5 -28t11 -13q8 2 8 13z" />
    <glyph glyph-name="g" unicode="g" horiz-adv-x="443" 
d="M221 -5q-60 0 -103 32t-64.5 85t-30.5 106t-9 110q0 79 23 144t79 109t137 44q30 0 57 -6.5t53 -21.5t42 -45t16 -72q0 -28 -19 -38.5t-39 -10.5q-39 0 -39 49q0 60 -65 60q-54 0 -90.5 -61.5t-36.5 -164.5q0 -36 4 -70.5t14.5 -74t34.5 -63.5t58 -24q41 0 67 48.5
t24 93.5q-1 13 -14 16t-40 3h-7h-62q-11 0 -18.5 19t-7.5 34q0 17 11.5 29t32.5 12l125 -1q29 0 52 -23t23 -65q0 -22 0.5 -65t0.5 -74q1 -64 -10 -86.5t-36 -22.5q-20 0 -29.5 20t-11.5 40t-4 20t-9.5 -13.5t-18 -29t-34.5 -29t-56 -13.5zM126 76q0 5 -16 28q-14 20 -26 53
t-10 43q1 10 -6 10q-8 0 -10 -11q-4 -23 19 -74.5t41 -53.5q7 -2 8 5zM389 25q0 4 -8 13t-9 18q0 19 -6 19q-7 0 -7 -18q0 -13 6.5 -28t15.5 -15q8 0 8 11zM146 59q1 3 -1.5 5.5t-4.5 2.5q-5 1 -8 -7q-1 -8 6 -8q6 0 8 7z" />
    <glyph glyph-name="h" unicode="h" 
d="M315 0q-50 0 -50 92v146q0 26 -9 26q-2 1 -4 0l-107 -31q-15 -4 -17 -9q-1 -3 -1 -7v-112q0 -22 -3 -43t-15.5 -41.5t-33.5 -20.5q-60 0 -60 105v437q0 27 15.5 48.5t41.5 21.5t40.5 -22t14.5 -50v-201q0 -6 0.5 -10t3.5 -7.5t9 -2.5l114 30q11 3 11 19v172q0 76 45 76
q31 0 49 -23.5t18 -55.5v-446q0 -33 -16 -62t-46 -29zM286 552q6 0 15.5 19t9.5 26q0 3 -4 3q-11 0 -18.5 -13t-7.5 -25q0 -10 5 -10zM57 30q0 2 -6.5 18.5t-6.5 37.5q0 17 -7 17q-6 0 -6 -17q0 -16 5 -37.5t15 -21.5zM306 20l-3 6q-15 20 -15 51l-2 4q-7 0 -7 -23
q0 -41 24 -41q3 0 3 3z" />
    <glyph glyph-name="i" unicode="i" horiz-adv-x="156" 
d="M76 559q-26 0 -42 16t-16 41q0 27 16.5 44t43.5 17t44 -15.5t17 -40.5q0 -26 -18.5 -44t-44.5 -18zM44 618q2 13 12.5 20.5t10.5 11.5q0 10 -10 10q-12 0 -20 -13t-8 -29q0 -26 9 -26q3 0 4 5.5t1.5 12.5t0.5 8zM75 -4q-23 0 -36.5 10t-13.5 26v438q0 24 12 45.5t38 21.5
q27 0 41.5 -19.5t14.5 -42.5v-443q0 -16 -16 -26t-40 -10zM43 440q3 0 4 9.5t1.5 23.5t2.5 21q0 1 2 7t1.5 7.5t-1.5 3.5q-9 0 -14 -16.5t-5 -29.5q0 -26 9 -26z" />
    <glyph glyph-name="j" unicode="j" horiz-adv-x="156" 
d="M76 559q-26 0 -42 16t-16 41q0 27 16.5 44t43.5 17t44 -15.5t17 -40.5q0 -26 -18.5 -44t-44.5 -18zM44 618q2 13 12.5 20.5t10.5 11.5q0 10 -10 10q-12 0 -20 -13t-8 -29q0 -26 9 -26q3 0 4 5.5t1.5 12.5t0.5 8zM131 82q0 -101 -30 -155t-103 -54q-57 0 -57 55
q0 51 24 51q4 0 13.5 -2.5t14.5 -2.5q32 0 32 108v388q0 24 12 45.5t38 21.5q27 0 41.5 -19.5t14.5 -42.5v-393zM43 440q3 0 4 9.5t1.5 23.5t2.5 21q0 1 2 7t1.5 7.5t-1.5 3.5q-9 0 -14 -16.5t-5 -29.5q0 -26 9 -26zM-15 -103q0 9 -8.5 20t-8.5 17q0 23 -9 23q-6 0 -6 -21
q0 -18 7 -32.5t15 -14.5q10 0 10 8z" />
    <glyph glyph-name="k" unicode="k" horiz-adv-x="398" 
d="M68 0q-11 0 -20 3.5t-14 11.5t-8 14t-4.5 20t-2 18.5t0 20.5t0.5 17v99l-1 198v99q0 61 11 88t48 27q23 0 40.5 -19t17.5 -48q0 -3 -0.5 -26.5t-0.5 -49.5v-53t1 -44.5t4 -17.5q6 0 42 64.5t77 129t61 64.5q22 0 41.5 -13t19.5 -36q0 -19 -73.5 -129.5t-73.5 -113.5
q0 -6 84.5 -130t84.5 -146q0 -23 -26 -36t-47 -13q-23 0 -56 58q-10 19 -49 81t-56 85q-8 12 -17 0l-10 -13q-8 -11 -8 -32v-23l1 -30v-23q0 -102 -67 -102zM38 561q8 -1 18.5 11t13.5 22q1 3 -2 5.5t-6 2.5q-7 0 -17.5 -15t-9.5 -22q0 -4 3 -4zM294 558q7 -1 19.5 15
t10.5 24q0 4 -4 4q-6 2 -20.5 -14.5t-12.5 -22.5q2 -5 7 -6zM53 81q0 77 -10 77q-11 0 -11 -39q0 -65 15 -65q6 0 6 27zM333 21q0 7 -11 22.5t-17 15.5q-4 0 -4 -9q0 -8 9 -21.5t17 -13.5q6 0 6 6zM62 31q1 5 -2.5 10t-8.5 5q-6 0 -9.5 -5t-1.5 -10q4 -10 11 -10t11 10z" />
    <glyph glyph-name="l" unicode="l" horiz-adv-x="192" 
d="M90 0q-46 0 -59 27t-13 86v450q0 55 53 55q26 0 39 -17t13 -35v-429q0 -43 13 -43h11q14 0 22.5 -13.5t8.5 -33.5q0 -47 -44 -47h-44zM38 523q3 0 6 10.5t6.5 25t7.5 21.5q3 5 5 9.5t3 8.5t0 6.5t-5 2.5q-12 0 -21.5 -15t-9.5 -41q0 -28 8 -28z" />
    <glyph glyph-name="m" unicode="m" horiz-adv-x="584" 
d="M67 0q-28 0 -36.5 17t-8.5 48v477q0 16 1 25t4.5 22.5t13 20t24.5 6.5q24 0 35.5 -23.5t14 -47t3.5 -23.5t4 10t9.5 24.5t16.5 29t29 24.5t43 10q33 0 55.5 -24t33 -48.5t12.5 -24.5t11.5 24.5t33.5 48.5t62 24q40 0 67 -19.5t41 -57t19.5 -82t5.5 -105.5v-329
q0 -13 -18 -20t-40 -7q-42 0 -42 26v321v7q1 167 -51 167q-33 0 -46 -46t-18 -142q-3 -45 -4 -99.5t-0.5 -91.5t1 -73t0.5 -38q0 -14 -16 -22.5t-41 -8.5t-34.5 7.5t-9.5 30.5v309v7q2 168 -48 168q-73 0 -73 -255v-222q0 -19 -16 -32t-38 -13zM46 522q7 1 7 30q0 7 3 21
t4 19t-4 8q-9 0 -14 -11.5t-6.5 -21.5t-1.5 -17q0 -29 12 -28zM277 23q0 6 -6.5 13t-6.5 15q0 33 -8 33q-5 0 -5 -34q0 -39 17 -39q9 0 9 12zM493 24q0 6 -5.5 17t-5.5 19q0 24 -7 24q-6 0 -6 -25q0 -46 16 -46q8 0 8 11zM65 24q0 6 -2 9t-6 5.5t-6 5.5q-2 2 -2 10.5
t-1 15.5t-5 7q-6 0 -6 -26q0 -10 5 -23.5t14 -13.5t9 10z" />
    <glyph glyph-name="n" unicode="n" horiz-adv-x="391" 
d="M67 0q-25 0 -35 14.5t-10 50.5v477q0 44 9.5 59t38.5 15q55 0 55 -45v-14q0 -40 4 -40q2 0 12 25.5t36.5 51.5t69.5 26q64 0 93 -63t29 -201v-325q0 -31 -56 -31q-25 0 -38 10.5t-13 23.5v313q0 68 -5.5 104t-16 48.5t-29.5 12.5q-41 0 -61 -68.5t-20 -176.5v-222
q0 -18 -13 -29t-25 -13.5t-25 -2.5zM42 515q4 0 8.5 35.5t4.5 44.5q0 8 -3 8q-9 0 -13.5 -21t-4.5 -35q0 -32 8 -32zM299 29q0 7 -6.5 14t-6.5 17q0 24 -8 24t-8 -25q0 -19 6 -31.5t14 -12.5q9 0 9 14zM66 26q0 5 -8 12.5t-8 17.5q0 21 -7 21q-6 0 -6 -26q0 -15 6.5 -27
t14.5 -12t8 14z" />
    <glyph glyph-name="o" unicode="o" 
d="M197 -7q-50 0 -87 26.5t-57 71.5t-29 96.5t-9 110.5q0 60 9 113.5t28.5 103t57 79t87.5 29.5q51 0 87.5 -26t56 -72.5t28 -99.5t8.5 -118q0 -64 -9 -117.5t-28.5 -99.5t-56 -71.5t-86.5 -25.5zM85 505q14 36 39 56q5 5 1.5 10.5t-6.5 5.5q-11 0 -31.5 -33.5t-20.5 -52.5
q0 -8 5 -8q4 0 13 22zM197 56q23 0 40 26.5t24.5 69t11 81t3.5 75.5q0 40 -5.5 92.5t-25 106.5t-48.5 54t-48 -55.5t-23.5 -106.5t-4.5 -92q0 -37 3.5 -75.5t11 -80.5t23.5 -68.5t38 -26.5zM71 461q0 15 -9 15q-10 0 -10 -17q0 -14 10 -14q1 0 3 1.5t4 5.5t2 9z" />
    <glyph glyph-name="p" unicode="p" horiz-adv-x="388" 
d="M17 69v462q0 44 13.5 64.5t46.5 20.5q17 0 28.5 -10t11.5 -20q0 -34 6 -34q2 0 9.5 11t17.5 24.5t30 24.5t45 11q66 0 107 -60t41 -158q0 -116 -47.5 -185t-129.5 -70l-45 -1q-20 0 -20 -55v-29q0 -32 -18.5 -48.5t-41.5 -16.5t-38.5 16.5t-15.5 52.5zM53 535q-5 6 -5 17
q0 15 14.5 30t14.5 16q0 5 -10 5q-14 0 -25 -17t-11 -41q0 -26 11 -26q3 0 7 5t4 11zM150 241h30q34 0 56 44t22 115q0 126 -53 126q-34 0 -54 -24.5t-20 -56.5v-172q0 -13 5.5 -22.5t13.5 -9.5zM57 35q-12 12 -12 45q0 25 -7 25q-8 0 -8 -29q0 -24 7 -40t17 -16q8 0 8 6
q0 4 -5 9z" />
    <glyph glyph-name="q" unicode="q" 
d="M246 0q-4 -2 -4 -14t2 -34.5t2 -34.5q0 -15 -10.5 -28t-32.5 -13q-42 0 -42 49q0 10 0.5 27.5t0.5 25.5q0 18 -5 20q-74 30 -108 111t-34 189q0 60 9 113.5t28.5 103t57 79t87.5 29.5q51 0 87.5 -26t56 -72.5t28 -99.5t8.5 -118q0 -112 -32 -194t-99 -113zM85 505
q14 36 39 56q5 5 1.5 10.5t-6.5 5.5q-11 0 -31.5 -33.5t-20.5 -52.5q0 -8 5 -8q4 0 13 22zM197 56q23 0 40 26.5t24.5 69t11 81t3.5 75.5q0 40 -5.5 92.5t-25 106.5t-48.5 54t-48 -55.5t-23.5 -106.5t-4.5 -92q0 -37 3.5 -75.5t11 -80.5t23.5 -68.5t38 -26.5zM71 461
q0 15 -9 15q-10 0 -10 -17q0 -14 10 -14q1 0 3 1.5t4 5.5t2 9zM208 -97q0 9 -9.5 16t-9.5 13q0 18 -9 18q-5 0 -5 -20q0 -12 6.5 -25.5t15.5 -13.5q11 0 11 12z" />
    <glyph glyph-name="r" unicode="r" horiz-adv-x="260" 
d="M59 0q-45 0 -45 64v460q0 53 10.5 73.5t37.5 20.5q23 0 36.5 -19t13.5 -53q0 -22 3 -22q1 0 5 10q6 15 9.5 22t14.5 25.5t27.5 27.5t37.5 9q20 0 32 -12t12 -31q0 -22 -9 -38.5t-28 -16.5q-38 0 -66.5 -63t-28.5 -130v-272q0 -28 -18.5 -41.5t-43.5 -13.5zM41 576
q0 2 1.5 6.5l2.5 7.5t1.5 6t-0.5 4.5t-4 1.5q-5 0 -10 -11t-5 -21q0 -21 7 -21q3 0 4.5 5.5t2 13t0.5 8.5zM41 50q-8 31 -9 31q-5 0 -5 -17q0 -18 5 -32t12 -14t7 7q0 2 -4 10t-6 15z" />
    <glyph glyph-name="s" unicode="s" horiz-adv-x="360" 
d="M175 -9q-67 0 -119.5 54.5t-52.5 142.5q0 31 18 50.5t45 18.5q32 -1 32 -50q0 -42 19.5 -86.5t47.5 -44.5q64 0 64 65q0 26 -13 52t-24 38t-37 38q-72 72 -102.5 119.5t-30.5 88.5q0 68 42.5 107.5t116.5 39.5q64 0 108.5 -52.5t44.5 -112.5q0 -31 -18 -55t-43 -24
q-14 0 -27 10.5t-13 26.5q0 55 -16 84.5t-40 29.5q-42 0 -42 -48q0 -31 19 -61t72 -85q65 -67 90 -107.5t25 -78.5q0 -70 -46.5 -115t-119.5 -45zM80 543q11 20 26 32q11 10 10 18q-13 1 -35 -25.5t-24 -43.5q0 -6 6 -6q3 0 5.5 3t5.5 10.5t6 11.5zM64 498q0 7 -6 7
q-8 0 -8 -8q0 -5 7 -6q5 0 7 7zM40 190q3 6 9.5 20t7.5 20q0 5 -3 5q-17 2 -26.5 -21.5t-2.5 -47.5q4 -10 8 -10q3 0 3 4.5t0.5 13.5t3.5 16z" />
    <glyph glyph-name="t" unicode="t" horiz-adv-x="233" 
d="M146 0q-25 0 -43 7t-29 24t-17.5 32t-9 44t-3 46.5t-0.5 52.5v172h-11q-31 0 -31 39q0 37 31 37h11v98q0 66 48 66q55 0 55 -69v-95h31q33 0 33 -31q0 -45 -29 -45h-35v-188q0 -58 3 -79.5t13 -21.5h8l16 3q37 0 37 -46t-78 -46zM70 573q1 3 3.5 8.5t4.5 9t3 6.5t0 5
t-4 2q-9 0 -15 -14t-6 -25q0 -21 5 -21q2 0 3.5 5t3 13t2.5 11zM22 424q0 3 0.5 8t1 7t-0.5 3q-12 0 -12 -26q0 -22 10 -22q3 0 3 4.5t-1 13t-1 12.5zM99 50q0 1 -8.5 20t-9.5 30q-2 17 -12 17q-7 0 -7 -22q0 -11 9.5 -33.5t18.5 -22.5q3 0 6 4t3 7z" />
    <glyph glyph-name="u" unicode="u" horiz-adv-x="385" 
d="M312 0q-38 0 -38 59q0 25 -4 25q-2 0 -3.5 -2t-5.5 -7.5t-7 -9.5q-49 -65 -101 -65q-65 0 -102.5 44t-37.5 120v405q0 23 13.5 35.5t34.5 12.5q23 0 41 -15t18 -36v-392q0 -34 13.5 -55.5t35.5 -21.5q35 0 65 47t30 91v319q0 63 47 63q25 0 42 -17.5t17 -57.5v-467
q0 -75 -58 -75zM299 588q7 8 5.5 12.5t-8.5 4.5t-14.5 -13t-7.5 -25q0 -10 7 -10q2 0 4 5t5.5 13t8.5 13zM53 597q0 7 -4 7q-6 0 -15.5 -12.5t-9.5 -23.5q0 -10 5 -10t14.5 16.5t9.5 22.5zM95 52q0 7 -14.5 17t-18.5 23q-9 24 -13 24q-8 0 -8 -13q0 -14 17.5 -38.5
t28.5 -24.5q8 0 8 12zM300 52q-2 24 -5 24q-7 0 -7 -21q0 -13 6 -28t13 -15q2 2 1 6.5t-4.5 15.5t-3.5 18z" />
    <glyph glyph-name="v" unicode="v" horiz-adv-x="355" 
d="M187 -2q-73 0 -89 31q-17 30 -53.5 254t-36.5 284q0 21 14 36t35 15q58 0 66 -49q1 -8 14 -133t26.5 -233t21.5 -108q6 0 28 152l15 105t20.5 140t15.5 90q8 35 31 35q16 0 35.5 -9t19.5 -23q0 -25 -38.5 -260t-54.5 -285q-7 -23 -28.5 -32.5t-41.5 -9.5zM291 584
q0 13 -4 13t-8 -11t-4 -22q0 -15 4 -15t8 14.5t4 20.5zM40 579q4 7 2.5 12t-6.5 5q-6 0 -10.5 -15.5t-4.5 -35.5q0 -23 5 -23q3 0 5 11.5t4 26t5 19.5zM125 40q-4 6 -7.5 17.5t-6.5 18.5t-6 7q-4 0 -4 -12q0 -9 6.5 -28.5t13.5 -19.5q5 0 6.5 4.5t-2.5 12.5z" />
    <glyph glyph-name="w" unicode="w" horiz-adv-x="568" 
d="M177 -2q-73 0 -89 31q-16 29 -48.5 252.5t-32.5 285.5q0 21 14 36t35 15q53 0 61 -49q1 -9 13 -134.5t24.5 -234.5t20.5 -109q2 0 18 114.5t33 238t20 138.5q5 22 15.5 29t32.5 7q54 0 62 -49q2 -10 12.5 -135.5t22 -235.5t19.5 -110q2 0 18 115t33 239.5t20 139.5
q8 35 31 35q16 0 35.5 -9t19.5 -23q0 -27 -34.5 -261t-50.5 -284q-7 -23 -28.5 -32.5t-41.5 -9.5q-71 0 -89 31q-4 7 -12 73.5t-15.5 128.5t-10.5 62q-4 0 -12 -57t-16 -121t-12 -75q-7 -23 -27.5 -32.5t-40.5 -9.5zM508 584q0 13 -4 13t-8 -11t-4 -22q0 -15 4 -15t8 14.5
t4 20.5zM273 584q0 13 -4 13t-8 -11t-4 -22q0 -15 4 -15t8 14.5t4 20.5zM39 579q4 7 2.5 12t-6.5 5q-6 0 -10.5 -15.5t-4.5 -35.5q0 -23 5 -23q3 0 5 11.5t4 26t5 19.5zM350 40q-4 6 -7.5 17.5t-6.5 18.5t-6 7q-4 0 -4 -12q0 -9 6.5 -28.5t13.5 -19.5q5 0 6.5 4.5t-2.5 12.5
zM115 40q-4 6 -7.5 17.5t-6.5 18.5t-6 7q-4 0 -4 -12q0 -9 6.5 -28.5t13.5 -19.5q5 0 6.5 4.5t-2.5 12.5z" />
    <glyph glyph-name="x" unicode="x" horiz-adv-x="416" 
d="M42 -3q-15 0 -26.5 10t-11.5 22q0 7 4 14l122 239q16 30 16 39q0 11 -13 31l-105 174q-14 24 -14 48q0 16 15.5 29t40.5 13q13 0 23 -10t30 -44l71 -123q14 -22 15 -22t2.5 2t4.5 8t7 12l102 163q8 14 25 14q22 0 44.5 -15t6.5 -40l-120 -191q-16 -27 -16 -37
q0 -3 27 -51l130 -239q3 -6 -4.5 -16t-24 -18.5t-35.5 -8.5q-18 0 -24 11l-107 190q-14 24 -18 24q-5 0 -20 -27l-89 -164q-20 -37 -58 -37zM337 568q0 8 15 22q14 14 6 14q-19 0 -29 -17q-15 -25 0 -25q8 0 8 6zM45 563q0 9 5 16t5 9q-2 8 -9 8q-9 0 -13.5 -19t2.5 -33
q4 -6 8 -5q3 1 3.5 5t-0.5 10.5t-1 8.5zM365 13q3 5 -11 14q-5 3 -14 19t-11 16q-5 0 -5 -6q-1 -9 9.5 -27t21.5 -19q10 0 10 3zM50 19q-18 18 -16 22q3 7 -1.5 7.5t-10.5 -5.5q-6 -8 -0.5 -18.5t15.5 -12.5q15 -3 15 2z" />
    <glyph glyph-name="y" unicode="y" horiz-adv-x="383" 
d="M188 -6q-59 0 -99.5 32.5t-40.5 83.5q0 23 9.5 39t24.5 16q16 0 27.5 -8t11.5 -22q0 -26 19.5 -41t47.5 -15q40 0 56.5 27.5t16.5 86.5v44q0 40 -2 40l-3 -5q-2 -4 -6 -11t-10.5 -15t-16 -16.5t-20 -15.5t-25 -11.5t-30.5 -4.5q-58 0 -99 50t-41 166v160q0 19 12 32
t33 13q29 0 45.5 -13t16.5 -35v-167q0 -68 12 -88.5t37 -20.5q36 0 65.5 49t29.5 108v107q0 30 13 46t35 16q21 0 41 -18t20 -56v-371q0 -87 -48 -134.5t-132 -47.5zM47 599q4 3 2 7.5t-6 4.5q-9 0 -16 -16t-7 -24q0 -13 5 -13q3 0 7 9t8 19.5t7 12.5zM288 584q4 6 6 9.5
t4 8t2 7t-3 2.5q-8 0 -17.5 -15.5t-9.5 -27.5q0 -11 7 -11q2 0 3.5 4t3 11t4.5 12zM69 271q-11 11 -18 29q-2 6 -3.5 12.5t-2.5 9.5t-2 3q-5 0 -5 -19q0 -12 13.5 -37t20.5 -25t7 10q0 7 -10 17zM64 80q6 0 7.5 7t3.5 20.5t6 22.5q2 5 3 13t-3 10q-7 0 -14 -16t-7 -32
q0 -25 4 -25z" />
    <glyph glyph-name="z" unicode="z" horiz-adv-x="361" 
d="M78 0q-27 0 -48 13t-21 42q0 25 11 47l81 160h-24q-31 0 -31 39q0 37 31 37h62l89 175q3 6 3 12q-1 6 -11 6l-178 2q-13 0 -21.5 10.5t-8.5 25.5q0 49 48 49l246 -2q41 0 41 -68q0 -30 -15 -60l-79 -150h30q33 0 33 -31q0 -45 -29 -45h-74l-55 -104q-25 -47 -25 -58
q0 -13 28 -13l148 -1q39 0 39 -51q0 -14 -9 -24.5t-18 -10.5h-243zM42 574q10 17 9 21q0 2 -3.5 4.5t-5.5 2.5q-20 -3 -15 -42q0 -8 6 -8q2 0 9 22zM69 306q0 3 1.5 8.5t2 8t-2.5 3.5q-5 0 -10 -8t-5 -18q0 -22 10 -22q4 0 4 28zM35 49q7 -1 15.5 26.5t9.5 41.5q0 4 -4 4
q-9 -1 -19 -20.5t-11 -29.5q-2 -22 9 -22zM50 27q0 7 -5 7q-9 0 -9 -9q0 -6 5 -6q9 0 9 8z" />
    <glyph glyph-name="braceleft" unicode="{" horiz-adv-x="322" 
d="M241 -77q-34 0 -60 6.5t-42 20.5t-26.5 28.5t-15.5 39.5t-7 43.5t-4 49.5q-2 33 -9 56.5t-16 34.5t-18 20.5t-15 22t-6 31.5t8.5 32.5t21 24.5t25 25.5t22 41.5t11.5 66q5 95 16 125q27 69 130 69q27 0 39 -12.5t12 -25.5q0 -14 -12.5 -19.5t-29 -5.5t-36 -5.5
t-29.5 -19.5q-12 -3 -3 -79.5t0 -114.5q-5 -22 -43 -59.5t-38 -41.5t17.5 -23t35 -49.5t17.5 -61.5q0 -4 -1 -27t-1.5 -42t1.5 -39t6 -26q22 -27 52 -27q16 0 24.5 -1t18 -8t9.5 -20q0 -30 -54 -30zM160 584q8 11 20.5 22t20 17.5t7.5 12.5q0 4 -5 4q-15 0 -39 -24t-24 -42
q0 -4 5 -4q4 0 15 14z" />
    <glyph glyph-name="bar" unicode="|" horiz-adv-x="179" 
d="M97 -99q-25 0 -37.5 17.5t-12.5 38.5l1 709q0 17 11 28.5t30 11.5q51 0 54 -34v-710q0 -61 -46 -61zM75 653q0 8 2 15t3.5 11t2.5 7.5t0 4.5t-5 1q-18 0 -18 -46q0 -34 12 -34q3 0 3.5 7t0 18.5t-0.5 15.5z" />
    <glyph glyph-name="braceright" unicode="}" horiz-adv-x="313" 
d="M75 -74q-18 0 -36 8t-18 24q0 21 45 21q20 0 33 5t18.5 17t7 21t2 29t1.5 29q13 150 47 184q1 1 9.5 7t8.5 9q0 4 -5.5 7t-12.5 5.5t-9 3.5q-41 25 -54 209q0 5 -0.5 18t-0.5 23.5t-1.5 22t-5.5 19t-11 8.5q-18 4 -36 3q-54 -4 -54 32q0 21 21.5 29t56.5 3
q115 -13 126 -161q1 -12 2 -38.5t2 -39.5t4 -34t8.5 -33t15 -23.5t23.5 -18.5q11 -5 22 -15t11 -19q0 -11 -18 -24q-15 -12 -24.5 -23t-13.5 -25.5t-5.5 -22.5t-2 -29.5t-0.5 -30.5q-5 -96 -19 -129q-31 -71 -137 -71zM28 616q6 0 12 13.5t6 19.5q0 7 -7 7
q-11 0 -16.5 -12.5t-3.5 -18.5q3 -9 9 -9z" />
    <glyph glyph-name="asciitilde" unicode="~" horiz-adv-x="445" 
d="M283 215q-34 0 -80 34.5t-57 34.5q-10 0 -22 -8.5t-16 -17.5q-8 -16 -14.5 -21t-22.5 -5q-12 0 -19.5 11.5t-7.5 25.5q0 32 33 69.5t64 37.5q30 0 81 -33.5t68 -33.5q19 0 35 31.5t37 31.5q24 0 24 -39q0 -46 -30 -82t-73 -36zM80 295q0 1 2 4t2 4.5t-2 5.5q-2 2 -8 2
q-13 -3 -16.5 -20t-0.5 -26q1 -6 6 -4q10 4 17 34z" />
    <glyph glyph-name="exclamdown" unicode="&#xa1;" horiz-adv-x="150" 
d="M82 616q21 0 34 -12t13 -34t-12.5 -37t-34.5 -15q-20 0 -31 15.5t-11 36.5t11.5 33.5t30.5 12.5zM68 556q-8 19 -11 19q-5 -2 -3 -11q3 -13 10 -23t15 -7q3 2 1.5 3.5t-6 7t-6.5 11.5zM81 496q33 0 44 -63t11 -214q0 -79 -1.5 -122t-6 -67.5t-11 -31t-19.5 -6.5
q-45 0 -53.5 36.5t-8.5 231.5q0 147 7 191.5t38 44.5zM71 376q3 0 4.5 2.5t1.5 8t-0.5 10.5t-1.5 13t-1 14q0 4 1 16t-1 17.5t-9 5.5q-10 0 -10 -38q0 -15 3 -27t6.5 -17t6.5 -5z" />
    <glyph glyph-name="cent" unicode="&#xa2;" horiz-adv-x="321" 
d="M153 532v42q0 87 33 87q28 0 28 -102q0 -20 2 -25q37 -6 57.5 -32.5t20.5 -69.5q0 -59 -34 -59q-15 0 -24.5 11t-9.5 31q0 18 -11 29t-29 11q-33 0 -52.5 -43t-19.5 -112q0 -126 82 -126q28 0 49 18t32 18q23 0 23 -31q0 -29 -24 -53t-61 -31q-1 -3 -1 -24
q0 -102 -28 -102q-6 0 -10.5 2t-8 7t-6 9.5t-4 12t-2 12.5t-1 13.5t-0.5 12.5v10.5v7.5v38q-58 10 -95 65t-37 140q0 199 131 233zM67 438q5 0 12 8t15 20.5t14 18.5q16 16 16 20q0 2 -3 2q-12 0 -34 -26.5t-22 -39.5q0 -3 2 -3zM66 418q0 7 -5 7q-8 0 -8 -8q0 -7 5 -7
q2 0 5 2.5t3 5.5z" />
    <glyph glyph-name="sterling" unicode="&#xa3;" horiz-adv-x="388" 
d="M32 28q0 6 1.5 13t4 12.5t8 18t10.5 24.5q22 57 22 122v33h-20q-18 0 -28 8.5t-10 21.5q0 14 7.5 26.5t23.5 12.5h25v67q0 233 163 233q48 0 84.5 -31t36.5 -81q0 -44 -23 -44q-17 0 -34 30q-27 48 -59 48q-44 0 -59.5 -41t-15.5 -122v-57h68q43 0 56 -10.5t13 -31.5
q0 -15 -10 -22t-45 -7h-82v-65q0 -52 -26 -107q-3 -6 -0.5 -7t9.5 1q2 0 3.5 0.5t3.5 0.5q23 4 67 4h57q42 0 59 -8t17 -27q0 -25 -12.5 -34.5t-40.5 -7.5q-12 2 -104.5 0.5t-109.5 -1.5q-60 0 -60 28zM111 460q2 0 8.5 17.5t19.5 43.5t30 41q20 20 13 23q-17 0 -42 -25
q-15 -15 -24.5 -43t-9.5 -48q0 -9 5 -9zM111 432q0 8 -9 8q-4 0 -6.5 -3t-3.5 -6v-3q0 -9 10 -9q9 0 9 13z" />
    <glyph glyph-name="currency" unicode="&#xa4;" horiz-adv-x="474" 
d="M94 130q-36 63 -46.5 97t-10.5 102q0 77 49 151q-45 64 -45 101q0 10 6.5 18.5t16.5 8.5q7 0 14.5 -4.5t14 -10t15 -15t13 -15.5t11.5 -16t8 -12q45 32 97 32t103 -36l8 11q8 11 13 17t14 16.5t16 16.5t15.5 11t14.5 5q10 0 16.5 -8.5t6.5 -18.5q0 -36 -43 -99
q40 -78 40 -155q0 -114 -58 -184q1 -2 12 -18.5t21 -32.5t19 -32.5t9 -21.5q0 -13 -9.5 -25.5t-21.5 -12.5q-6 0 -20.5 13.5t-27.5 28.5t-26.5 32t-15.5 19q-39 -21 -90 -21q-14 0 -41.5 7t-40.5 7q-7 0 -18 -21.5t-26.5 -43t-34.5 -21.5q-12 0 -21.5 12.5t-9.5 25.5
q0 12 53 92zM75 381q3 0 7 7.5t8.5 18.5t4.5 12q5 11 34.5 47.5t29.5 45.5q0 2 -2 2q-24 0 -57 -48t-33 -74q0 -11 8 -11zM233 156q61 0 90 48.5t29 114.5q0 42 -8.5 75.5t-34.5 59.5t-67 26q-58 0 -86 -47t-28 -109q0 -37 9 -72.5t34 -65.5t62 -30zM79 356q0 9 -9 9
q-6 0 -6 -9q0 -7 7 -7q8 0 8 7z" />
    <glyph glyph-name="yen" unicode="&#xa5;" horiz-adv-x="431" 
d="M215 0q-16 0 -25 8.5t-11 18.5t-2 25v100h-78q-17 0 -32.5 12.5t-15.5 24.5q0 16 11.5 28.5t36.5 12.5h78q-1 8 -5 22h-73q-18 0 -33.5 14t-15.5 30q0 15 12 26t37 11h38l-107 223q-8 16 3 38t34 22q35 0 45 -21l90 -188q16 -35 24 -35q7 0 24 35l97 193q8 16 36 16
q16 0 23.5 -11.5t7 -26t-6.5 -26.5l-108 -219h47q18 0 29.5 -10t11.5 -25q0 -46 -60 -46h-53q-1 -6 -1 -22h73q41 0 41 -37q0 -18 -18.5 -29.5t-41.5 -11.5h-54v-100q0 -28 -18 -40t-40 -12zM48 571q0 4 3 9t3 6q2 9 -1 9q-7 0 -10.5 -8.5t-3.5 -15.5q0 -8 5 -8q4 0 4 8z
M204 31q0 1 -2 10.5t-2 17.5l-3 14q-1 0 -4 -10q0 -39 11 -39q2 0 2 2.5t-2 4.5z" />
    <glyph glyph-name="brokenbar" unicode="&#xa6;" horiz-adv-x="178" 
d="M143 404q0 -16 -15 -25t-34 -9t-32.5 9t-13.5 25v262q0 16 13.5 29.5t32.5 13.5q22 0 35.5 -9.5t13.5 -27.5v-268zM75 649q1 8 3 16t4.5 13t4 8.5t0.5 5t-5 1.5q-22 0 -22 -64q0 -21 8 -21q4 0 5 6t1.5 20t0.5 15zM50 221q1 16 15.5 25.5t33.5 9.5t32.5 -9t13.5 -26
l-2 -254q0 -24 -13.5 -42.5t-38.5 -18.5q-44 0 -44 56zM89 -70q0 5 -9 9q-5 3 -5 20q0 11 -9 11q-7 0 -7 -16q0 -11 7 -21t17 -10q6 0 6 7z" />
    <glyph glyph-name="section" unicode="&#xa7;" horiz-adv-x="369" 
d="M191 -68q-54 0 -99 34.5t-45 87.5q0 22 13.5 41.5t35.5 19.5q17 0 27 -13t10 -31q0 -53 53 -53q23 0 38 12.5t15 34.5q0 28 -31 51.5t-67.5 38.5t-67.5 44t-31 67q0 52 48 98q-4 5 -21.5 18.5t-28 31.5t-10.5 46q0 61 46.5 113t118.5 52q54 0 91.5 -29t37.5 -79
q0 -28 -15 -60t-40 -32q-14 0 -22 9t-8 23q0 72 -40 72q-26 0 -46.5 -20t-20.5 -49q0 -9 29.5 -29.5t65.5 -43.5t65.5 -61t29.5 -79q0 -29 -6 -48t-12 -27.5t-6 -11.5q0 -2 16 -31.5t16 -64.5q0 -60 -39.5 -96t-99.5 -36zM111 554q17 14 17 18q0 2 -1.5 3.5t-5 0.5t-8.5 -5
q-17 -13 -32 -34.5t-15 -35.5q0 -7 3 -7t14 19q17 32 28 41zM71 465q0 10 -8 10q-10 0 -10 -10q0 -5 9 -5t9 5zM241 230q0 20 -36 55.5t-51 28.5q-14 -5 -14 -34q0 -11 40 -40t55 -29q6 0 6 19z" />
    <glyph glyph-name="dieresis" unicode="&#xa8;" horiz-adv-x="287" 
d="M90 644q-18 0 -32.5 12.5t-14.5 32.5q0 21 14.5 33.5t32.5 12.5t32 -12.5t14 -33.5t-14 -33t-32 -12zM200 644q-18 0 -32.5 12.5t-14.5 32.5q0 21 14.5 33.5t32.5 12.5t32 -12.5t14 -33.5t-14 -33t-32 -12z" />
    <glyph glyph-name="copyright" unicode="&#xa9;" horiz-adv-x="630" 
d="M312 -10q-69 0 -125 27t-89.5 71.5t-51.5 97t-18 108.5q0 135 78.5 220t211.5 85q124 0 203.5 -84t79.5 -212q0 -130 -82.5 -221.5t-206.5 -91.5zM314 67q99 0 151.5 62.5t52.5 173.5q0 92 -55 158t-145 66q-88 0 -146 -65t-58 -156q0 -97 54 -168t146 -71zM327 117
q-68 0 -112.5 50t-44.5 126q0 70 44 124t112 54q36 0 65 -18t29 -48q0 -13 -10 -24t-22 -11q-11 0 -21.5 9t-23.5 9q-38 0 -56.5 -29t-18.5 -71q0 -27 15 -54t39 -27q12 0 32.5 7.5t31.5 7.5q14 0 25 -12t11 -28q0 -33 -30.5 -49t-64.5 -16zM220 360q1 0 5.5 5.5t12 15
t13.5 16.5q5 6 14 14.5t13.5 13t4.5 7.5q0 4 -3 4q-14 0 -40 -25.5t-26 -40.5q0 -10 6 -10z" />
    <glyph glyph-name="ordfeminine" unicode="&#xaa;" horiz-adv-x="220" 
d="M107 478q-33 0 -56 21.5t-23 54.5q0 28 22 50t49 16q11 -2 14 -1.5t3 7.5q0 5 -6.5 12t-19 11.5t-30.5 -0.5q-13 -4 -20.5 4.5t-7.5 17.5q0 13 16.5 21.5t42.5 8.5q49 1 73.5 -34t24.5 -90q0 -99 -82 -99zM60 568q1 3 5.5 11t6 11.5t-1.5 5.5q-8 0 -16.5 -12t-8.5 -21
q0 -6 7 -6q6 0 8 11zM128 547q0 18 -19 18q-8 0 -14 -5t-6 -14q0 -21 21 -21q18 0 18 22zM73 404q-44 0 -44 30q0 33 44 33l73 -1h7.5h8t7.5 -0.5t7.5 -1t6 -2.5t5 -4.5t3 -6.5t1.5 -9q0 -20 -11 -27.5t-34 -8.5zM55 446q5 7 4 9q-1 3 -4 3q-8 0 -13 -10.5t-5 -18.5
q0 -5 3 -5q4 0 15 22z" />
    <glyph glyph-name="guillemotleft" unicode="&#xab;" horiz-adv-x="400" 
d="M203 181q-20 0 -94.5 58.5t-74.5 76.5q0 23 67 80.5t92 57.5q8 0 15 -7t7 -14q0 -6 -9.5 -18.5t-25 -28.5t-29 -29.5t-26.5 -25.5l-13 -12q6 -6 38.5 -31t57.5 -48t25 -34q0 -9 -10 -17t-20 -8zM339 190q-19 0 -81 56.5t-62 73.5q0 20 63.5 76t86.5 56t23 -21
q0 -16 -19.5 -37t-48 -43t-35.5 -29l20 -18l34 -34t29 -32.5t14 -25.5q0 -9 -7.5 -15.5t-16.5 -6.5zM66 306q4 5 8.5 18.5t7.5 17.5q2 3 2 7.5t-3 4.5q-7 0 -14 -14t-7 -26q0 -8 6 -8zM228 312q2 0 6 10t7 20t1 10q-9 0 -14 -10.5t-5 -20.5q0 -9 5 -9zM239 301q0 5 -5 5
q-6 0 -6 -5q0 -6 6 -6q5 0 5 6z" />
    <glyph glyph-name="logicalnot" unicode="&#xac;" horiz-adv-x="414" 
d="M115 345h-4q-17 0 -27 1t-21.5 10.5t-11.5 28.5q0 22 13.5 31t50.5 10l185 2q19 0 31 -1.5t24.5 -10.5t12.5 -27v-95q0 -22 -11 -34t-31 -12q-37 0 -37 59v40zM86 391q1 1 2 2.5t2 2.5t1.5 2.5t-0.5 3.5q-2 4 -5 4q-9 0 -16.5 -12.5t-7.5 -20.5q0 -4 3 -4q9 0 21 22z
M328 275q0 3 -7 7q-4 2 -4 18q0 10 -7 10q-6 0 -6 -14q0 -10 5.5 -19t13.5 -9q5 0 5 7z" />
    <glyph glyph-name="registered" unicode="&#xae;" horiz-adv-x="431" 
d="M210 350q-79 0 -131 61t-52 142q0 87 53 146t139 59q84 0 138.5 -55.5t54.5 -140.5q0 -84 -58.5 -148t-143.5 -64zM217 407q63 0 98 44t35 111q0 63 -34 103.5t-96 40.5q-65 0 -99 -43t-34 -110q0 -63 34.5 -104.5t95.5 -41.5zM268 447q-20 0 -36.5 39.5t-23.5 39.5
q-6 0 -6 -27q-3 -52 -36 -52q-9 0 -15 6.5t-8 23.5t-2 23v26q0 31 2 51.5t9.5 47t26 40.5t47.5 14q24 0 43.5 -16.5t19.5 -40.5q0 -23 -15.5 -38t-34.5 -19q23 -12 39 -37.5t16 -50.5q0 -30 -26 -30zM165 604q2 0 2.5 3t1 8t1.5 9l8 25q-6 1 -11.5 -9.5t-6.5 -18.5
q0 -17 5 -17zM202 595q9 0 18.5 11t9.5 20t-7 9q-9 0 -16 -10.5t-7 -25.5q0 -4 2 -4zM167 594q1 2 -2 4t-6 1q-4 0 -6 -4q0 -5 5 -7q9 -2 9 6z" />
    <glyph glyph-name="macron" unicode="&#xaf;" horiz-adv-x="268" 
d="M149 644q-25 0 -46 0.5t-29 0.5q-19 0 -29 9t-10 20q0 16 10 27.5t25 11.5q22 0 46.5 -1t36.5 -1q15 0 30 -0.5t25 -0.5q28 0 28 -34q0 -14 -14 -21.5t-30 -9t-43 -1.5z" />
    <glyph glyph-name="degree" unicode="&#xb0;" horiz-adv-x="273" 
d="M125 446q-40 0 -68.5 28.5t-28.5 71.5q0 49 32.5 83t81.5 34q39 0 65 -31.5t26 -74.5q0 -51 -31 -81t-77 -30zM88 619q4 4 6.5 8.5t2.5 6t-1 2.5q-15 0 -33 -25t-18 -45q0 -14 6 -14q4 0 10 22q5 23 27 45zM129 503q14 0 29.5 15t15.5 39q0 20 -11 33.5t-27 13.5
q-18 0 -31.5 -14t-13.5 -37t11 -36.5t27 -13.5z" />
    <glyph glyph-name="plusminus" unicode="&#xb1;" horiz-adv-x="415" 
d="M213 180q-8 0 -14.5 3t-11.5 9t-8.5 12t-6 16.5t-4.5 18t-3 20t-1.5 19t-1.5 18.5t-1 16q-8 0 -26 -2t-30 -2q-22 0 -37 11t-15 34q0 14 7 23.5t21.5 13.5t25.5 6t29.5 3t23.5 2q0 1 0.5 13.5t0.5 18t1 19.5t2.5 22t4 20t6 19t8 14.5t11.5 11t15 3.5q17 0 28 -10t16 -30
t6.5 -34t2 -39t0.5 -28q104 12 104 -40q0 -16 -11.5 -27.5t-29.5 -16t-33 -6.5t-30 -2q0 -129 -49 -129zM190 460q6 0 10 10t7 22.5t6 15.5t3 7q0 7 -7 7q-11 0 -17.5 -18.5t-6.5 -32.5q0 -11 5 -11zM198 439q0 6 -6 6q-10 0 -10 -14q0 -7 8 -7q3 0 5.5 5.5t2.5 9.5zM313 77
q-162 0 -194 1q-53 2 -53 45t62 43q3 0 60.5 1t92.5 -0.5t57 -5.5q11 -2 19 -15.5t8 -29.5q0 -19 -16.5 -29t-35.5 -10zM90 98q5 0 6.5 4t0.5 10.5t1 13.5q1 3 3 7.5t3 7.5t2 5.5t0 4t-3 1.5q-10 0 -16.5 -13t-6.5 -22q0 -19 10 -19z" />
    <glyph glyph-name="twosuperior" unicode="&#xb2;" horiz-adv-x="159" 
d="M52 500q-38 0 -38 20q0 10 29.5 44t29.5 65q0 13 -13 13q-4 0 -12.5 -8t-18.5 -8q-18 0 -18 24q0 20 18.5 32t46.5 12q27 0 42 -16t15 -43q0 -18 -8 -35.5t-15.5 -27t-24.5 -27.5h35q26 0 26 -23q0 -9 -7 -15.5t-18 -6.5h-69zM39 538q0 8 -9 -3q-7 -7 -7 -13q0 -5 3 -5
t8 5q3 3 4 7t1 7v2z" />
    <glyph glyph-name="threesuperior" unicode="&#xb3;" horiz-adv-x="167" 
d="M62 498q-15 0 -30.5 6t-15.5 19q0 8 9.5 14t24.5 1q17 -5 29 1.5t12 16.5q0 8 -6.5 14.5t-13.5 5.5q-37 -5 -37 15t24 20q11 0 17.5 8t6.5 20q0 9 -3 12t-14 3q-8 0 -18 -9.5t-19 -9.5q-17 0 -17 24q0 12 16 22.5t48 10.5q59 0 59 -51q0 -15 -8 -25t-16 -14.5t-8 -5.5
t10.5 -3.5t20.5 -12t10 -26.5q0 -29 -23 -42.5t-58 -13.5zM53 595q2 5 0.5 7.5t-5.5 0.5q-9 -6 -7 -15q0 -3 2 -3q6 0 10 10z" />
    <glyph glyph-name="acute" unicode="&#xb4;" horiz-adv-x="194" 
d="M47 640q-12 8 -9.5 28.5t17.5 41.5q43 60 60 60q8 0 19 -13t10 -23q-4 -24 -31.5 -62.5t-47.5 -38.5q-8 0 -18 7z" />
    <glyph glyph-name="paragraph" unicode="&#xb6;" horiz-adv-x="465" 
d="M269 -63q-22 0 -36 16t-14 49v190q0 17 -26 17h-29q-50 0 -94 52t-44 136q0 110 48 164.5t117 54.5h175q61 0 61 -39l1 -571q0 -36 -15 -52.5t-38 -16.5q-42 0 -42 65v482q0 43 -11 43t-11 -42v-479q0 -69 -42 -69zM122 554q17 14 17 18t-5 4q-13 0 -35 -30.5t-22 -44.5
q0 -7 3 -7t14 19q17 32 28 41zM82 465q0 10 -8 10q-10 0 -10 -10q0 -5 9 -5t9 5zM251 -36q-8 8 -8 30q0 16 -5 16t-5 -19q0 -37 16 -37q5 0 5 4q0 3 -3 6zM365 -36q-8 8 -8 30q0 16 -5 16t-5 -19q0 -37 16 -37q5 0 5 4q0 3 -3 6z" />
    <glyph glyph-name="periodcentered" unicode="&#xb7;" horiz-adv-x="154" 
d="M76 267q-26 0 -43 16t-17 42q0 27 18 48t45 21q59 0 59 -60q0 -25 -18 -46t-44 -21zM42 314q3 0 4.5 3t2 8.5t1.5 6.5q3 8 12 20.5t12 17.5q1 2 -0.5 5t-3.5 3q-10 1 -22 -19.5t-12 -32.5t6 -12z" />
    <glyph glyph-name="cedilla" unicode="&#xb8;" horiz-adv-x="224" 
d="M97 -169q-25 0 -48 14.5t-23 44.5q0 21 16 21q8 0 29 -7.5t30 -7.5q28 0 28 19q0 7 -15.5 12.5t-31 16.5t-15.5 31q0 19 22 42.5t36 23.5t25.5 -5t8.5 -17q-1 -5 -7 -17t-8.5 -18t0.5 -9q55 0 55 -68q0 -33 -29 -54.5t-73 -21.5z" />
    <glyph glyph-name="onesuperior" unicode="&#xb9;" horiz-adv-x="130" 
d="M63 499q-8 6 -8 78v5.5v5.5v6q0 22 -4 22q-2 0 -8.5 -7.5t-13.5 -7.5q-18 0 -18 26q0 19 25.5 40t41.5 21q40 0 40 -92q0 -76 -7 -89t-32 -13q-8 0 -16 5zM40 641q10 15 1 17q-3 1 -11 -9.5t-9 -15.5q-3 -9 0 -11q3 -1 7 3.5t12 15.5z" />
    <glyph glyph-name="ordmasculine" unicode="&#xba;" horiz-adv-x="220" 
d="M110 494q-48 0 -71 27.5t-23 65.5q0 45 26.5 76t65.5 31q38 0 63 -29.5t25 -74.5q0 -42 -24 -69t-62 -27zM61 644q1 2 6 7q10 12 6 13q-14 0 -25 -17.5t-11 -29.5q0 -5 3 -5q5 0 8.5 4.5t7.5 15t5 12.5zM107 551q37 0 37 39q0 19 -9.5 30.5t-24.5 11.5q-17 0 -27.5 -12.5
t-10.5 -31.5q0 -37 35 -37zM70 406q-41 0 -41 28q0 34 45 35l73 2q45 2 45 -29q0 -20 -12 -26.5t-36 -7.5zM53 443q4 7 4 8q-1 3 -4 3q-6 0 -11 -9.5t-5 -15.5q0 -3 2 -3q5 0 14 17z" />
    <glyph glyph-name="guillemotright" unicode="&#xbb;" horiz-adv-x="386" 
d="M203 182q-7 0 -14 7t-7 15q0 11 30 42t48 46l25 21q-6 7 -42 37t-46 37q-32 22 -32 38q0 11 10 20.5t21 9.5q27 0 66 -33q3 -3 22 -18t33.5 -27.5t27.5 -28t13 -23.5q0 -14 -20 -37q-27 -32 -69 -69t-66 -37zM52 181q-9 0 -15 7.5t-6 16.5q0 27 76 87l27 21l-38 32
q-65 54 -65 79q0 9 8 15.5t17 6.5q19 0 81.5 -56t62.5 -74t-65 -76.5t-83 -58.5zM197 424q0 9 4 15v6q-4 0 -9.5 -7t-5.5 -14q0 -6 5 -6q6 0 6 6zM60 424q3 11 0 11q-15 0 -15 -12q0 -9 9 -9q5 4 6 10zM54 219q3 8 1.5 10.5t-5.5 -4.5q-4 -8 -4 -13q0 -4 4 -4q2 0 2.5 1.5
t0.5 4.5t1 5zM207 214q0 8 -2 8q-7 0 -7 -12q0 -6 3 -6q6 0 6 10z" />
    <glyph glyph-name="onequarter" unicode="&#xbc;" horiz-adv-x="588" 
d="M120 257q-10 0 -19.5 7.5t-9.5 19.5v231q0 14 -1 14q-2 0 -7.5 -7t-13 -15.5t-12.5 -11.5q-12 -7 -23.5 4t-7.5 24q1 5 16 25q14 21 41.5 49.5t39.5 28.5q39 0 39 -18v-323q0 -11 -14.5 -19.5t-27.5 -8.5zM146 -6q-11 0 -27 9t-16 20q0 33 93 221.5t159 311.5
q33 63 69 63q16 0 23 -12t5.5 -30t-6 -35.5t-11.5 -31.5q-39 -82 -138.5 -277.5t-109.5 -210.5q-18 -28 -41 -28zM117 603q9 13 8 14q-11 0 -22 -11q-13 -11 -13 -19q0 -3 3 -3q3 -1 6 0.5t5.5 4l4.5 4.5t4.5 5.5t3.5 4.5zM500 0q-13 0 -21 11t-8 26v46q0 7 -8 7h-108
q-26 0 -26 26q0 8 39.5 116.5t45.5 122.5q6 13 23 13q8 0 19 -4.5t11 -11.5q0 -10 -22 -88.5t-34 -112.5q0 -1 -1.5 -4t-1.5 -4q0 -3 5 -3h50q8 0 8 6v176q0 28 8.5 38t26.5 10q12 0 24.5 -11t12.5 -30v-288q0 -41 -43 -41zM486 334q3 0 6 8.5t3 12.5q0 3 -3 3q-9 0 -9 -18
q0 -6 3 -6zM114 286q0 31 -7 31q-6 0 -6.5 -22.5t6.5 -22.5t7 14zM355 141q6 20 6 21q0 5 -3 5t-9 -14.5t-6 -20.5q0 -7 3 -7t9 16zM355 112q0 6 -5 6t-5 -6q1 -4 5 -4q5 0 5 4zM144 82q-4 4 -10 -0.5t-9 -12.5q-9 -23 -9 -35q2 -24 13 2l2 4q15 40 13 42zM496 25
q-6 14 -6 17q0 8 -6 8q-4 0 -4 -11q0 -7 3 -16.5t7 -9.5t6 4t0 8z" />
    <glyph glyph-name="onehalf" unicode="&#xbd;" horiz-adv-x="570" 
d="M120 257q-10 0 -19.5 7.5t-9.5 19.5v231q0 14 -1 14q-2 0 -7.5 -7t-13 -15.5t-12.5 -11.5q-12 -7 -23.5 4t-7.5 24q1 5 16 25q14 21 41.5 49.5t39.5 28.5q39 0 39 -18v-323q0 -11 -14.5 -19.5t-27.5 -8.5zM146 -6q-11 0 -27 9t-16 20q0 33 93 221.5t159 311.5
q33 63 69 63q16 0 23 -12t5.5 -30t-6 -35.5t-11.5 -31.5q-39 -82 -138.5 -277.5t-109.5 -210.5q-18 -28 -41 -28zM117 603q9 13 8 14q-11 0 -22 -11q-13 -11 -13 -19q0 -3 3 -3q3 -1 6 0.5t5.5 4l4.5 4.5t4.5 5.5t3.5 4.5zM372 0q-5 0 -9.5 8t-3.5 15q5 22 28 52
q86 112 86 198q0 44 -26 44q-29 0 -29 -38q0 -9 3.5 -20t3.5 -16q0 -7 -9 -12t-17 -5q-16 0 -26.5 16t-10.5 40q0 38 24.5 64.5t61.5 26.5q45 0 71 -28t26 -74q0 -32 -10 -65t-24.5 -58.5t-29 -45.5t-24.5 -32.5t-10 -14.5h19l55 2q29 2 29 -25q0 -32 -39 -32h-139zM390 302
q3 20 -1 20q-7 0 -11.5 -14t-4.5 -21q0 -8 3 -11q2 -1 3.5 -1.5t3.5 2.5t3.5 8.5t3.5 16.5zM114 286q0 31 -7 31q-6 0 -6.5 -22.5t6.5 -22.5t7 14zM389 255q0 6 -7 6q-6 0 -6 -6t5 -6q8 0 8 6zM144 82q-4 4 -10 -0.5t-9 -12.5q-9 -23 -9 -35q2 -24 13 2l2 4q15 40 13 42z
M385 30q1 6 1.5 10t0.5 6t-1 2q-6 -2 -10.5 -11.5t-3.5 -18.5q1 -7 6 -7q4 1 7 19z" />
    <glyph glyph-name="threequarters" unicode="&#xbe;" horiz-adv-x="572" 
d="M111 248q-38 0 -61.5 17.5t-23.5 42.5q0 21 14 21q8 0 30 -10.5t41 -10.5q24 0 33.5 13.5t9.5 43.5q0 36 -16 51.5t-52 15.5q-46 0 -46 22q0 25 33 62q34 39 34 48q0 4 -12 4l-37 1q-24 0 -24 29q0 11 4 16t8 6t12 1h127q16 0 16 -21q0 -11 -26.5 -46.5t-41.5 -52.5
q-8 -9 -11.5 -13.5t-4.5 -8t1.5 -5t9.5 -2.5q96 -15 96 -107q0 -54 -31.5 -85.5t-81.5 -31.5zM154 -6q-11 0 -27 9t-16 20q0 33 93 221.5t159 311.5q33 63 69 63q16 0 23.5 -10t6.5 -25.5t-5.5 -31t-11.5 -29.5q-236 -480 -250 -501q-18 -28 -41 -28zM53 605q3 11 0 11
q-10 0 -10 -18q0 -11 6 -11q1 0 1.5 3t1 8t1.5 7zM61 462q3 6 11 19q3 6 3.5 8t-0.5 4q-5 0 -15 -14.5t-10 -22.5q0 -6 4 -6t7 12zM508 0q-13 0 -21 11t-8 26v46q0 7 -8 7h-108q-26 0 -26 26q0 8 39.5 116.5t45.5 122.5q6 13 23 13q8 0 19 -4.5t11 -11.5q0 -10 -22 -88.5
t-34 -112.5q0 -1 -1.5 -4t-1.5 -4q0 -3 5 -3h50q8 0 8 6v176q0 28 8.5 38t26.5 10q12 0 24.5 -11t12.5 -30v-288q0 -41 -43 -41zM494 334q3 0 6 8.5t3 12.5q0 3 -3 3q-9 0 -9 -18q0 -6 3 -6zM47 306q0 14 -4 13l-4 -3q-5 -10 -4 -17q0 -6 7 -6q5 0 5 13zM363 141q6 20 6 21
q0 5 -3 5t-9 -14.5t-6 -20.5q0 -7 3 -7t9 16zM363 112q0 6 -5 6t-5 -6q1 -4 5 -4q5 0 5 4zM152 82q-4 4 -10 -0.5t-9 -12.5q-9 -23 -9 -35q2 -24 13 2l2 4q15 40 13 42zM504 25q-6 14 -6 17q0 8 -6 8q-4 0 -4 -11q0 -7 3 -16.5t7 -9.5t6 4t0 8z" />
    <glyph glyph-name="questiondown" unicode="&#xbf;" horiz-adv-x="298" 
d="M211 604q38 0 38 -36q0 -18 -12 -31.5t-29 -13.5t-28 12t-11 26q0 19 11 31t31 12zM192 589q-12 0 -12 -28q0 -12 6 -12t6 17q0 4 1 8t1.5 6.5t1 4.5t-0.5 3t-3 1zM211 491q21 0 31.5 -22.5t10.5 -46.5q0 -94 -65 -147q-57 -47 -57 -123q0 -33 17.5 -59t51.5 -26
q8 0 26 4q28 7 45.5 -7t17.5 -40q0 -46 -86 -54q-75 -7 -129 40t-54 136q0 88 89 175q8 8 24.5 22t19.5 19t7.5 20.5t5.5 40.5q2 68 45 68zM202 400q-5 12 -2 39q0 4 1 6l4 14q1 2 1 6q0 8 -3 8q-7 1 -13 -9.5t-7 -19.5q-3 -17 1 -38.5t16 -21.5q8 0 2 16z" />
    <glyph glyph-name="Agrave" unicode="&#xc0;" horiz-adv-x="451" 
d="M265 638q-8 -8 -15 -8q-16 0 -44 41t-32 63q-1 12 8 25t21 13q17 0 60 -60q15 -22 15 -41.5t-13 -32.5zM231 621q64 0 82 -34q17 -35 70.5 -268.5t53.5 -270.5q0 -20 -20.5 -35.5t-45.5 -15.5q-24 0 -33 14q-20 27 -43 141q-3 18 -10 23.5t-19 5.5q-22 0 -50.5 0.5
t-33.5 0.5q-36 0 -42 -20l-26 -100q-7 -29 -25 -46.5t-40 -17.5q-36 0 -36 50q0 52 30.5 199t63.5 250q24 74 50 99t74 25zM170 561q27 35 22 37q-16 3 -32 -19q-12 -17 -16.5 -36t3.5 -21q2 0 4.5 5.5t7.5 16t11 17.5zM186 377q-17 -89 -14 -96q2 -3 5 -4h88q8 0 -1 43
q0 2 -1 6q-4 19 -6 31q0 2 -6.5 48.5t-13 76.5t-13.5 30q-12 0 -38 -135zM45 63q5 25 -6 27q-6 0 -9 -13q-4 -19 -1 -38t11 -21q5 -1 6 3t-2 12q-3 7 1 30zM350 64q-12 24 -13 24q-3 0 -5 -10q-1 -11 9 -36t20 -26t-6 38z" />
    <glyph glyph-name="Aacute" unicode="&#xc1;" horiz-adv-x="451" 
d="M182 640q-12 8 -9.5 28.5t17.5 41.5q43 60 60 60q8 0 19 -13t10 -23q-4 -24 -31.5 -62.5t-47.5 -38.5q-8 0 -18 7zM231 621q64 0 82 -34q17 -35 70.5 -268.5t53.5 -270.5q0 -20 -20.5 -35.5t-45.5 -15.5q-24 0 -33 14q-20 27 -43 141q-3 18 -10 23.5t-19 5.5
q-22 0 -50.5 0.5t-33.5 0.5q-36 0 -42 -20l-26 -100q-7 -29 -25 -46.5t-40 -17.5q-36 0 -36 50q0 52 30.5 199t63.5 250q24 74 50 99t74 25zM170 561q27 35 22 37q-16 3 -32 -19q-12 -17 -16.5 -36t3.5 -21q2 0 4.5 5.5t7.5 16t11 17.5zM186 377q-17 -89 -14 -96q2 -3 5 -4
h88q8 0 -1 43q0 2 -1 6q-4 19 -6 31q0 2 -6.5 48.5t-13 76.5t-13.5 30q-12 0 -38 -135zM45 63q5 25 -6 27q-6 0 -9 -13q-4 -19 -1 -38t11 -21q5 -1 6 3t-2 12q-3 7 1 30zM350 64q-12 24 -13 24q-3 0 -5 -10q-1 -11 9 -36t20 -26t-6 38z" />
    <glyph glyph-name="Acircumflex" unicode="&#xc2;" horiz-adv-x="451" 
d="M136 667q0 23 35 69t57 46q20 0 54 -46.5t34 -67.5q0 -12 -11 -20t-24 -8q-12 0 -20.5 8.5t-18 26t-13.5 22.5q-6 -7 -16.5 -24t-20.5 -26t-23 -9q-10 0 -21.5 9.5t-11.5 19.5zM231 621q64 0 82 -34q17 -35 70.5 -268.5t53.5 -270.5q0 -20 -20.5 -35.5t-45.5 -15.5
q-24 0 -33 14q-20 27 -43 141q-3 18 -10 23.5t-19 5.5q-22 0 -50.5 0.5t-33.5 0.5q-36 0 -42 -20l-26 -100q-7 -29 -25 -46.5t-40 -17.5q-36 0 -36 50q0 52 30.5 199t63.5 250q24 74 50 99t74 25zM170 561q27 35 22 37q-16 3 -32 -19q-12 -17 -16.5 -36t3.5 -21q2 0 4.5 5.5
t7.5 16t11 17.5zM186 377q-17 -89 -14 -96q2 -3 5 -4h88q8 0 -1 43q0 2 -1 6q-4 19 -6 31q0 2 -6.5 48.5t-13 76.5t-13.5 30q-12 0 -38 -135zM45 63q5 25 -6 27q-6 0 -9 -13q-4 -19 -1 -38t11 -21q5 -1 6 3t-2 12q-3 7 1 30zM350 64q-12 24 -13 24q-3 0 -5 -10q-1 -11 9 -36
t20 -26t-6 38z" />
    <glyph glyph-name="Atilde" unicode="&#xc3;" horiz-adv-x="451" 
d="M270 636q-19 0 -36 13.5t-30 27t-22 13.5q-7 0 -15.5 -9t-12.5 -16q-5 -12 -10 -15.5t-17 -3.5q-10 0 -18 9t-8 18q0 28 25 56t52 28q22 0 53 -27t43 -27q14 0 26 28t27 28q10 0 17 -9.5t7 -19.5q0 -34 -24.5 -64t-56.5 -30zM231 621q64 0 82 -34q17 -35 70.5 -268.5
t53.5 -270.5q0 -20 -20.5 -35.5t-45.5 -15.5q-24 0 -33 14q-20 27 -43 141q-3 18 -10 23.5t-19 5.5q-22 0 -50.5 0.5t-33.5 0.5q-36 0 -42 -20l-26 -100q-7 -29 -25 -46.5t-40 -17.5q-36 0 -36 50q0 52 30.5 199t63.5 250q24 74 50 99t74 25zM170 561q27 35 22 37
q-16 3 -32 -19q-12 -17 -16.5 -36t3.5 -21q2 0 4.5 5.5t7.5 16t11 17.5zM186 377q-17 -89 -14 -96q2 -3 5 -4h88q8 0 -1 43q0 2 -1 6q-4 19 -6 31q0 2 -6.5 48.5t-13 76.5t-13.5 30q-12 0 -38 -135zM45 63q5 25 -6 27q-6 0 -9 -13q-4 -19 -1 -38t11 -21q5 -1 6 3t-2 12
q-3 7 1 30zM350 64q-12 24 -13 24q-3 0 -5 -10q-1 -11 9 -36t20 -26t-6 38z" />
    <glyph glyph-name="Adieresis" unicode="&#xc4;" horiz-adv-x="451" 
d="M171 644q-18 0 -32.5 12.5t-14.5 32.5q0 21 14.5 33.5t32.5 12.5t32 -12.5t14 -33.5t-14 -33t-32 -12zM281 644q-18 0 -32.5 12.5t-14.5 32.5q0 21 14.5 33.5t32.5 12.5t32 -12.5t14 -33.5t-14 -33t-32 -12zM231 621q64 0 82 -34q17 -35 70.5 -268.5t53.5 -270.5
q0 -20 -20.5 -35.5t-45.5 -15.5q-24 0 -33 14q-20 27 -43 141q-3 18 -10 23.5t-19 5.5q-22 0 -50.5 0.5t-33.5 0.5q-36 0 -42 -20l-26 -100q-7 -29 -25 -46.5t-40 -17.5q-36 0 -36 50q0 52 30.5 199t63.5 250q24 74 50 99t74 25zM170 561q27 35 22 37q-16 3 -32 -19
q-12 -17 -16.5 -36t3.5 -21q2 0 4.5 5.5t7.5 16t11 17.5zM186 377q-17 -89 -14 -96q2 -3 5 -4h88q8 0 -1 43q0 2 -1 6q-4 19 -6 31q0 2 -6.5 48.5t-13 76.5t-13.5 30q-12 0 -38 -135zM45 63q5 25 -6 27q-6 0 -9 -13q-4 -19 -1 -38t11 -21q5 -1 6 3t-2 12q-3 7 1 30zM350 64
q-12 24 -13 24q-3 0 -5 -10q-1 -11 9 -36t20 -26t-6 38z" />
    <glyph glyph-name="Aring" unicode="&#xc5;" horiz-adv-x="451" 
d="M225 624q-27 0 -46 16t-19 45q0 33 18.5 53.5t44.5 20.5q28 0 48.5 -19.5t20.5 -48.5q0 -26 -20 -46.5t-47 -20.5zM223 669q8 0 14.5 8.5t6.5 16.5q0 5 -6 11t-13 6q-20 0 -20 -24q0 -7 6 -12.5t12 -5.5zM231 621q64 0 82 -34q17 -35 70.5 -268.5t53.5 -270.5
q0 -20 -20.5 -35.5t-45.5 -15.5q-24 0 -33 14q-20 27 -43 141q-3 18 -10 23.5t-19 5.5q-22 0 -50.5 0.5t-33.5 0.5q-36 0 -42 -20l-26 -100q-7 -29 -25 -46.5t-40 -17.5q-36 0 -36 50q0 52 30.5 199t63.5 250q24 74 50 99t74 25zM170 561q27 35 22 37q-16 3 -32 -19
q-12 -17 -16.5 -36t3.5 -21q2 0 4.5 5.5t7.5 16t11 17.5zM186 377q-17 -89 -14 -96q2 -3 5 -4h88q8 0 -1 43q0 2 -1 6q-4 19 -6 31q0 2 -6.5 48.5t-13 76.5t-13.5 30q-12 0 -38 -135zM45 63q5 25 -6 27q-6 0 -9 -13q-4 -19 -1 -38t11 -21q5 -1 6 3t-2 12q-3 7 1 30zM350 64
q-12 24 -13 24q-3 0 -5 -10q-1 -11 9 -36t20 -26t-6 38z" />
    <glyph glyph-name="AE" unicode="&#xc6;" horiz-adv-x="663" 
d="M231 621q64 0 82 -34q6 -12 13 -37q5 35 27 50.5t49 15.5h195q17 0 26.5 -13t9.5 -32t-8.5 -34.5t-23.5 -16.5l-141 -4q-10 0 -16 -7t-6 -17v-92q0 -30 22 -30l119 1q33 0 33 -52q0 -39 -32 -40l-115 -4q-27 -1 -27 -31v-66q0 -23 0.5 -31.5t3.5 -23.5t9.5 -20t19.5 -9.5
t33 -4.5q24 0 65 15t52 15q12 0 19 -18t7 -36q0 -35 -52.5 -52t-98.5 -17q-13 0 -45 -1t-52.5 -1t-27.5 3q-24 0 -33 14q-20 27 -43 141q-3 18 -10 23.5t-19 5.5q-22 0 -50.5 0.5t-33.5 0.5q-36 0 -42 -20l-26 -100q-7 -29 -25 -46.5t-40 -17.5q-36 0 -36 50q0 52 30.5 199
t63.5 250q24 74 50 99t74 25zM170 561q27 35 22 37q-16 3 -32 -19q-12 -17 -16.5 -36t3.5 -21q2 0 4.5 5.5t7.5 16t11 17.5zM186 377q-17 -89 -14 -96q2 -3 5 -4h88q8 0 -1 43q0 2 -1 6q-4 19 -6 31q0 2 -6.5 48.5t-13 76.5t-13.5 30q-12 0 -38 -135zM346 67q-12 24 -13 24
q-3 0 -5 -10q-1 -11 9 -36t20 -26t-6 38zM45 63q5 25 -6 27q-6 0 -9 -13q-4 -19 -1 -38t11 -21q5 -1 6 3t-2 12q-3 7 1 30z" />
    <glyph glyph-name="Ccedilla" unicode="&#xc7;" horiz-adv-x="386" 
d="M178 -169q-25 0 -48 14.5t-23 44.5q0 21 16 21q8 0 29 -7.5t30 -7.5q28 0 28 19q0 7 -15.5 12.5t-31 16.5t-15.5 31q0 11 8 24q-68 24 -106.5 102.5t-38.5 190.5q0 143 60 237t152 94q62 0 105.5 -41.5t43.5 -100.5q0 -57 -41 -57q-23 0 -38.5 18t-16.5 45q-2 41 -39 41
q-49 0 -78 -66t-29 -172q0 -96 24 -149t69 -53q22 0 37 12t15 30q0 19 18 36t38 17q18 0 29 -15.5t11 -41.5q0 -52 -41.5 -91t-101.5 -44q-4 -8 -4.5 -11t1.5 -5q55 0 55 -68q0 -33 -29 -54.5t-73 -21.5zM95 513q3 0 22 20t44 39.5t43 18.5q14 -2 14 7q1 4 -2.5 6.5
t-8.5 3.5q-32 3 -73 -31.5t-43 -58.5q0 -5 4 -5zM85 502q-5 0 -9 -6t-5 -14q0 -9 3 -9q8 -1 14 16q4 12 -3 13z" />
    <glyph glyph-name="Egrave" unicode="&#xc8;" horiz-adv-x="362" 
d="M220 638q-8 -8 -15 -8q-16 0 -44 41t-32 63q-1 12 8 25t21 13q17 0 60 -60q15 -22 15 -41.5t-13 -32.5zM195 -4q-83 0 -127.5 27t-44.5 95v409q0 48 23.5 68.5t54.5 20.5h195q17 0 26.5 -13t9.5 -32t-8.5 -34.5t-23.5 -16.5l-141 -4q-10 0 -16 -7t-6 -17v-92
q0 -30 22 -30l119 1q33 0 33 -52q0 -39 -32 -40l-115 -4q-27 -1 -27 -31v-66q0 -23 0.5 -31.5t3.5 -23.5t9.5 -20t19.5 -9.5t33 -4.5q24 0 65 15t52 15q12 0 19 -18t7 -36q0 -35 -52.5 -52t-98.5 -17zM87 60q-28 37 -32 62q-2 7 -4 10.5t-5 2.5q-8 0 -5 -18q3 -23 17 -48
t30 -23q8 2 -1 14z" />
    <glyph glyph-name="Eacute" unicode="&#xc9;" horiz-adv-x="362" 
d="M137 640q-12 8 -9.5 28.5t17.5 41.5q43 60 60 60q8 0 19 -13t10 -23q-4 -24 -31.5 -62.5t-47.5 -38.5q-7 0 -18 7zM195 -4q-83 0 -127.5 27t-44.5 95v409q0 48 23.5 68.5t54.5 20.5h195q17 0 26.5 -13t9.5 -32t-8.5 -34.5t-23.5 -16.5l-141 -4q-10 0 -16 -7t-6 -17v-92
q0 -30 22 -30l119 1q33 0 33 -52q0 -39 -32 -40l-115 -4q-27 -1 -27 -31v-66q0 -23 0.5 -31.5t3.5 -23.5t9.5 -20t19.5 -9.5t33 -4.5q24 0 65 15t52 15q12 0 19 -18t7 -36q0 -35 -52.5 -52t-98.5 -17zM87 60q-28 37 -32 62q-2 7 -4 10.5t-5 2.5q-8 0 -5 -18q3 -23 17 -48
t30 -23q8 2 -1 14z" />
    <glyph glyph-name="Ecircumflex" unicode="&#xca;" horiz-adv-x="362" 
d="M91 667q0 23 35 69t57 46q20 0 54 -46.5t34 -67.5q0 -12 -11 -20t-24 -8q-12 0 -20.5 8.5t-18 26t-13.5 22.5q-6 -7 -16.5 -24t-20.5 -26t-23 -9q-10 0 -21.5 9.5t-11.5 19.5zM195 -4q-83 0 -127.5 27t-44.5 95v409q0 48 23.5 68.5t54.5 20.5h195q17 0 26.5 -13t9.5 -32
t-8.5 -34.5t-23.5 -16.5l-141 -4q-10 0 -16 -7t-6 -17v-92q0 -30 22 -30l119 1q33 0 33 -52q0 -39 -32 -40l-115 -4q-27 -1 -27 -31v-66q0 -23 0.5 -31.5t3.5 -23.5t9.5 -20t19.5 -9.5t33 -4.5q24 0 65 15t52 15q12 0 19 -18t7 -36q0 -35 -52.5 -52t-98.5 -17zM87 60
q-28 37 -32 62q-2 7 -4 10.5t-5 2.5q-8 0 -5 -18q3 -23 17 -48t30 -23q8 2 -1 14z" />
    <glyph glyph-name="Edieresis" unicode="&#xcb;" horiz-adv-x="362" 
d="M127 644q-18 0 -32.5 12.5t-14.5 32.5q0 21 14.5 33.5t32.5 12.5t32 -12.5t14 -33.5t-14 -33t-32 -12zM237 644q-18 0 -32.5 12.5t-14.5 32.5q0 21 14.5 33.5t32.5 12.5t32 -12.5t14 -33.5t-14 -33t-32 -12zM195 -4q-83 0 -127.5 27t-44.5 95v409q0 48 23.5 68.5
t54.5 20.5h195q17 0 26.5 -13t9.5 -32t-8.5 -34.5t-23.5 -16.5l-141 -4q-10 0 -16 -7t-6 -17v-92q0 -30 22 -30l119 1q33 0 33 -52q0 -39 -32 -40l-115 -4q-27 -1 -27 -31v-66q0 -23 0.5 -31.5t3.5 -23.5t9.5 -20t19.5 -9.5t33 -4.5q24 0 65 15t52 15q12 0 19 -18t7 -36
q0 -35 -52.5 -52t-98.5 -17zM87 60q-28 37 -32 62q-2 7 -4 10.5t-5 2.5q-8 0 -5 -18q3 -23 17 -48t30 -23q8 2 -1 14z" />
    <glyph glyph-name="Igrave" unicode="&#xcc;" horiz-adv-x="232" 
d="M155 638q-8 -8 -15 -8q-16 0 -44 41t-32 63q-1 12 8 25t21 13q17 0 60 -60q15 -22 15 -41.5t-13 -32.5zM53 1q-35 0 -35 23q0 10 10 18t26 8q14 0 14 18v480q0 7 -8 13t-16 6q-35 0 -35 27q0 14 24 19.5t89 5.5q58 0 77 -3.5t19 -14.5q0 -24 -32 -35q-11 -4 -11 -19v-479
q0 -18 7 -20q27 -8 28 -9q5 -5 5 -12q0 -13 -8 -19q-7 -6 -74 -8h-31t-29 0.5t-20 0.5zM102 149q0 49 -9 49q-7 0 -8.5 -46.5t4.5 -52.5q8 -8 11 10q2 13 2 40zM102 77q0 3 -2 5t-4 2h-2q-10 0 -10 -7q0 -8 9 -8t9 8z" />
    <glyph glyph-name="Iacute" unicode="&#xcd;" horiz-adv-x="232" 
d="M72 640q-12 8 -9.5 28.5t17.5 41.5q43 60 60 60q8 0 19 -13t10 -23q-4 -24 -31.5 -62.5t-47.5 -38.5q-8 0 -18 7zM53 1q-35 0 -35 23q0 10 10 18t26 8q14 0 14 18v480q0 7 -8 13t-16 6q-35 0 -35 27q0 14 24 19.5t89 5.5q58 0 77 -3.5t19 -14.5q0 -24 -32 -35
q-11 -4 -11 -19v-479q0 -18 7 -20q27 -8 28 -9q5 -5 5 -12q0 -13 -8 -19q-7 -6 -74 -8h-31t-29 0.5t-20 0.5zM102 149q0 49 -9 49q-7 0 -8.5 -46.5t4.5 -52.5q8 -8 11 10q2 13 2 40zM102 77q0 3 -2 5t-4 2h-2q-10 0 -10 -7q0 -8 9 -8t9 8z" />
    <glyph glyph-name="Icircumflex" unicode="&#xce;" horiz-adv-x="232" 
d="M26 667q0 23 35 69t57 46q20 0 54 -46.5t34 -67.5q0 -12 -11 -20t-24 -8q-12 0 -20.5 8.5t-18 26t-13.5 22.5q-6 -7 -16.5 -24t-20.5 -26t-23 -9q-10 0 -21.5 9.5t-11.5 19.5zM53 1q-35 0 -35 23q0 10 10 18t26 8q14 0 14 18v480q0 7 -8 13t-16 6q-35 0 -35 27
q0 14 24 19.5t89 5.5q58 0 77 -3.5t19 -14.5q0 -24 -32 -35q-11 -4 -11 -19v-479q0 -18 7 -20q27 -8 28 -9q5 -5 5 -12q0 -13 -8 -19q-7 -6 -74 -8h-31t-29 0.5t-20 0.5zM102 149q0 49 -9 49q-7 0 -8.5 -46.5t4.5 -52.5q8 -8 11 10q2 13 2 40zM102 77q0 3 -2 5t-4 2h-2
q-10 0 -10 -7q0 -8 9 -8t9 8z" />
    <glyph glyph-name="Idieresis" unicode="&#xcf;" horiz-adv-x="232" 
d="M61 644q-18 0 -32.5 12.5t-14.5 32.5q0 21 14.5 33.5t32.5 12.5t32 -12.5t14 -33.5t-14 -33t-32 -12zM171 644q-18 0 -32.5 12.5t-14.5 32.5q0 21 14.5 33.5t32.5 12.5t32 -12.5t14 -33.5t-14 -33t-32 -12zM53 1q-35 0 -35 23q0 10 10 18t26 8q14 0 14 18v480q0 7 -8 13
t-16 6q-35 0 -35 27q0 14 24 19.5t89 5.5q58 0 77 -3.5t19 -14.5q0 -24 -32 -35q-11 -4 -11 -19v-479q0 -18 7 -20q27 -8 28 -9q5 -5 5 -12q0 -13 -8 -19q-7 -6 -74 -8h-31t-29 0.5t-20 0.5zM102 149q0 49 -9 49q-7 0 -8.5 -46.5t4.5 -52.5q8 -8 11 10q2 13 2 40zM102 77
q0 3 -2 5t-4 2h-2q-10 0 -10 -7q0 -8 9 -8t9 8z" />
    <glyph glyph-name="Eth" unicode="&#xd0;" horiz-adv-x="409" 
d="M107 0q-91 0 -91 88v237q-50 2 -50 44q0 38 50 44v103q0 52 32.5 77t82.5 25h45q90 0 155.5 -80t65.5 -212q0 -143 -69 -234.5t-166 -91.5h-55zM144 96h13q53 0 88.5 64.5t35.5 168.5q0 92 -29.5 141.5t-78.5 49.5h-15q-17 0 -22.5 -7.5t-5.5 -32.5v-64h27q46 0 46 -37
q0 -52 -73 -52v-195q0 -36 14 -36zM-16 350q7 0 16 17t9 22q0 11 -6 11q-12 0 -19 -12.5t-7 -24.5q0 -13 7 -13zM47 83q3 0 5 6.5t2 17.5v21t-0.5 20.5t-0.5 12.5q0 55 -6 55q-9 0 -9 -55q0 -71 5 -76q1 -2 4 -2zM46 69q-7 0 -7 -11q0 -18 8 -18q7 0 7 18q0 11 -8 11z" />
    <glyph glyph-name="Ntilde" unicode="&#xd1;" horiz-adv-x="439" 
d="M264 636q-19 0 -36 13.5t-30 27t-22 13.5q-7 0 -15.5 -9t-12.5 -16q-5 -12 -10 -15.5t-17 -3.5q-10 0 -18 9t-8 18q0 28 25 56t52 28q22 0 53 -27t43 -27q14 0 26 28t27 28q10 0 17 -9.5t7 -19.5q0 -34 -24.5 -64t-56.5 -30zM72 0q-53 0 -53 103v460q0 25 14.5 39
t33.5 14q61 0 92 -63q14 -27 123 -253q12 -25 20 -25q7 0 7 18v246q0 38 11 57.5t46 19.5q18 0 28.5 -5t14.5 -15t5 -16t1 -18v-449q0 -113 -39 -113q-37 0 -63 41q-24 39 -80.5 139.5t-85.5 168.5q-9 22 -14 22q-7 0 -7 -67v-159q0 -78 -12.5 -111.5t-41.5 -33.5zM340 547
q1 2 5 19t8 22q9 12 -5 15q-7 1 -14 -17.5t-8 -35t5 -20.5q4 0 9 17zM44 544q4 26 11 42q7 14 0 14q-9 0 -17 -19q-6 -14 -7.5 -38t4.5 -25q6 0 9 26zM44 490q0 7 -5 7q-7 0 -7 -7q0 -9 5 -9q7 0 7 9zM69 23q0 1 -5 8t-10 18.5t-5 24.5q0 11 -5 11t-5 -14q0 -19 8.5 -36
t16.5 -17q5 0 5 5z" />
    <glyph glyph-name="Ograve" unicode="&#xd2;" horiz-adv-x="444" 
d="M261 638q-8 -8 -15 -8q-16 0 -44 41t-32 63q-1 12 8 25t21 13q17 0 60 -60q15 -22 15 -41.5t-13 -32.5zM231 -9q-69 0 -119.5 46t-73 113.5t-22.5 145.5q0 80 20.5 152t71.5 124.5t124 52.5q99 0 150.5 -95.5t51.5 -238.5q0 -77 -20.5 -143t-68 -111.5t-114.5 -45.5z
M79 468q3 0 9 9t14 23t13 21q12 16 28 32.5t24.5 25t8.5 10.5q0 3 -5 4q-23 0 -59.5 -47.5t-36.5 -72.5q0 -5 4 -5zM231 71q28 0 48 21.5t30 57.5t14 72.5t4 76.5q0 234 -95 234q-29 0 -51 -27t-32 -68.5t-14.5 -77t-4.5 -64.5q0 -32 3.5 -64t13 -71.5t31 -64.5t53.5 -25z
M80 446q0 8 -7 10q-4 0 -8.5 -4t-4.5 -11q0 -9 8 -9q4 0 8 3.5t4 10.5z" />
    <glyph glyph-name="Oacute" unicode="&#xd3;" horiz-adv-x="444" 
d="M178 640q-12 8 -9.5 28.5t17.5 41.5q43 60 60 60q8 0 19 -13t10 -23q-4 -24 -31.5 -62.5t-47.5 -38.5q-8 0 -18 7zM231 -9q-69 0 -119.5 46t-73 113.5t-22.5 145.5q0 80 20.5 152t71.5 124.5t124 52.5q99 0 150.5 -95.5t51.5 -238.5q0 -77 -20.5 -143t-68 -111.5
t-114.5 -45.5zM79 468q3 0 9 9t14 23t13 21q12 16 28 32.5t24.5 25t8.5 10.5q0 3 -5 4q-23 0 -59.5 -47.5t-36.5 -72.5q0 -5 4 -5zM231 71q28 0 48 21.5t30 57.5t14 72.5t4 76.5q0 234 -95 234q-29 0 -51 -27t-32 -68.5t-14.5 -77t-4.5 -64.5q0 -32 3.5 -64t13 -71.5
t31 -64.5t53.5 -25zM80 446q0 8 -7 10q-4 0 -8.5 -4t-4.5 -11q0 -9 8 -9q4 0 8 3.5t4 10.5z" />
    <glyph glyph-name="Ocircumflex" unicode="&#xd4;" horiz-adv-x="444" 
d="M132 667q0 23 35 69t57 46q20 0 54 -46.5t34 -67.5q0 -12 -11 -20t-24 -8q-12 0 -20.5 8.5t-18 26t-13.5 22.5q-6 -7 -16.5 -24t-20.5 -26t-23 -9q-10 0 -21.5 9.5t-11.5 19.5zM231 -9q-69 0 -119.5 46t-73 113.5t-22.5 145.5q0 80 20.5 152t71.5 124.5t124 52.5
q99 0 150.5 -95.5t51.5 -238.5q0 -77 -20.5 -143t-68 -111.5t-114.5 -45.5zM79 468q3 0 9 9t14 23t13 21q12 16 28 32.5t24.5 25t8.5 10.5q0 3 -5 4q-23 0 -59.5 -47.5t-36.5 -72.5q0 -5 4 -5zM231 71q28 0 48 21.5t30 57.5t14 72.5t4 76.5q0 234 -95 234q-29 0 -51 -27
t-32 -68.5t-14.5 -77t-4.5 -64.5q0 -32 3.5 -64t13 -71.5t31 -64.5t53.5 -25zM80 446q0 8 -7 10q-4 0 -8.5 -4t-4.5 -11q0 -9 8 -9q4 0 8 3.5t4 10.5z" />
    <glyph glyph-name="Otilde" unicode="&#xd5;" horiz-adv-x="444" 
d="M266 636q-19 0 -36 13.5t-30 27t-22 13.5q-7 0 -15.5 -9t-12.5 -16q-5 -12 -10 -15.5t-17 -3.5q-10 0 -18 9t-8 18q0 28 25 56t52 28q22 0 53 -27t43 -27q14 0 26 28t27 28q10 0 17 -9.5t7 -19.5q0 -34 -24.5 -64t-56.5 -30zM231 -9q-69 0 -119.5 46t-73 113.5
t-22.5 145.5q0 80 20.5 152t71.5 124.5t124 52.5q99 0 150.5 -95.5t51.5 -238.5q0 -77 -20.5 -143t-68 -111.5t-114.5 -45.5zM79 468q3 0 9 9t14 23t13 21q12 16 28 32.5t24.5 25t8.5 10.5q0 3 -5 4q-23 0 -59.5 -47.5t-36.5 -72.5q0 -5 4 -5zM231 71q28 0 48 21.5t30 57.5
t14 72.5t4 76.5q0 234 -95 234q-29 0 -51 -27t-32 -68.5t-14.5 -77t-4.5 -64.5q0 -32 3.5 -64t13 -71.5t31 -64.5t53.5 -25zM80 446q0 8 -7 10q-4 0 -8.5 -4t-4.5 -11q0 -9 8 -9q4 0 8 3.5t4 10.5z" />
    <glyph glyph-name="Odieresis" unicode="&#xd6;" horiz-adv-x="444" 
d="M168 644q-18 0 -32.5 12.5t-14.5 32.5q0 21 14.5 33.5t32.5 12.5t32 -12.5t14 -33.5t-14 -33t-32 -12zM278 644q-18 0 -32.5 12.5t-14.5 32.5q0 21 14.5 33.5t32.5 12.5t32 -12.5t14 -33.5t-14 -33t-32 -12zM231 -9q-69 0 -119.5 46t-73 113.5t-22.5 145.5q0 80 20.5 152
t71.5 124.5t124 52.5q99 0 150.5 -95.5t51.5 -238.5q0 -77 -20.5 -143t-68 -111.5t-114.5 -45.5zM79 468q3 0 9 9t14 23t13 21q12 16 28 32.5t24.5 25t8.5 10.5q0 3 -5 4q-23 0 -59.5 -47.5t-36.5 -72.5q0 -5 4 -5zM231 71q28 0 48 21.5t30 57.5t14 72.5t4 76.5
q0 234 -95 234q-29 0 -51 -27t-32 -68.5t-14.5 -77t-4.5 -64.5q0 -32 3.5 -64t13 -71.5t31 -64.5t53.5 -25zM80 446q0 8 -7 10q-4 0 -8.5 -4t-4.5 -11q0 -9 8 -9q4 0 8 3.5t4 10.5z" />
    <glyph glyph-name="multiply" unicode="&#xd7;" horiz-adv-x="366" 
d="M274 128q-19 0 -40.5 24t-37.5 48t-22 24q-4 0 -19.5 -23t-38 -46.5t-42.5 -23.5q-16 0 -26.5 10t-10.5 26q0 20 41 67t41 55q0 3 -41 48t-41 63q0 12 11 28t26 16q18 0 57.5 -44t42.5 -44q6 0 21.5 23t36.5 45.5t41 22.5q10 0 21 -11t11 -22q0 -20 -37 -69.5t-37 -57.5
q0 -10 41.5 -55.5t41.5 -58.5q0 -14 -13.5 -29.5t-26.5 -15.5zM74 421q0 5 -5 7q-5 1 -11.5 -8t-6.5 -19q0 -9 7 -9q5 0 10.5 11.5t5.5 17.5zM75 143q3 3 -1 13.5t-9 15.5q-9 9 -15 5q-8 -8 9 -28q10 -10 16 -6z" />
    <glyph glyph-name="Oslash" unicode="&#xd8;" horiz-adv-x="444" 
d="M231 -9q-41 0 -74 15q-38 -83 -48 -83q-15 0 -42 10t-27 26q0 6 40 111q-64 88 -64 226q0 80 20.5 152t71.5 124.5t124 52.5q37 0 68 -14q23 55 56 55q15 0 32 -10t17 -23q0 -16 -30 -91q59 -91 59 -251q0 -77 -20.5 -143t-68 -111.5t-114.5 -45.5zM79 468q3 0 9 9t14 23
t13 21q12 16 28 32.5t24.5 25t8.5 10.5q0 3 -5 4q-23 0 -59.5 -47.5t-36.5 -72.5q0 -5 4 -5zM136 212q94 236 127 314q-13 7 -31 7q-29 0 -51 -27t-32 -68.5t-14.5 -77t-4.5 -64.5q0 -36 6 -84zM80 446q0 8 -7 10q-4 0 -8.5 -4t-4.5 -11q0 -9 8 -9q4 0 8 3.5t4 10.5zM231 71
q28 0 48 21.5t30 57.5t14 72.5t4 76.5q0 66 -6 110q-66 -171 -130 -325q18 -13 40 -13zM86 -32l7.5 20t8 20.5t6 17t2.5 13.5t-4 6q-11 4 -15 -4q-22 -40 -22 -67q0 -4 4 -7t8 -2.5t5 3.5z" />
    <glyph glyph-name="Ugrave" unicode="&#xd9;" horiz-adv-x="423" 
d="M251 638q-8 -8 -15 -8q-16 0 -44 41t-32 63q-1 12 8 25t21 13q17 0 60 -60q15 -22 15 -41.5t-13 -32.5zM208 -4q-90 0 -142.5 61.5t-52.5 163.5v309q0 30 12 58t41 28q34 0 47.5 -18t13.5 -70v-300v-19.5v-20t1 -18t2.5 -19t4.5 -16t7 -15.5t10.5 -11.5t15 -10t19.5 -5
t25 -2.5q20 0 35 7t24 23t14 29.5t7 39.5t2.5 40t0.5 42v12v247q0 17 3.5 35t15.5 35t31 17q63 0 63 -86v-286q0 -116 -51.5 -183t-148.5 -67zM323 556q0 14 13 28q15 19 0 19q-8 0 -17 -15q-9 -18 -10 -30q0 -14 7 -14t7 12zM55 570q2 5 8.5 14t6.5 14t-3 5q-11 0 -20 -13
t-13.5 -26.5t-4 -21t4.5 -7.5q8 0 21 35zM124 48q0 2 -3 5t-9.5 8.5t-10.5 10.5q-27 29 -36 50q-8 18 -16 18q-4 0 -4 -7q1 -19 27.5 -55t45.5 -36q6 0 6 6zM147 39q0 1 -2.5 4t-5.5 3q-9 -2 -9 -9q2 -8 8 -7q9 0 9 9z" />
    <glyph glyph-name="Uacute" unicode="&#xda;" horiz-adv-x="423" 
d="M168 640q-12 8 -9.5 28.5t17.5 41.5q43 60 60 60q8 0 19 -13t10 -23q-4 -24 -31.5 -62.5t-47.5 -38.5q-8 0 -18 7zM208 -4q-90 0 -142.5 61.5t-52.5 163.5v309q0 30 12 58t41 28q34 0 47.5 -18t13.5 -70v-300v-19.5v-20t1 -18t2.5 -19t4.5 -16t7 -15.5t10.5 -11.5t15 -10
t19.5 -5t25 -2.5q20 0 35 7t24 23t14 29.5t7 39.5t2.5 40t0.5 42v12v247q0 17 3.5 35t15.5 35t31 17q63 0 63 -86v-286q0 -116 -51.5 -183t-148.5 -67zM323 556q0 14 13 28q15 19 0 19q-8 0 -17 -15q-9 -18 -10 -30q0 -14 7 -14t7 12zM55 570q2 5 8.5 14t6.5 14t-3 5
q-11 0 -20 -13t-13.5 -26.5t-4 -21t4.5 -7.5q8 0 21 35zM124 48q0 2 -3 5t-9.5 8.5t-10.5 10.5q-27 29 -36 50q-8 18 -16 18q-4 0 -4 -7q1 -19 27.5 -55t45.5 -36q6 0 6 6zM147 39q0 1 -2.5 4t-5.5 3q-9 -2 -9 -9q2 -8 8 -7q9 0 9 9z" />
    <glyph glyph-name="Ucircumflex" unicode="&#xdb;" horiz-adv-x="423" 
d="M122 667q0 23 35 69t57 46q20 0 54 -46.5t34 -67.5q0 -12 -11 -20t-24 -8q-12 0 -20.5 8.5t-18 26t-13.5 22.5q-6 -7 -16.5 -24t-20.5 -26t-23 -9q-10 0 -21.5 9.5t-11.5 19.5zM208 -4q-90 0 -142.5 61.5t-52.5 163.5v309q0 30 12 58t41 28q34 0 47.5 -18t13.5 -70v-300
v-19.5v-20t1 -18t2.5 -19t4.5 -16t7 -15.5t10.5 -11.5t15 -10t19.5 -5t25 -2.5q20 0 35 7t24 23t14 29.5t7 39.5t2.5 40t0.5 42v12v247q0 17 3.5 35t15.5 35t31 17q63 0 63 -86v-286q0 -116 -51.5 -183t-148.5 -67zM323 556q0 14 13 28q15 19 0 19q-8 0 -17 -15
q-9 -18 -10 -30q0 -14 7 -14t7 12zM55 570q2 5 8.5 14t6.5 14t-3 5q-11 0 -20 -13t-13.5 -26.5t-4 -21t4.5 -7.5q8 0 21 35zM124 48q0 2 -3 5t-9.5 8.5t-10.5 10.5q-27 29 -36 50q-8 18 -16 18q-4 0 -4 -7q1 -19 27.5 -55t45.5 -36q6 0 6 6zM147 39q0 1 -2.5 4t-5.5 3
q-9 -2 -9 -9q2 -8 8 -7q9 0 9 9z" />
    <glyph glyph-name="Udieresis" unicode="&#xdc;" horiz-adv-x="423" 
d="M157 644q-18 0 -32.5 12.5t-14.5 32.5q0 21 14.5 33.5t32.5 12.5t32 -12.5t14 -33.5t-14 -33t-32 -12zM267 644q-18 0 -32.5 12.5t-14.5 32.5q0 21 14.5 33.5t32.5 12.5t32 -12.5t14 -33.5t-14 -33t-32 -12zM208 -4q-90 0 -142.5 61.5t-52.5 163.5v309q0 30 12 58t41 28
q34 0 47.5 -18t13.5 -70v-300v-19.5v-20t1 -18t2.5 -19t4.5 -16t7 -15.5t10.5 -11.5t15 -10t19.5 -5t25 -2.5q20 0 35 7t24 23t14 29.5t7 39.5t2.5 40t0.5 42v12v247q0 17 3.5 35t15.5 35t31 17q63 0 63 -86v-286q0 -116 -51.5 -183t-148.5 -67zM323 556q0 14 13 28
q15 19 0 19q-8 0 -17 -15q-9 -18 -10 -30q0 -14 7 -14t7 12zM55 570q2 5 8.5 14t6.5 14t-3 5q-11 0 -20 -13t-13.5 -26.5t-4 -21t4.5 -7.5q8 0 21 35zM124 48q0 2 -3 5t-9.5 8.5t-10.5 10.5q-27 29 -36 50q-8 18 -16 18q-4 0 -4 -7q1 -19 27.5 -55t45.5 -36q6 0 6 6zM147 39
q0 1 -2.5 4t-5.5 3q-9 -2 -9 -9q2 -8 8 -7q9 0 9 9z" />
    <glyph glyph-name="Yacute" unicode="&#xdd;" horiz-adv-x="417" 
d="M165 640q-12 8 -9.5 28.5t17.5 41.5q43 60 60 60q8 0 19 -13t10 -23q-4 -24 -31.5 -62.5t-47.5 -38.5q-7 0 -18 7zM208 0q-25 0 -39 16t-14 36v139q0 25 -5.5 42t-25.5 61l-119 262q-8 16 9.5 38t47.5 22q22 0 31 -21l93 -218q14 -35 24 -35t25 35l100 223q7 16 32 16
q24 0 37 -23t5 -41l-125 -271q-14 -30 -16.5 -45.5t-2.5 -61.5v-122q0 -28 -17.5 -40t-39.5 -12zM36 551q-2 6 -2 14v10q-1 5 -3 9t-4 3q-18 -7 -5 -41q5 -11 12 -9q7 3 2 14zM192 33q-10 24 -11 41q-1 23 -5 23q-5 0 -6 -16q-1 -29 5.5 -44.5t16.5 -15.5q6 0 0 12z" />
    <glyph glyph-name="Thorn" unicode="&#xde;" horiz-adv-x="354" 
d="M73 0q-24 0 -33.5 22.5t-9.5 80.5v439q0 42 10 59t33 17q27 0 42 -12.5t15 -47.5v-57q7 1 29 1q103 0 144 -45t41 -139q0 -95 -51.5 -149.5t-162.5 -50.5v-1q0 -23 -1 -38t-6 -36t-17.5 -32t-32.5 -11zM60 563q-3 4 -3 11q0 10 9 19l9 9q0 3 -6 3q-9 0 -16.5 -10
t-7.5 -25q0 -18 8 -18q7 0 7 11zM130 201h45q38 0 54 23.5t16 95.5q0 100 -51 100q-50 0 -64 -3v-216zM51 76q5 0 5 62q0 35 -6 35t-6 -35q0 -62 7 -62zM51 65q-6 0 -6 -9q0 -11 7 -11q5 0 5 11q0 9 -6 9z" />
    <glyph glyph-name="germandbls" unicode="&#xdf;" horiz-adv-x="397" 
d="M69 -13q-46 0 -49 133q-4 123 -1.5 216.5t15.5 156.5t47 95.5t94 32.5q96 0 146 -47t50 -135q0 -33 -14 -61.5t-31 -43t-30.5 -25.5t-13.5 -15q0 -3 11.5 -7.5t27 -13t31 -22.5t26.5 -43t11 -68q0 -44 -16.5 -74.5t-47 -46t-64 -21.5t-76.5 -6q-21 0 -33.5 12t-12.5 34
q0 26 20.5 37.5t68.5 11.5q14 0 21 1t18 6t16 18t6 34q1 30 -14 48.5t-36.5 26.5t-43.5 14t-37.5 16t-15.5 28q0 14 12.5 25.5t31 21.5t36.5 23t30.5 36t12.5 54q0 40 -23 67.5t-48 27.5q-17 0 -30 -11t-20.5 -33t-12.5 -42t-6.5 -52.5t-2 -49t0 -46.5t0.5 -31
q0 -46 0.5 -124t0.5 -116q0 -14 -17 -28t-38 -14zM70 505q8 21 22 41.5t23.5 33t9.5 15.5q0 5 -15 -3q-18 -9 -34.5 -40.5t-16.5 -43.5q0 -8 4 -8q5 0 7 5zM62 479q0 7 -8 7t-8 -8q0 -6 8 -6t8 7z" />
    <glyph glyph-name="agrave" unicode="&#xe0;" horiz-adv-x="408" 
d="M243 638q-8 -8 -15 -8q-16 0 -44 41t-32 63q-1 12 8 25t21 13q17 0 60 -60q15 -22 15 -41.5t-13 -32.5zM158 -8q-67 0 -104.5 79.5t-37.5 219.5q0 152 44 238.5t124 91.5q26 1 47 -7t31 -19t17.5 -20t9.5 -9t4 14.5t12.5 29t32.5 14.5q19 0 32 -9.5t13 -22.5v-388
q0 -31 3 -77.5t3 -55.5q0 -35 -13.5 -57t-34.5 -22q-24 0 -39 27t-15 69q0 26 -5 26q-3 0 -11.5 -19t-20 -42t-36 -42t-56.5 -19zM312 557q5 0 9 20q1 5 3.5 11.5t4 10.5t1.5 7q0 5 -4 5q-6 0 -13.5 -11t-7.5 -25q0 -18 7 -18zM182 90q28 0 59.5 95.5t31.5 180.5
q0 66 -21 114.5t-49 48.5q-33 0 -56.5 -65.5t-23.5 -157.5q0 -82 18.5 -149t40.5 -67zM110 33q4 0 6.5 3.5t1.5 6.5q-1 2 -16.5 22t-18.5 32q-1 3 -3.5 14t-5 18t-6.5 7q-3 0 -4 -6t0.5 -17.5t5.5 -23.5q8 -21 20 -38.5t20 -17.5zM339 22q0 3 -11.5 16.5t-11.5 24.5t-7 11
t-7 -12q0 -16 9 -32.5t18 -16.5q10 0 10 9zM135 17q8 0 12 13q3 12 -8 12q-12 0 -12 -12q0 -13 8 -13z" />
    <glyph glyph-name="aacute" unicode="&#xe1;" horiz-adv-x="408" 
d="M160 640q-12 8 -9.5 28.5t17.5 41.5q43 60 60 60q8 0 19 -13t10 -23q-4 -24 -31.5 -62.5t-47.5 -38.5q-8 0 -18 7zM158 -8q-67 0 -104.5 79.5t-37.5 219.5q0 152 44 238.5t124 91.5q26 1 47 -7t31 -19t17.5 -20t9.5 -9t4 14.5t12.5 29t32.5 14.5q19 0 32 -9.5t13 -22.5
v-388q0 -31 3 -77.5t3 -55.5q0 -35 -13.5 -57t-34.5 -22q-24 0 -39 27t-15 69q0 26 -5 26q-3 0 -11.5 -19t-20 -42t-36 -42t-56.5 -19zM312 557q5 0 9 20q1 5 3.5 11.5t4 10.5t1.5 7q0 5 -4 5q-6 0 -13.5 -11t-7.5 -25q0 -18 7 -18zM182 90q28 0 59.5 95.5t31.5 180.5
q0 66 -21 114.5t-49 48.5q-33 0 -56.5 -65.5t-23.5 -157.5q0 -82 18.5 -149t40.5 -67zM110 33q4 0 6.5 3.5t1.5 6.5q-1 2 -16.5 22t-18.5 32q-1 3 -3.5 14t-5 18t-6.5 7q-3 0 -4 -6t0.5 -17.5t5.5 -23.5q8 -21 20 -38.5t20 -17.5zM339 22q0 3 -11.5 16.5t-11.5 24.5t-7 11
t-7 -12q0 -16 9 -32.5t18 -16.5q10 0 10 9zM135 17q8 0 12 13q3 12 -8 12q-12 0 -12 -12q0 -13 8 -13z" />
    <glyph glyph-name="acircumflex" unicode="&#xe2;" horiz-adv-x="408" 
d="M114 667q0 23 35 69t57 46q20 0 54 -46.5t34 -67.5q0 -12 -11 -20t-24 -8q-12 0 -20.5 8.5t-18 26t-13.5 22.5q-6 -7 -16.5 -24t-20.5 -26t-23 -9q-10 0 -21.5 9.5t-11.5 19.5zM158 -8q-67 0 -104.5 79.5t-37.5 219.5q0 152 44 238.5t124 91.5q26 1 47 -7t31 -19
t17.5 -20t9.5 -9t4 14.5t12.5 29t32.5 14.5q19 0 32 -9.5t13 -22.5v-388q0 -31 3 -77.5t3 -55.5q0 -35 -13.5 -57t-34.5 -22q-24 0 -39 27t-15 69q0 26 -5 26q-3 0 -11.5 -19t-20 -42t-36 -42t-56.5 -19zM312 557q5 0 9 20q1 5 3.5 11.5t4 10.5t1.5 7q0 5 -4 5
q-6 0 -13.5 -11t-7.5 -25q0 -18 7 -18zM182 90q28 0 59.5 95.5t31.5 180.5q0 66 -21 114.5t-49 48.5q-33 0 -56.5 -65.5t-23.5 -157.5q0 -82 18.5 -149t40.5 -67zM110 33q4 0 6.5 3.5t1.5 6.5q-1 2 -16.5 22t-18.5 32q-1 3 -3.5 14t-5 18t-6.5 7q-3 0 -4 -6t0.5 -17.5
t5.5 -23.5q8 -21 20 -38.5t20 -17.5zM339 22q0 3 -11.5 16.5t-11.5 24.5t-7 11t-7 -12q0 -16 9 -32.5t18 -16.5q10 0 10 9zM135 17q8 0 12 13q3 12 -8 12q-12 0 -12 -12q0 -13 8 -13z" />
    <glyph glyph-name="atilde" unicode="&#xe3;" horiz-adv-x="408" 
d="M248 636q-19 0 -36 13.5t-30 27t-22 13.5q-7 0 -15.5 -9t-12.5 -16q-5 -12 -10 -15.5t-17 -3.5q-10 0 -18 9t-8 18q0 28 25 56t52 28q22 0 53 -27t43 -27q14 0 26 28t27 28q10 0 17 -9.5t7 -19.5q0 -34 -24.5 -64t-56.5 -30zM158 -8q-67 0 -104.5 79.5t-37.5 219.5
q0 152 44 238.5t124 91.5q26 1 47 -7t31 -19t17.5 -20t9.5 -9t4 14.5t12.5 29t32.5 14.5q19 0 32 -9.5t13 -22.5v-388q0 -31 3 -77.5t3 -55.5q0 -35 -13.5 -57t-34.5 -22q-24 0 -39 27t-15 69q0 26 -5 26q-3 0 -11.5 -19t-20 -42t-36 -42t-56.5 -19zM312 557q5 0 9 20
q1 5 3.5 11.5t4 10.5t1.5 7q0 5 -4 5q-6 0 -13.5 -11t-7.5 -25q0 -18 7 -18zM182 90q28 0 59.5 95.5t31.5 180.5q0 66 -21 114.5t-49 48.5q-33 0 -56.5 -65.5t-23.5 -157.5q0 -82 18.5 -149t40.5 -67zM110 33q4 0 6.5 3.5t1.5 6.5q-1 2 -16.5 22t-18.5 32q-1 3 -3.5 14
t-5 18t-6.5 7q-3 0 -4 -6t0.5 -17.5t5.5 -23.5q8 -21 20 -38.5t20 -17.5zM339 22q0 3 -11.5 16.5t-11.5 24.5t-7 11t-7 -12q0 -16 9 -32.5t18 -16.5q10 0 10 9zM135 17q8 0 12 13q3 12 -8 12q-12 0 -12 -12q0 -13 8 -13z" />
    <glyph glyph-name="adieresis" unicode="&#xe4;" horiz-adv-x="408" 
d="M150 644q-18 0 -32.5 12.5t-14.5 32.5q0 21 14.5 33.5t32.5 12.5t32 -12.5t14 -33.5t-14 -33t-32 -12zM260 644q-18 0 -32.5 12.5t-14.5 32.5q0 21 14.5 33.5t32.5 12.5t32 -12.5t14 -33.5t-14 -33t-32 -12zM158 -8q-67 0 -104.5 79.5t-37.5 219.5q0 152 44 238.5
t124 91.5q26 1 47 -7t31 -19t17.5 -20t9.5 -9t4 14.5t12.5 29t32.5 14.5q19 0 32 -9.5t13 -22.5v-388q0 -31 3 -77.5t3 -55.5q0 -35 -13.5 -57t-34.5 -22q-24 0 -39 27t-15 69q0 26 -5 26q-3 0 -11.5 -19t-20 -42t-36 -42t-56.5 -19zM312 557q5 0 9 20q1 5 3.5 11.5t4 10.5
t1.5 7q0 5 -4 5q-6 0 -13.5 -11t-7.5 -25q0 -18 7 -18zM182 90q28 0 59.5 95.5t31.5 180.5q0 66 -21 114.5t-49 48.5q-33 0 -56.5 -65.5t-23.5 -157.5q0 -82 18.5 -149t40.5 -67zM110 33q4 0 6.5 3.5t1.5 6.5q-1 2 -16.5 22t-18.5 32q-1 3 -3.5 14t-5 18t-6.5 7q-3 0 -4 -6
t0.5 -17.5t5.5 -23.5q8 -21 20 -38.5t20 -17.5zM339 22q0 3 -11.5 16.5t-11.5 24.5t-7 11t-7 -12q0 -16 9 -32.5t18 -16.5q10 0 10 9zM135 17q8 0 12 13q3 12 -8 12q-12 0 -12 -12q0 -13 8 -13z" />
    <glyph glyph-name="aring" unicode="&#xe5;" horiz-adv-x="408" 
d="M203 624q-27 0 -46 16t-19 45q0 33 18.5 53.5t44.5 20.5q28 0 48.5 -19.5t20.5 -48.5q0 -26 -20 -46.5t-47 -20.5zM201 669q8 0 14.5 8.5t6.5 16.5q0 5 -6 11t-13 6q-20 0 -20 -24q0 -7 6 -12.5t12 -5.5zM158 -8q-67 0 -104.5 79.5t-37.5 219.5q0 152 44 238.5t124 91.5
q26 1 47 -7t31 -19t17.5 -20t9.5 -9t4 14.5t12.5 29t32.5 14.5q19 0 32 -9.5t13 -22.5v-388q0 -31 3 -77.5t3 -55.5q0 -35 -13.5 -57t-34.5 -22q-24 0 -39 27t-15 69q0 26 -5 26q-3 0 -11.5 -19t-20 -42t-36 -42t-56.5 -19zM312 557q5 0 9 20q1 5 3.5 11.5t4 10.5t1.5 7
q0 5 -4 5q-6 0 -13.5 -11t-7.5 -25q0 -18 7 -18zM182 90q28 0 59.5 95.5t31.5 180.5q0 66 -21 114.5t-49 48.5q-33 0 -56.5 -65.5t-23.5 -157.5q0 -82 18.5 -149t40.5 -67zM110 33q4 0 6.5 3.5t1.5 6.5q-1 2 -16.5 22t-18.5 32q-1 3 -3.5 14t-5 18t-6.5 7q-3 0 -4 -6
t0.5 -17.5t5.5 -23.5q8 -21 20 -38.5t20 -17.5zM339 22q0 3 -11.5 16.5t-11.5 24.5t-7 11t-7 -12q0 -16 9 -32.5t18 -16.5q10 0 10 9zM135 17q8 0 12 13q3 12 -8 12q-12 0 -12 -12q0 -13 8 -13z" />
    <glyph glyph-name="ae" unicode="&#xe6;" horiz-adv-x="683" 
d="M158 -8q-66 0 -104 75.5t-38 198.5q0 164 65 257.5t162 98.5q36 2 61 -7t37.5 -26t17 -27.5t8.5 -25.5q60 87 149 87q68 0 111 -49.5t39 -123.5q-5 -89 -69 -156t-153 -67q-17 0 -17 -14q0 -62 21.5 -93.5t58.5 -31.5q26 0 43.5 19.5t17.5 47.5q0 24 13 38.5t33 14.5
q23 0 36.5 -19t13.5 -50q0 -61 -48 -105t-115 -44q-58 0 -102.5 36.5t-69.5 102.5q-3 0 -10 -14.5t-19 -34.5t-30 -40t-47 -34t-65 -14zM371 477q3 0 18 23t36 47t39 26q6 1 10 3.5t3 5.5q0 10 -13 8q-32 -2 -66 -43t-32 -66q2 -7 5 -4zM182 90q19 0 46 41t48.5 104
t21.5 116q0 73 -13 125.5t-39 52.5q-38 0 -80.5 -73t-42.5 -172q0 -67 18.5 -130.5t40.5 -63.5zM424 315q3 -4 14 -4q51 0 91.5 45.5t40.5 97.5q0 32 -15.5 53t-38.5 21q-31 0 -56 -49t-34.5 -100.5t-1.5 -63.5zM358 467q-12 -2 -10 -22q2 -8 4 -8q5 0 9 9t2 16q-3 5 -5 5z
M110 33q4 0 6.5 3.5t1.5 6.5q-1 2 -16.5 22t-18.5 32q-1 3 -3.5 14t-5 18t-6.5 7q-3 0 -4 -6t0.5 -17.5t5.5 -23.5q8 -21 20 -38.5t20 -17.5zM448 43q-1 3 -15.5 12.5t-17.5 20.5q0 1 -1 3t-3.5 4.5t-5.5 1.5q-6 -2 -3 -14q4 -15 17.5 -28t21.5 -11q9 4 7 11zM135 17
q8 0 12 13q3 12 -8 12q-12 0 -12 -12q0 -13 8 -13z" />
    <glyph glyph-name="ccedilla" unicode="&#xe7;" horiz-adv-x="386" 
d="M178 -169q-25 0 -48 14.5t-23 44.5q0 21 16 21q8 0 29 -7.5t30 -7.5q28 0 28 19q0 7 -15.5 12.5t-31 16.5t-15.5 31q0 11 8 24q-68 24 -106.5 102.5t-38.5 190.5q0 143 60 237t152 94q75 0 115 -59t34 -166q-3 -57 -41 -57q-21 0 -33 6t-16.5 19.5t-5 23.5t1 30t1.5 28
q0 34 -14 57t-39 23q-42 0 -69 -67t-27 -171q0 -96 24 -149t69 -53q21 0 37.5 19t16.5 42q0 25 11 42t34 17t37 -18t14 -45q0 -59 -41 -103.5t-104 -50.5q-4 -8 -4.5 -11t1.5 -5q55 0 55 -68q0 -33 -29 -54.5t-73 -21.5zM79 480q3 0 18 23t36 47t39 26q6 1 10 3.5t3 5.5
q0 10 -13 8q-32 -2 -66 -43t-32 -66q3 -3 5 -4zM66 470q-12 -2 -10 -22q2 -8 4 -8q5 0 9 9t2 16q-3 5 -5 5z" />
    <glyph glyph-name="egrave" unicode="&#xe8;" 
d="M235 638q-8 -8 -15 -8q-16 0 -44 41t-32 63q-1 12 8 25t21 13q17 0 60 -60q15 -22 15 -41.5t-13 -32.5zM210 -10q-89 0 -144 83t-55 219q0 144 60.5 237.5t153.5 93.5q68 0 111 -49.5t39 -123.5q-5 -89 -69 -156t-153 -67q-17 0 -17 -14q0 -62 21.5 -93.5t58.5 -31.5
q26 0 43.5 19.5t17.5 47.5q0 24 13 38.5t33 14.5q23 0 36.5 -19t13.5 -50q0 -61 -48 -105t-115 -44zM80 477q3 0 18 23t36 47t39 26q6 1 10 3.5t3 5.5q0 10 -13 8q-32 -2 -66 -43t-32 -66q1 -7 5 -4zM133 315q3 -4 14 -4q51 0 91.5 45.5t40.5 97.5q0 32 -15.5 53t-38.5 21
q-31 0 -56 -49t-34.5 -100.5t-1.5 -63.5zM67 467q-12 -2 -10 -22q2 -8 4 -8q5 0 9 9t2 16q-3 5 -5 5z" />
    <glyph glyph-name="eacute" unicode="&#xe9;" 
d="M152 640q-12 8 -9.5 28.5t17.5 41.5q43 60 60 60q8 0 19 -13t10 -23q-4 -24 -31.5 -62.5t-47.5 -38.5q-8 0 -18 7zM210 -10q-89 0 -144 83t-55 219q0 144 60.5 237.5t153.5 93.5q68 0 111 -49.5t39 -123.5q-5 -89 -69 -156t-153 -67q-17 0 -17 -14q0 -62 21.5 -93.5
t58.5 -31.5q26 0 43.5 19.5t17.5 47.5q0 24 13 38.5t33 14.5q23 0 36.5 -19t13.5 -50q0 -61 -48 -105t-115 -44zM80 477q3 0 18 23t36 47t39 26q6 1 10 3.5t3 5.5q0 10 -13 8q-32 -2 -66 -43t-32 -66q1 -7 5 -4zM133 315q3 -4 14 -4q51 0 91.5 45.5t40.5 97.5q0 32 -15.5 53
t-38.5 21q-31 0 -56 -49t-34.5 -100.5t-1.5 -63.5zM67 467q-12 -2 -10 -22q2 -8 4 -8q5 0 9 9t2 16q-3 5 -5 5z" />
    <glyph glyph-name="ecircumflex" unicode="&#xea;" 
d="M106 667q0 23 35 69t57 46q20 0 54 -46.5t34 -67.5q0 -12 -11 -20t-24 -8q-12 0 -20.5 8.5t-18 26t-13.5 22.5q-6 -7 -16.5 -24t-20.5 -26t-23 -9q-10 0 -21.5 9.5t-11.5 19.5zM210 -10q-89 0 -144 83t-55 219q0 144 60.5 237.5t153.5 93.5q68 0 111 -49.5t39 -123.5
q-5 -89 -69 -156t-153 -67q-17 0 -17 -14q0 -62 21.5 -93.5t58.5 -31.5q26 0 43.5 19.5t17.5 47.5q0 24 13 38.5t33 14.5q23 0 36.5 -19t13.5 -50q0 -61 -48 -105t-115 -44zM80 477q3 0 18 23t36 47t39 26q6 1 10 3.5t3 5.5q0 10 -13 8q-32 -2 -66 -43t-32 -66q1 -7 5 -4z
M133 315q3 -4 14 -4q51 0 91.5 45.5t40.5 97.5q0 32 -15.5 53t-38.5 21q-31 0 -56 -49t-34.5 -100.5t-1.5 -63.5zM67 467q-12 -2 -10 -22q2 -8 4 -8q5 0 9 9t2 16q-3 5 -5 5z" />
    <glyph glyph-name="edieresis" unicode="&#xeb;" 
d="M142 644q-18 0 -32.5 12.5t-14.5 32.5q0 21 14.5 33.5t32.5 12.5t32 -12.5t14 -33.5t-14 -33t-32 -12zM252 644q-18 0 -32.5 12.5t-14.5 32.5q0 21 14.5 33.5t32.5 12.5t32 -12.5t14 -33.5t-14 -33t-32 -12zM210 -10q-89 0 -144 83t-55 219q0 144 60.5 237.5t153.5 93.5
q68 0 111 -49.5t39 -123.5q-5 -89 -69 -156t-153 -67q-17 0 -17 -14q0 -62 21.5 -93.5t58.5 -31.5q26 0 43.5 19.5t17.5 47.5q0 24 13 38.5t33 14.5q23 0 36.5 -19t13.5 -50q0 -61 -48 -105t-115 -44zM80 477q3 0 18 23t36 47t39 26q6 1 10 3.5t3 5.5q0 10 -13 8
q-32 -2 -66 -43t-32 -66q1 -7 5 -4zM133 315q3 -4 14 -4q51 0 91.5 45.5t40.5 97.5q0 32 -15.5 53t-38.5 21q-31 0 -56 -49t-34.5 -100.5t-1.5 -63.5zM67 467q-12 -2 -10 -22q2 -8 4 -8q5 0 9 9t2 16q-3 5 -5 5z" />
    <glyph glyph-name="igrave" unicode="&#xec;" horiz-adv-x="156" 
d="M117 638q-8 -8 -15 -8q-16 0 -44 41t-32 63q-1 12 8 25t21 13q17 0 60 -60q15 -22 15 -41.5t-13 -32.5zM75 -4q-23 0 -36.5 10t-13.5 26v438q0 24 12 45.5t38 21.5q27 0 41.5 -19.5t14.5 -42.5v-443q0 -16 -16 -26t-40 -10zM43 440q3 0 4 9.5t1.5 23.5t2.5 21q0 1 2 7
t1.5 7.5t-1.5 3.5q-9 0 -14 -16.5t-5 -29.5q0 -26 9 -26z" />
    <glyph glyph-name="iacute" unicode="&#xed;" horiz-adv-x="156" 
d="M34 640q-12 8 -9.5 28.5t17.5 41.5q43 60 60 60q8 0 19 -13t10 -23q-4 -24 -31.5 -62.5t-47.5 -38.5q-8 0 -18 7zM75 -4q-23 0 -36.5 10t-13.5 26v438q0 24 12 45.5t38 21.5q27 0 41.5 -19.5t14.5 -42.5v-443q0 -16 -16 -26t-40 -10zM43 440q3 0 4 9.5t1.5 23.5t2.5 21
q0 1 2 7t1.5 7.5t-1.5 3.5q-9 0 -14 -16.5t-5 -29.5q0 -26 9 -26z" />
    <glyph glyph-name="icircumflex" unicode="&#xee;" horiz-adv-x="156" 
d="M-12 667q0 23 35 69t57 46q20 0 54 -46.5t34 -67.5q0 -12 -11 -20t-24 -8q-12 0 -20.5 8.5t-18 26t-13.5 22.5q-6 -7 -16.5 -24t-20.5 -26t-23 -9q-10 0 -21.5 9.5t-11.5 19.5zM75 -4q-23 0 -36.5 10t-13.5 26v438q0 24 12 45.5t38 21.5q27 0 41.5 -19.5t14.5 -42.5v-443
q0 -16 -16 -26t-40 -10zM43 440q3 0 4 9.5t1.5 23.5t2.5 21q0 1 2 7t1.5 7.5t-1.5 3.5q-9 0 -14 -16.5t-5 -29.5q0 -26 9 -26z" />
    <glyph glyph-name="idieresis" unicode="&#xef;" horiz-adv-x="156" 
d="M23 644q-18 0 -32.5 12.5t-14.5 32.5q0 21 14.5 33.5t32.5 12.5t32 -12.5t14 -33.5t-14 -33t-32 -12zM133 644q-18 0 -32.5 12.5t-14.5 32.5q0 21 14.5 33.5t32.5 12.5t32 -12.5t14 -33.5t-14 -33t-32 -12zM75 -4q-23 0 -36.5 10t-13.5 26v438q0 24 12 45.5t38 21.5
q27 0 41.5 -19.5t14.5 -42.5v-443q0 -16 -16 -26t-40 -10zM43 440q3 0 4 9.5t1.5 23.5t2.5 21q0 1 2 7t1.5 7.5t-1.5 3.5q-9 0 -14 -16.5t-5 -29.5q0 -26 9 -26z" />
    <glyph glyph-name="eth" unicode="&#xf0;" horiz-adv-x="396" 
d="M194 -11q-74 0 -128.5 53.5t-54.5 133.5q0 72 46.5 125.5t115.5 53.5q27 0 49.5 -10t34.5 -20t14 -10q4 0 4 10q0 30 -18.5 76t-38.5 76l-19 -20q-29 -32 -47 -32q-12 0 -23 11q-15 13 -11.5 30t29.5 44l21 22q-23 16 -41 22q-36 12 -36 44q0 11 12 16.5t24 5.5
q22 0 55.5 -9t56.5 -24q1 2 6.5 7.5t7.5 8t7 6.5t8.5 6.5t8 4t9.5 1.5q11 0 22 -11q12 -12 12.5 -25t-6 -23t-21.5 -26q44 -56 67.5 -140t23.5 -171q0 -236 -190 -236zM196 74q46 0 66.5 29t20.5 75q0 36 -31 64t-70 28q-32 0 -50.5 -26.5t-18.5 -62.5q0 -49 21.5 -78
t61.5 -29zM68 119q-2 7 -6.5 24t-6.5 27q-4 19 -10 19q-5 0 -7 -10q-3 -17 10.5 -54t19.5 -37t6 6q0 3 -2.5 11.5t-3.5 13.5z" />
    <glyph glyph-name="ntilde" unicode="&#xf1;" horiz-adv-x="391" 
d="M240 636q-19 0 -36 13.5t-30 27t-22 13.5q-7 0 -15.5 -9t-12.5 -16q-5 -12 -10 -15.5t-17 -3.5q-10 0 -18 9t-8 18q0 28 25 56t52 28q22 0 53 -27t43 -27q14 0 26 28t27 28q10 0 17 -9.5t7 -19.5q0 -34 -24.5 -64t-56.5 -30zM67 0q-25 0 -35 14.5t-10 50.5v477
q0 44 9.5 59t38.5 15q55 0 55 -45v-14q0 -40 4 -40q2 0 12 25.5t36.5 51.5t69.5 26q64 0 93 -63t29 -201v-325q0 -31 -56 -31q-25 0 -38 10.5t-13 23.5v313q0 68 -5.5 104t-16 48.5t-29.5 12.5q-41 0 -61 -68.5t-20 -176.5v-222q0 -18 -13 -29t-25 -13.5t-25 -2.5zM42 515
q4 0 8.5 35.5t4.5 44.5q0 8 -3 8q-9 0 -13.5 -21t-4.5 -35q0 -32 8 -32zM299 29q0 7 -6.5 14t-6.5 17q0 24 -8 24t-8 -25q0 -19 6 -31.5t14 -12.5q9 0 9 14zM66 26q0 5 -8 12.5t-8 17.5q0 21 -7 21q-6 0 -6 -26q0 -15 6.5 -27t14.5 -12t8 14z" />
    <glyph glyph-name="ograve" unicode="&#xf2;" 
d="M235 638q-8 -8 -15 -8q-16 0 -44 41t-32 63q-1 12 8 25t21 13q17 0 60 -60q15 -22 15 -41.5t-13 -32.5zM197 -7q-50 0 -87 26.5t-57 71.5t-29 96.5t-9 110.5q0 60 9 113.5t28.5 103t57 79t87.5 29.5q51 0 87.5 -26t56 -72.5t28 -99.5t8.5 -118q0 -64 -9 -117.5
t-28.5 -99.5t-56 -71.5t-86.5 -25.5zM85 505q14 36 39 56q5 5 1.5 10.5t-6.5 5.5q-11 0 -31.5 -33.5t-20.5 -52.5q0 -8 5 -8q4 0 13 22zM197 56q23 0 40 26.5t24.5 69t11 81t3.5 75.5q0 40 -5.5 92.5t-25 106.5t-48.5 54t-48 -55.5t-23.5 -106.5t-4.5 -92q0 -37 3.5 -75.5
t11 -80.5t23.5 -68.5t38 -26.5zM71 461q0 15 -9 15q-10 0 -10 -17q0 -14 10 -14q1 0 3 1.5t4 5.5t2 9z" />
    <glyph glyph-name="oacute" unicode="&#xf3;" 
d="M152 640q-12 8 -9.5 28.5t17.5 41.5q43 60 60 60q8 0 19 -13t10 -23q-4 -24 -31.5 -62.5t-47.5 -38.5q-8 0 -18 7zM197 -7q-50 0 -87 26.5t-57 71.5t-29 96.5t-9 110.5q0 60 9 113.5t28.5 103t57 79t87.5 29.5q51 0 87.5 -26t56 -72.5t28 -99.5t8.5 -118q0 -64 -9 -117.5
t-28.5 -99.5t-56 -71.5t-86.5 -25.5zM85 505q14 36 39 56q5 5 1.5 10.5t-6.5 5.5q-11 0 -31.5 -33.5t-20.5 -52.5q0 -8 5 -8q4 0 13 22zM197 56q23 0 40 26.5t24.5 69t11 81t3.5 75.5q0 40 -5.5 92.5t-25 106.5t-48.5 54t-48 -55.5t-23.5 -106.5t-4.5 -92q0 -37 3.5 -75.5
t11 -80.5t23.5 -68.5t38 -26.5zM71 461q0 15 -9 15q-10 0 -10 -17q0 -14 10 -14q1 0 3 1.5t4 5.5t2 9z" />
    <glyph glyph-name="ocircumflex" unicode="&#xf4;" 
d="M106 667q0 23 35 69t57 46q20 0 54 -46.5t34 -67.5q0 -12 -11 -20t-24 -8q-12 0 -20.5 8.5t-18 26t-13.5 22.5q-6 -7 -16.5 -24t-20.5 -26t-23 -9q-10 0 -21.5 9.5t-11.5 19.5zM197 -7q-50 0 -87 26.5t-57 71.5t-29 96.5t-9 110.5q0 60 9 113.5t28.5 103t57 79t87.5 29.5
q51 0 87.5 -26t56 -72.5t28 -99.5t8.5 -118q0 -64 -9 -117.5t-28.5 -99.5t-56 -71.5t-86.5 -25.5zM85 505q14 36 39 56q5 5 1.5 10.5t-6.5 5.5q-11 0 -31.5 -33.5t-20.5 -52.5q0 -8 5 -8q4 0 13 22zM197 56q23 0 40 26.5t24.5 69t11 81t3.5 75.5q0 40 -5.5 92.5t-25 106.5
t-48.5 54t-48 -55.5t-23.5 -106.5t-4.5 -92q0 -37 3.5 -75.5t11 -80.5t23.5 -68.5t38 -26.5zM71 461q0 15 -9 15q-10 0 -10 -17q0 -14 10 -14q1 0 3 1.5t4 5.5t2 9z" />
    <glyph glyph-name="otilde" unicode="&#xf5;" 
d="M240 636q-19 0 -36 13.5t-30 27t-22 13.5q-7 0 -15.5 -9t-12.5 -16q-5 -12 -10 -15.5t-17 -3.5q-10 0 -18 9t-8 18q0 28 25 56t52 28q22 0 53 -27t43 -27q14 0 26 28t27 28q10 0 17 -9.5t7 -19.5q0 -34 -24.5 -64t-56.5 -30zM197 -7q-50 0 -87 26.5t-57 71.5t-29 96.5
t-9 110.5q0 60 9 113.5t28.5 103t57 79t87.5 29.5q51 0 87.5 -26t56 -72.5t28 -99.5t8.5 -118q0 -64 -9 -117.5t-28.5 -99.5t-56 -71.5t-86.5 -25.5zM85 505q14 36 39 56q5 5 1.5 10.5t-6.5 5.5q-11 0 -31.5 -33.5t-20.5 -52.5q0 -8 5 -8q4 0 13 22zM197 56q23 0 40 26.5
t24.5 69t11 81t3.5 75.5q0 40 -5.5 92.5t-25 106.5t-48.5 54t-48 -55.5t-23.5 -106.5t-4.5 -92q0 -37 3.5 -75.5t11 -80.5t23.5 -68.5t38 -26.5zM71 461q0 15 -9 15q-10 0 -10 -17q0 -14 10 -14q1 0 3 1.5t4 5.5t2 9z" />
    <glyph glyph-name="odieresis" unicode="&#xf6;" 
d="M142 644q-18 0 -32.5 12.5t-14.5 32.5q0 21 14.5 33.5t32.5 12.5t32 -12.5t14 -33.5t-14 -33t-32 -12zM252 644q-18 0 -32.5 12.5t-14.5 32.5q0 21 14.5 33.5t32.5 12.5t32 -12.5t14 -33.5t-14 -33t-32 -12zM197 -7q-50 0 -87 26.5t-57 71.5t-29 96.5t-9 110.5
q0 60 9 113.5t28.5 103t57 79t87.5 29.5q51 0 87.5 -26t56 -72.5t28 -99.5t8.5 -118q0 -64 -9 -117.5t-28.5 -99.5t-56 -71.5t-86.5 -25.5zM85 505q14 36 39 56q5 5 1.5 10.5t-6.5 5.5q-11 0 -31.5 -33.5t-20.5 -52.5q0 -8 5 -8q4 0 13 22zM197 56q23 0 40 26.5t24.5 69
t11 81t3.5 75.5q0 40 -5.5 92.5t-25 106.5t-48.5 54t-48 -55.5t-23.5 -106.5t-4.5 -92q0 -37 3.5 -75.5t11 -80.5t23.5 -68.5t38 -26.5zM71 461q0 15 -9 15q-10 0 -10 -17q0 -14 10 -14q1 0 3 1.5t4 5.5t2 9z" />
    <glyph glyph-name="divide" unicode="&#xf7;" horiz-adv-x="380" 
d="M191 364q-20 0 -34 16.5t-14 38.5q0 28 14 46t39 18q20 0 34.5 -14t14.5 -37q0 -27 -14 -47.5t-40 -20.5zM165 413q5 3 10 24t9 26q3 3 3 7q-13 -1 -22 -19.5t-7 -33.5q0 -6 7 -4zM269 241q-1 0 -175 3q-18 1 -33 13t-15 34q0 39 97 39q134 0 159 -4q19 -3 31 -16t12 -28
q0 -17 -16.5 -27t-31 -12t-28.5 -2zM191 99q-43 0 -43 55q0 21 12 39.5t32 18.5q22 0 36.5 -15t14.5 -38q0 -21 -15 -40.5t-37 -19.5zM167 142q7 0 7 18q2 18 12 30v3q0 2 -1 2q-8 0 -16 -12.5t-8 -20.5q0 -20 6 -20z" />
    <glyph glyph-name="oslash" unicode="&#xf8;" 
d="M83 -77q-15 0 -42 10t-27 26q0 10 44 122q-43 79 -43 217q0 60 9 113.5t28.5 103t57 79t87.5 29.5q40 0 74 -18q13 27 15 31q18 30 44 30q15 0 32 -10t17 -23q0 -17 -38 -111q36 -82 36 -215q0 -64 -9 -117.5t-28.5 -99.5t-56 -71.5t-86.5 -25.5q-35 0 -65 14
q-39 -84 -49 -84zM85 505q14 36 39 56q5 5 1.5 10.5t-6.5 5.5q-11 0 -31.5 -33.5t-20.5 -52.5q0 -8 5 -8q4 0 13 22zM123 246q63 158 115 281q-19 34 -41 34q-29 0 -48 -55.5t-23.5 -106.5t-4.5 -92q0 -15 2 -61zM71 461q0 15 -9 15q-10 0 -10 -17q0 -14 10 -14q1 0 3 1.5
t4 5.5t2 9zM197 56q23 0 40 26.5t24.5 69t11 81t3.5 75.5q0 29 -1 50q-51 -132 -113 -281q15 -21 35 -21zM58 -37q3 8 8.5 21.5t9.5 23.5t8 21.5t4 16t-3 7.5q-11 4 -15 -4q-7 -12 -18 -40.5t-11 -39.5q0 -4 4 -7t8 -2.5t5 3.5z" />
    <glyph glyph-name="ugrave" unicode="&#xf9;" horiz-adv-x="385" 
d="M232 638q-8 -8 -15 -8q-16 0 -44 41t-32 63q-1 12 8 25t21 13q17 0 60 -60q15 -22 15 -41.5t-13 -32.5zM312 0q-38 0 -38 59q0 25 -4 25q-2 0 -3.5 -2t-5.5 -7.5t-7 -9.5q-49 -65 -101 -65q-65 0 -102.5 44t-37.5 120v405q0 23 13.5 35.5t34.5 12.5q23 0 41 -15t18 -36
v-392q0 -34 13.5 -55.5t35.5 -21.5q35 0 65 47t30 91v319q0 63 47 63q25 0 42 -17.5t17 -57.5v-467q0 -75 -58 -75zM299 588q7 8 5.5 12.5t-8.5 4.5t-14.5 -13t-7.5 -25q0 -10 7 -10q2 0 4 5t5.5 13t8.5 13zM53 597q0 7 -4 7q-6 0 -15.5 -12.5t-9.5 -23.5q0 -10 5 -10
t14.5 16.5t9.5 22.5zM95 52q0 7 -14.5 17t-18.5 23q-9 24 -13 24q-8 0 -8 -13q0 -14 17.5 -38.5t28.5 -24.5q8 0 8 12zM300 52q-2 24 -5 24q-7 0 -7 -21q0 -13 6 -28t13 -15q2 2 1 6.5t-4.5 15.5t-3.5 18z" />
    <glyph glyph-name="uacute" unicode="&#xfa;" horiz-adv-x="385" 
d="M149 640q-12 8 -9.5 28.5t17.5 41.5q43 60 60 60q8 0 19 -13t10 -23q-4 -24 -31.5 -62.5t-47.5 -38.5q-7 0 -18 7zM312 0q-38 0 -38 59q0 25 -4 25q-2 0 -3.5 -2t-5.5 -7.5t-7 -9.5q-49 -65 -101 -65q-65 0 -102.5 44t-37.5 120v405q0 23 13.5 35.5t34.5 12.5
q23 0 41 -15t18 -36v-392q0 -34 13.5 -55.5t35.5 -21.5q35 0 65 47t30 91v319q0 63 47 63q25 0 42 -17.5t17 -57.5v-467q0 -75 -58 -75zM299 588q7 8 5.5 12.5t-8.5 4.5t-14.5 -13t-7.5 -25q0 -10 7 -10q2 0 4 5t5.5 13t8.5 13zM53 597q0 7 -4 7q-6 0 -15.5 -12.5
t-9.5 -23.5q0 -10 5 -10t14.5 16.5t9.5 22.5zM95 52q0 7 -14.5 17t-18.5 23q-9 24 -13 24q-8 0 -8 -13q0 -14 17.5 -38.5t28.5 -24.5q8 0 8 12zM300 52q-2 24 -5 24q-7 0 -7 -21q0 -13 6 -28t13 -15q2 2 1 6.5t-4.5 15.5t-3.5 18z" />
    <glyph glyph-name="ucircumflex" unicode="&#xfb;" horiz-adv-x="385" 
d="M103 667q0 23 35 69t57 46q20 0 54 -46.5t34 -67.5q0 -12 -11 -20t-24 -8q-12 0 -20.5 8.5t-18 26t-13.5 22.5q-6 -7 -16.5 -24t-20.5 -26t-23 -9q-10 0 -21.5 9.5t-11.5 19.5zM312 0q-38 0 -38 59q0 25 -4 25q-2 0 -3.5 -2t-5.5 -7.5t-7 -9.5q-49 -65 -101 -65
q-65 0 -102.5 44t-37.5 120v405q0 23 13.5 35.5t34.5 12.5q23 0 41 -15t18 -36v-392q0 -34 13.5 -55.5t35.5 -21.5q35 0 65 47t30 91v319q0 63 47 63q25 0 42 -17.5t17 -57.5v-467q0 -75 -58 -75zM299 588q7 8 5.5 12.5t-8.5 4.5t-14.5 -13t-7.5 -25q0 -10 7 -10q2 0 4 5
t5.5 13t8.5 13zM53 597q0 7 -4 7q-6 0 -15.5 -12.5t-9.5 -23.5q0 -10 5 -10t14.5 16.5t9.5 22.5zM95 52q0 7 -14.5 17t-18.5 23q-9 24 -13 24q-8 0 -8 -13q0 -14 17.5 -38.5t28.5 -24.5q8 0 8 12zM300 52q-2 24 -5 24q-7 0 -7 -21q0 -13 6 -28t13 -15q2 2 1 6.5t-4.5 15.5
t-3.5 18z" />
    <glyph glyph-name="udieresis" unicode="&#xfc;" horiz-adv-x="385" 
d="M138 644q-18 0 -32.5 12.5t-14.5 32.5q0 21 14.5 33.5t32.5 12.5t32 -12.5t14 -33.5t-14 -33t-32 -12zM248 644q-18 0 -32.5 12.5t-14.5 32.5q0 21 14.5 33.5t32.5 12.5t32 -12.5t14 -33.5t-14 -33t-32 -12zM312 0q-38 0 -38 59q0 25 -4 25q-2 0 -3.5 -2t-5.5 -7.5
t-7 -9.5q-49 -65 -101 -65q-65 0 -102.5 44t-37.5 120v405q0 23 13.5 35.5t34.5 12.5q23 0 41 -15t18 -36v-392q0 -34 13.5 -55.5t35.5 -21.5q35 0 65 47t30 91v319q0 63 47 63q25 0 42 -17.5t17 -57.5v-467q0 -75 -58 -75zM299 588q7 8 5.5 12.5t-8.5 4.5t-14.5 -13
t-7.5 -25q0 -10 7 -10q2 0 4 5t5.5 13t8.5 13zM53 597q0 7 -4 7q-6 0 -15.5 -12.5t-9.5 -23.5q0 -10 5 -10t14.5 16.5t9.5 22.5zM95 52q0 7 -14.5 17t-18.5 23q-9 24 -13 24q-8 0 -8 -13q0 -14 17.5 -38.5t28.5 -24.5q8 0 8 12zM300 52q-2 24 -5 24q-7 0 -7 -21q0 -13 6 -28
t13 -15q2 2 1 6.5t-4.5 15.5t-3.5 18z" />
    <glyph glyph-name="yacute" unicode="&#xfd;" horiz-adv-x="383" 
d="M148 640q-12 8 -9.5 28.5t17.5 41.5q43 60 60 60q8 0 19 -13t10 -23q-4 -24 -31.5 -62.5t-47.5 -38.5q-8 0 -18 7zM188 -6q-59 0 -99.5 32.5t-40.5 83.5q0 23 9.5 39t24.5 16q16 0 27.5 -8t11.5 -22q0 -26 19.5 -41t47.5 -15q40 0 56.5 27.5t16.5 86.5v44q0 40 -2 40
l-3 -5q-2 -4 -6 -11t-10.5 -15t-16 -16.5t-20 -15.5t-25 -11.5t-30.5 -4.5q-58 0 -99 50t-41 166v160q0 19 12 32t33 13q29 0 45.5 -13t16.5 -35v-167q0 -68 12 -88.5t37 -20.5q36 0 65.5 49t29.5 108v107q0 30 13 46t35 16q21 0 41 -18t20 -56v-371q0 -87 -48 -134.5
t-132 -47.5zM47 599q4 3 2 7.5t-6 4.5q-9 0 -16 -16t-7 -24q0 -13 5 -13q3 0 7 9t8 19.5t7 12.5zM288 584q4 6 6 9.5t4 8t2 7t-3 2.5q-8 0 -17.5 -15.5t-9.5 -27.5q0 -11 7 -11q2 0 3.5 4t3 11t4.5 12zM69 271q-11 11 -18 29q-2 6 -3.5 12.5t-2.5 9.5t-2 3q-5 0 -5 -19
q0 -12 13.5 -37t20.5 -25t7 10q0 7 -10 17zM64 80q6 0 7.5 7t3.5 20.5t6 22.5q2 5 3 13t-3 10q-7 0 -14 -16t-7 -32q0 -25 4 -25z" />
    <glyph glyph-name="thorn" unicode="&#xfe;" horiz-adv-x="391" 
d="M69 -17q-26 0 -36.5 15.5t-10.5 48.5v507q0 30 12 47t31 17q24 0 39 -13t15 -35q0 -96 4 -96t16 20t36.5 40t57.5 20q60 0 104 -66.5t44 -171.5q0 -113 -43 -178.5t-116 -65.5q-30 0 -50 12t-29 24t-12 12q-5 0 -5 -11v-75q0 -23 -15 -37t-42 -14zM48 539q2 28 8 38
q4 7 1.5 13t-7.5 6q-7 0 -13 -16.5t-6 -37.5q0 -24 6 -24q9 0 11 21zM211 162q72 0 72 160q0 58 -17.5 95t-42.5 37q-31 0 -62 -67.5t-31 -114.5q0 -43 23.5 -76.5t57.5 -33.5zM70 18q0 4 -10 9q-5 3 -5 24q0 14 -10 14q-8 0 -8 -19q0 -14 7.5 -26t18.5 -12q7 0 7 10z" />
    <glyph glyph-name="ydieresis" unicode="&#xff;" horiz-adv-x="383" 
d="M137 644q-18 0 -32.5 12.5t-14.5 32.5q0 21 14.5 33.5t32.5 12.5t32 -12.5t14 -33.5t-14 -33t-32 -12zM247 644q-18 0 -32.5 12.5t-14.5 32.5q0 21 14.5 33.5t32.5 12.5t32 -12.5t14 -33.5t-14 -33t-32 -12zM188 -6q-59 0 -99.5 32.5t-40.5 83.5q0 23 9.5 39t24.5 16
q16 0 27.5 -8t11.5 -22q0 -26 19.5 -41t47.5 -15q40 0 56.5 27.5t16.5 86.5v44q0 40 -2 40l-3 -5q-2 -4 -6 -11t-10.5 -15t-16 -16.5t-20 -15.5t-25 -11.5t-30.5 -4.5q-58 0 -99 50t-41 166v160q0 19 12 32t33 13q29 0 45.5 -13t16.5 -35v-167q0 -68 12 -88.5t37 -20.5
q36 0 65.5 49t29.5 108v107q0 30 13 46t35 16q21 0 41 -18t20 -56v-371q0 -87 -48 -134.5t-132 -47.5zM47 599q4 3 2 7.5t-6 4.5q-9 0 -16 -16t-7 -24q0 -13 5 -13q3 0 7 9t8 19.5t7 12.5zM288 584q4 6 6 9.5t4 8t2 7t-3 2.5q-8 0 -17.5 -15.5t-9.5 -27.5q0 -11 7 -11
q2 0 3.5 4t3 11t4.5 12zM69 271q-11 11 -18 29q-2 6 -3.5 12.5t-2.5 9.5t-2 3q-5 0 -5 -19q0 -12 13.5 -37t20.5 -25t7 10q0 7 -10 17zM64 80q6 0 7.5 7t3.5 20.5t6 22.5q2 5 3 13t-3 10q-7 0 -14 -16t-7 -32q0 -25 4 -25z" />
    <glyph glyph-name="Dcroat" unicode="&#x110;" horiz-adv-x="409" 
d="M107 0q-91 0 -91 88v237q-50 2 -50 44q0 38 50 44v103q0 52 32.5 77t82.5 25h45q90 0 155.5 -80t65.5 -212q0 -143 -69 -234.5t-166 -91.5h-55zM144 96h13q53 0 88.5 64.5t35.5 168.5q0 92 -29.5 141.5t-78.5 49.5h-15q-17 0 -22.5 -7.5t-5.5 -32.5v-64h27q46 0 46 -37
q0 -52 -73 -52v-195q0 -36 14 -36zM-16 350q7 0 16 17t9 22q0 11 -6 11q-12 0 -19 -12.5t-7 -24.5q0 -13 7 -13zM47 83q3 0 5 6.5t2 17.5v21t-0.5 20.5t-0.5 12.5q0 55 -6 55q-9 0 -9 -55q0 -71 5 -76q1 -2 4 -2zM46 69q-7 0 -7 -11q0 -18 8 -18q7 0 7 18q0 11 -8 11z" />
    <glyph glyph-name="dcroat" unicode="&#x111;" horiz-adv-x="410" 
d="M66 0q-28 0 -38.5 22.5t-10.5 80.5v219q-42 0 -42 29q0 39 42 39v141q0 44 13 64.5t41 20.5q46 0 46 -44q0 -20 3 -20t14.5 18t35 35.5t54.5 17.5q75 0 124.5 -92t49.5 -231q0 -145 -60.5 -222.5t-184.5 -77.5h-87zM53 526q-5 6 -5 17q0 15 14.5 30t14.5 16q0 5 -10 5
q-14 0 -25 -17t-11 -41q0 -26 11 -26q3 0 7 5t4 11zM187 91q44 0 70 55.5t26 150.5q0 100 -22.5 164.5t-60.5 64.5q-26 0 -47.5 -24.5t-21.5 -62.5v-52q25 0 35 -5.5t10 -28.5q0 -25 -45 -30v-196q0 -24 4.5 -30t23.5 -6h28zM43 73q6 0 6 75q0 42 -8 42q-7 0 -7 -42
q0 -75 9 -75zM43 59q-8 0 -8 -11q0 -13 9 -13q6 0 6 13q0 7 -1 9t-6 2z" />
    <glyph glyph-name="dotlessi" unicode="&#x131;" horiz-adv-x="156" 
d="M75 -4q-23 0 -36.5 10t-13.5 26v438q0 24 12 45.5t38 21.5q27 0 41.5 -19.5t14.5 -42.5v-443q0 -16 -16 -26t-40 -10zM43 440q3 0 4 9.5t1.5 23.5t2.5 21q0 1 2 7t1.5 7.5t-1.5 3.5q-9 0 -14 -16.5t-5 -29.5q0 -26 9 -26z" />
    <glyph glyph-name="Lslash" unicode="&#x141;" horiz-adv-x="321" 
d="M60 0q-11 0 -19.5 8t-8.5 19l-1 216h-1q-39 -9 -46 24q-7 32 39 43q2 1 4.5 1.5t4.5 0.5v241q0 63 58 63q22 0 39 -18t17 -38v-221q3 1 8 2.5t6 1.5q34 6 40 -20q9 -37 -40 -49q-4 -1 -14 -3v-150q0 -27 23 -27t56.5 1.5t56.5 1.5q24 0 24 -43q0 -20 -12.5 -37.5
t-26.5 -17.5h-47l-83 1h-77zM50 549q5 0 16 21t12 29q0 5 -8 5q-10 -1 -18.5 -20t-6.5 -29q0 -6 5 -6zM0 256q5 1 9 15t3 17q-1 4 -2 6t-4 1q-9 -1 -12 -11.5t-1 -19.5q0 -3 2 -5l3 -3t2 0zM61 59q10 0 10 96q0 36 -14 36q-8 0 -8 -61q0 -71 12 -71zM78 30q0 11 -7 11
q-10 0 -10 -11q0 -8 8 -8q9 0 9 8z" />
    <glyph glyph-name="lslash" unicode="&#x142;" horiz-adv-x="192" 
d="M90 0q-46 0 -59 27t-13 86v132q-29 -9 -37 17q-10 27 29 42q2 1 8 3v256q0 55 53 55q26 0 39 -17t13 -35v-220h1q10 4 16 4q15 0 21 -16q11 -30 -29 -47q-1 0 -4 -1t-5 -2v-147q0 -43 13 -43h11q14 0 22.5 -13.5t8.5 -33.5q0 -47 -44 -47h-44zM38 523q3 0 6 10.5t6.5 25
t7.5 21.5q3 5 5 9.5t3 8.5t0 6.5t-5 2.5q-12 0 -21.5 -15t-9.5 -41q0 -28 8 -28zM-4 254q4 2 6 14.5t0 15.5q-2 7 -6 5q-15 -6 -7 -28q2 -7 7 -7z" />
    <glyph glyph-name="OE" unicode="&#x152;" horiz-adv-x="676" 
d="M231 -9q-69 0 -119.5 46t-73 113.5t-22.5 145.5q0 80 20.5 152t71.5 124.5t124 52.5q67 0 115 -48q19 39 68 39h195q17 0 26.5 -13t9.5 -32t-8.5 -34.5t-23.5 -16.5l-141 -4q-10 0 -16 -7t-6 -17v-92q0 -30 22 -30l119 1q33 0 33 -52q0 -39 -32 -40l-115 -4
q-27 -1 -27 -31v-66q0 -23 0.5 -31.5t3.5 -23.5t9.5 -20t19.5 -9.5t33 -4.5q24 0 65 15t52 15q12 0 19 -18t7 -36q0 -35 -52.5 -52t-98.5 -17q-115 0 -152 51q-53 -56 -126 -56zM79 468q3 0 9 9t14 23t13 21q12 16 28 32.5t24.5 25t8.5 10.5q0 3 -5 4q-23 0 -59.5 -47.5
t-36.5 -72.5q0 -5 4 -5zM231 71q28 0 48 21.5t30 57.5t14 72.5t4 76.5q0 234 -95 234q-29 0 -51 -27t-32 -68.5t-14.5 -77t-4.5 -64.5q0 -32 3.5 -64t13 -71.5t31 -64.5t53.5 -25zM80 446q0 8 -7 10q-4 0 -8.5 -4t-4.5 -11q0 -9 8 -9q4 0 8 3.5t4 10.5zM446 35
q-39 15 -59 36q-10 11 -15 6q-7 -5 5 -18q11 -14 31 -27t34 -13q8 0 12 4q6 6 -8 12z" />
    <glyph glyph-name="oe" unicode="&#x153;" horiz-adv-x="714" 
d="M197 -7q-50 0 -87 26.5t-57 71.5t-29 96.5t-9 110.5q0 60 9 113.5t28.5 103t57 79t87.5 29.5q126 0 164 -160q27 75 76 117.5t110 42.5q68 0 111 -49.5t39 -123.5q-5 -89 -69 -156t-153 -67q-17 0 -17 -14q0 -62 21.5 -93.5t58.5 -31.5q26 0 43.5 19.5t17.5 47.5
q0 24 13 38.5t33 14.5q23 0 36.5 -19t13.5 -50q0 -61 -48 -105t-115 -44q-60 0 -105.5 38.5t-69.5 108.5q-41 -144 -160 -144zM402 477q3 0 18 23t36 47t39 26q6 1 10 3.5t3 5.5q0 10 -13 8q-32 -2 -66 -43t-32 -66q1 -7 5 -4zM85 505q14 36 39 56q5 5 1.5 10.5t-6.5 5.5
q-11 0 -31.5 -33.5t-20.5 -52.5q0 -8 5 -8q4 0 13 22zM197 56q23 0 40 26.5t24.5 69t11 81t3.5 75.5q0 40 -5.5 92.5t-25 106.5t-48.5 54t-48 -55.5t-23.5 -106.5t-4.5 -92q0 -37 3.5 -75.5t11 -80.5t23.5 -68.5t38 -26.5zM455 315q3 -4 14 -4q51 0 91.5 45.5t40.5 97.5
q0 32 -15.5 53t-38.5 21q-31 0 -56 -49t-34.5 -100.5t-1.5 -63.5zM71 461q0 15 -9 15q-10 0 -10 -17q0 -14 10 -14q1 0 3 1.5t4 5.5t2 9zM389 467q-12 -2 -10 -22q2 -8 4 -8q5 0 9 9t2 16q-3 5 -5 5z" />
    <glyph glyph-name="Scaron" unicode="&#x160;" horiz-adv-x="357" 
d="M89 753q0 10 11.5 19.5t21.5 9.5q13 0 23 -9t20.5 -26t16.5 -24q4 5 13.5 22.5t18 26t20.5 8.5q13 0 24 -8t11 -20q0 -21 -34 -67.5t-54 -46.5q-22 0 -57 46t-35 69zM175 -9q-62 0 -112.5 42t-50.5 94q0 31 18 50.5t45 18.5q32 -1 32 -50q0 -37 13.5 -53.5t44.5 -16.5
q64 0 64 65q0 26 -13 52t-24 38t-37 38q-72 72 -102.5 119.5t-30.5 88.5q0 68 42.5 107.5t116.5 39.5q52 0 98 -30t46 -63q0 -31 -18 -55t-43 -24q-13 0 -26 10.5t-14 26.5q-2 42 -47 42q-42 0 -42 -48q0 -31 19 -61t72 -85q65 -67 90 -107.5t25 -78.5q0 -70 -46.5 -115
t-119.5 -45zM80 543q11 20 26 32q11 10 10 18q-13 1 -35 -25.5t-24 -43.5q0 -6 6 -6q3 0 5.5 3t5.5 10.5t6 11.5zM64 498q0 7 -6 7q-8 0 -8 -8q0 -5 7 -6q5 0 7 7zM49 129q3 6 9.5 20t7.5 20q0 5 -3 5q-17 2 -26.5 -21.5t-2.5 -47.5q4 -10 8 -10q3 0 3 4.5t0.5 13.5t3.5 16z
" />
    <glyph glyph-name="scaron" unicode="&#x161;" horiz-adv-x="360" 
d="M90 753q0 10 11.5 19.5t21.5 9.5q13 0 23 -9t20.5 -26t16.5 -24q4 5 13.5 22.5t18 26t20.5 8.5q13 0 24 -8t11 -20q0 -21 -34 -67.5t-54 -46.5q-22 0 -57 46t-35 69zM175 -9q-67 0 -119.5 54.5t-52.5 142.5q0 31 18 50.5t45 18.5q32 -1 32 -50q0 -42 19.5 -86.5
t47.5 -44.5q64 0 64 65q0 26 -13 52t-24 38t-37 38q-72 72 -102.5 119.5t-30.5 88.5q0 68 42.5 107.5t116.5 39.5q64 0 108.5 -52.5t44.5 -112.5q0 -31 -18 -55t-43 -24q-14 0 -27 10.5t-13 26.5q0 55 -16 84.5t-40 29.5q-42 0 -42 -48q0 -31 19 -61t72 -85
q65 -67 90 -107.5t25 -78.5q0 -70 -46.5 -115t-119.5 -45zM80 543q11 20 26 32q11 10 10 18q-13 1 -35 -25.5t-24 -43.5q0 -6 6 -6q3 0 5.5 3t5.5 10.5t6 11.5zM64 498q0 7 -6 7q-8 0 -8 -8q0 -5 7 -6q5 0 7 7zM40 190q3 6 9.5 20t7.5 20q0 5 -3 5q-17 2 -26.5 -21.5
t-2.5 -47.5q4 -10 8 -10q3 0 3 4.5t0.5 13.5t3.5 16z" />
    <glyph glyph-name="Ydieresis" unicode="&#x178;" horiz-adv-x="417" 
d="M154 644q-18 0 -32.5 12.5t-14.5 32.5q0 21 14.5 33.5t32.5 12.5t32 -12.5t14 -33.5t-14 -33t-32 -12zM264 644q-18 0 -32.5 12.5t-14.5 32.5q0 21 14.5 33.5t32.5 12.5t32 -12.5t14 -33.5t-14 -33t-32 -12zM208 0q-25 0 -39 16t-14 36v139q0 25 -5.5 42t-25.5 61
l-119 262q-8 16 9.5 38t47.5 22q22 0 31 -21l93 -218q14 -35 24 -35t25 35l100 223q7 16 32 16q24 0 37 -23t5 -41l-125 -271q-14 -30 -16.5 -45.5t-2.5 -61.5v-122q0 -28 -17.5 -40t-39.5 -12zM36 551q-2 6 -2 14v10q-1 5 -3 9t-4 3q-18 -7 -5 -41q5 -11 12 -9q7 3 2 14z
M192 33q-10 24 -11 41q-1 23 -5 23q-5 0 -6 -16q-1 -29 5.5 -44.5t16.5 -15.5q6 0 0 12z" />
    <glyph glyph-name="Zcaron" unicode="&#x17d;" horiz-adv-x="355" 
d="M88 753q0 10 11.5 19.5t21.5 9.5q13 0 23 -9t20.5 -26t16.5 -24q4 5 13.5 22.5t18 26t20.5 8.5q13 0 24 -8t11 -20q0 -21 -34 -67.5t-54 -46.5q-22 0 -57 46t-35 69zM78 0q-27 0 -48 13t-21 42q0 25 11 47l208 411q3 6 3 12q-1 6 -11 6l-178 2q-13 0 -21.5 10.5
t-8.5 25.5q0 49 48 49l246 -2q41 0 41 -68q0 -30 -15 -60l-174 -330q-25 -47 -25 -58q0 -13 28 -13l148 -1q39 0 39 -51q0 -14 -9 -24.5t-18 -10.5h-243zM42 574q10 17 9 21q0 2 -3.5 4.5t-5.5 2.5q-20 -3 -15 -42q0 -8 6 -8q2 0 9 22zM35 49q7 -1 15.5 26.5t9.5 41.5
q0 4 -4 4q-9 -1 -19 -20.5t-11 -29.5q-2 -22 9 -22zM50 27q0 7 -5 7q-9 0 -9 -9q0 -6 5 -6q9 0 9 8z" />
    <glyph glyph-name="zcaron" unicode="&#x17e;" horiz-adv-x="361" 
d="M91 753q0 10 11.5 19.5t21.5 9.5q13 0 23 -9t20.5 -26t16.5 -24q4 5 13.5 22.5t18 26t20.5 8.5q13 0 24 -8t11 -20q0 -21 -34 -67.5t-54 -46.5q-22 0 -57 46t-35 69zM78 0q-27 0 -48 13t-21 42q0 25 11 47l81 160h-24q-31 0 -31 39q0 37 31 37h62l89 175q3 6 3 12
q-1 6 -11 6l-178 2q-13 0 -21.5 10.5t-8.5 25.5q0 49 48 49l246 -2q41 0 41 -68q0 -30 -15 -60l-79 -150h30q33 0 33 -31q0 -45 -29 -45h-74l-55 -104q-25 -47 -25 -58q0 -13 28 -13l148 -1q39 0 39 -51q0 -14 -9 -24.5t-18 -10.5h-243zM42 574q10 17 9 21q0 2 -3.5 4.5
t-5.5 2.5q-20 -3 -15 -42q0 -8 6 -8q2 0 9 22zM69 306q0 3 1.5 8.5t2 8t-2.5 3.5q-5 0 -10 -8t-5 -18q0 -22 10 -22q4 0 4 28zM35 49q7 -1 15.5 26.5t9.5 41.5q0 4 -4 4q-9 -1 -19 -20.5t-11 -29.5q-2 -22 9 -22zM50 27q0 7 -5 7q-9 0 -9 -9q0 -6 5 -6q9 0 9 8z" />
    <glyph glyph-name="florin" unicode="&#x192;" horiz-adv-x="289" 
d="M-45 -81q-1 40 52 52q47 10 51 80l20 321h-16q-10 0 -16.5 12.5t-6.5 27.5q0 14 6.5 24.5t16.5 10.5h21l3 31q8 80 42 117.5t101 37.5q28 0 43 -12t15 -31q0 -25 -14 -34t-29 -6q-34 6 -47 -8.5t-19 -67.5l-3 -27h63q29 0 29 -36q0 -37 -28 -37q-5 0 -21 -1t-23 -1h-24
l-20 -328q-4 -71 -39 -112.5t-90 -49.5q-65 -10 -67 37zM121 526q0 10 8 26.5t16 24.5q13 14 6 17q-15 0 -29.5 -28t-14.5 -45q0 -10 6 -10q8 0 8 15zM-23 -84q2 0 7 13.5t15 15.5q1 0 4 1t5 1.5t4 1.5t3 3t1 5t-6 3q-11 0 -26.5 -13t-15.5 -24q0 -7 9 -7z" />
    <glyph glyph-name="circumflex" unicode="&#x2c6;" horiz-adv-x="253" 
d="M38 667q0 23 35 69t57 46q20 0 54 -46.5t34 -67.5q0 -12 -11 -20t-24 -8q-12 0 -20.5 8.5t-18 26t-13.5 22.5q-6 -7 -16.5 -24t-20.5 -26t-23 -9q-10 0 -21.5 9.5t-11.5 19.5z" />
    <glyph glyph-name="caron" unicode="&#x2c7;" horiz-adv-x="264" 
d="M38 753q0 10 11.5 19.5t21.5 9.5q13 0 23 -9t20.5 -26t16.5 -24q4 5 13.5 22.5t18 26t20.5 8.5q13 0 24 -8t11 -20q0 -21 -34 -67.5t-54 -46.5q-22 0 -57 46t-35 69z" />
    <glyph glyph-name="breve" unicode="&#x2d8;" horiz-adv-x="262" 
d="M47 730q0 35 32 35q10 0 17 -10t10 -22t10 -22t17 -10q15 1 28 32t26 31t22 -8t9 -20q0 -35 -20.5 -65.5t-63.5 -30.5t-65 28t-22 62z" />
    <glyph glyph-name="dotaccent" unicode="&#x2d9;" horiz-adv-x="183" 
d="M90 644q-18 0 -32.5 12.5t-14.5 32.5q0 21 14.5 33.5t32.5 12.5t32 -12.5t14 -33.5t-14 -33t-32 -12z" />
    <glyph glyph-name="ring" unicode="&#x2da;" horiz-adv-x="191" 
d="M96 624q-27 0 -46 16t-19 45q0 33 18.5 53.5t44.5 20.5q28 0 48.5 -19.5t20.5 -48.5q0 -26 -20 -46.5t-47 -20.5zM94 669q8 0 14.5 8.5t6.5 16.5q0 5 -6 11t-13 6q-20 0 -20 -24q0 -7 6 -12.5t12 -5.5z" />
    <glyph glyph-name="ogonek" unicode="&#x2db;" horiz-adv-x="204" 
d="M127 -165q-47 0 -75 27t-28 62q0 44 29.5 78t62.5 34q12 0 19 -8t7 -18q0 -9 -21 -29t-21 -47q0 -14 7.5 -24t19.5 -10q8 0 24.5 3.5t23.5 3.5q19 0 19 -21t-22.5 -36t-44.5 -15z" />
    <glyph glyph-name="tilde" unicode="&#x2dc;" horiz-adv-x="319" 
d="M190 636q-19 0 -36 13.5t-30 27t-22 13.5q-7 0 -15.5 -9t-12.5 -16q-5 -12 -10 -15.5t-17 -3.5q-10 0 -18 9t-8 18q0 28 25 56t52 28q22 0 53 -27t43 -27q14 0 26 28t27 28q10 0 17 -9.5t7 -19.5q0 -34 -24.5 -64t-56.5 -30z" />
    <glyph glyph-name="hungarumlaut" unicode="&#x2dd;" horiz-adv-x="273" 
d="M47 640q-12 8 -9.5 28.5t17.5 41.5q43 60 60 60q8 0 19 -13t10 -23q-4 -24 -31.5 -62.5t-47.5 -38.5q-8 0 -18 7zM168 632q-32 0 -36 25q-4 22 31 66.5t53 44.5q7 0 19 -9.5t13 -16.5q3 -20 -31 -65t-49 -45z" />
    <glyph glyph-name="uni03BC" unicode="&#x3bc;" horiz-adv-x="418" 
d="M90 -198q-11 0 -18.5 16t-12 45.5t-7 61.5t-3 72.5t-0.5 69.5t0.5 62.5t0.5 41.5v140q0 163 8 184q5 15 13 21t30 6q21 0 34 -28t13 -55q0 -8 -1 -37t-1.5 -56.5t-0.5 -64t4.5 -67t11.5 -57.5t21 -42t33 -15q18 0 31.5 10t21.5 30.5t13 41.5t7.5 54t3 57.5t0.5 60.5
q0 102 9 135.5t39 33.5q45 0 45 -32v-397q0 -118 -53 -118q-14 0 -24.5 13.5t-10.5 27.5q0 34 -4 34t-11.5 -12.5t-24.5 -25.5t-44 -13q-25 0 -41 13t-19 13q-6 0 -6 -20v-135q0 -29 -13.5 -49t-43.5 -20zM312 435q6 0 11.5 24.5t5.5 34.5l-3 7q-17 0 -17 -59q0 -7 3 -7z
M72 406q7 0 13 37t5 50q0 5 -3 5q-19 2 -19 -82q0 -10 4 -10zM82 388q0 3 -3.5 6.5t-6.5 3.5q-8 0 -8 -10q0 -12 9 -12t9 12z" />
    <glyph glyph-name="endash" unicode="&#x2013;" horiz-adv-x="406" 
d="M348 329q0 -50 -66 -52q-78 -2 -178 -2q-53 0 -53 44q0 43 64 45q84 2 187 2q46 0 46 -37zM69 300q7 0 16 17t9 22q0 11 -6 11q-12 0 -19 -12.5t-7 -24.5q0 -13 7 -13z" />
    <glyph glyph-name="emdash" unicode="&#x2014;" horiz-adv-x="469" 
d="M408 329q0 -50 -66 -52q-78 -2 -238 -2q-53 0 -53 44q0 43 64 45q84 2 247 2q46 0 46 -37zM69 300q7 0 16 17t9 22q0 11 -6 11q-12 0 -19 -12.5t-7 -24.5q0 -13 7 -13z" />
    <glyph glyph-name="quoteleft" unicode="&#x2018;" horiz-adv-x="106" 
d="M52 526q-47 0 -47 68q0 31 19.5 63.5t50.5 32.5q19 0 19 -17q0 -5 -14 -12q-29 -15 -33 -43v-7l1 3q2 2 6.5 5t11.5 3q14 0 24.5 -13t10.5 -31q0 -23 -12.5 -37.5t-36.5 -14.5zM40 544q0 2 -9 24q-6 19 -10 19q-3 -2 -1.5 -12t7 -22t11.5 -12q2 0 2 3z" />
    <glyph glyph-name="quoteright" unicode="&#x2019;" horiz-adv-x="113" 
d="M56 690q47 0 47 -68q0 -31 -19.5 -63.5t-50.5 -32.5q-19 0 -19 17q0 5 14 12q29 15 33 43v7l-1 -3q-2 -2 -6.5 -5t-11.5 -3q-14 0 -24.5 13t-10.5 31q0 23 12.5 37.5t36.5 14.5zM28 648q9 22 9 24q0 3 -2 3q-6 0 -11.5 -12t-7 -22t1.5 -12q4 0 10 19z" />
    <glyph glyph-name="quotesinglbase" unicode="&#x201a;" horiz-adv-x="112" 
d="M60 100q47 0 47 -68q0 -31 -19.5 -63.5t-50.5 -32.5q-19 0 -19 17q0 5 14 12q29 15 33 43v7l-1 -3q-2 -2 -6.5 -5t-11.5 -3q-14 0 -24.5 13t-10.5 31q0 23 12.5 37.5t36.5 14.5zM32 58q9 22 9 24q0 3 -2 3q-6 0 -11.5 -12t-7 -22t1.5 -12q4 0 10 19z" />
    <glyph glyph-name="quotedblleft" unicode="&#x201c;" horiz-adv-x="209" 
d="M52 526q-47 0 -47 68q0 31 19.5 63.5t50.5 32.5q19 0 19 -17q0 -5 -14 -12q-29 -15 -33 -43v-7l1 3q2 2 6.5 5t11.5 3q14 0 24.5 -13t10.5 -31q0 -23 -12.5 -37.5t-36.5 -14.5zM151 526q-47 0 -47 68q0 31 19.5 63.5t50.5 32.5q19 0 19 -17q0 -5 -14 -12q-29 -15 -33 -43
v-7l2 3q1 2 5.5 5t11.5 3q14 0 24.5 -13t10.5 -31q0 -23 -12.5 -37.5t-36.5 -14.5zM40 544q0 2 -9 24q-6 19 -10 19q-3 -2 -1.5 -12t7 -22t11.5 -12q2 0 2 3zM139 544q0 2 -9 24q-6 19 -10 19q-3 -2 -1.5 -12t7 -22t11.5 -12q2 0 2 3z" />
    <glyph glyph-name="quotedblright" unicode="&#x201d;" horiz-adv-x="211" 
d="M56 690q47 0 47 -68q0 -31 -19.5 -63.5t-50.5 -32.5q-19 0 -19 17q0 5 14 12q29 15 33 43v7l-1 -3q-2 -2 -6.5 -5t-11.5 -3q-14 0 -24.5 13t-10.5 31q0 23 12.5 37.5t36.5 14.5zM156 690q47 0 47 -68q0 -31 -19.5 -63.5t-50.5 -32.5q-19 0 -19 17q0 5 14 12q29 15 33 43
v7l-1 -3q-2 -2 -6.5 -5t-11.5 -3q-14 0 -24.5 13t-10.5 31q0 23 12.5 37.5t36.5 14.5zM28 648q9 22 9 24q0 3 -2 3q-6 0 -11.5 -12t-7 -22t1.5 -12q4 0 10 19zM128 648q9 22 9 24q0 3 -2 3q-6 0 -11.5 -12t-7 -22t1.5 -12q4 0 10 19z" />
    <glyph glyph-name="quotedblbase" unicode="&#x201e;" horiz-adv-x="214" 
d="M60 100q47 0 47 -68q0 -31 -19.5 -63.5t-50.5 -32.5q-19 0 -19 17q0 5 14 12q29 15 33 43v7l-1 -3q-2 -2 -6.5 -5t-11.5 -3q-14 0 -24.5 13t-10.5 31q0 23 12.5 37.5t36.5 14.5zM160 100q47 0 47 -68q0 -31 -19.5 -63.5t-50.5 -32.5q-19 0 -19 17q0 5 14 12q29 15 33 43
v7l-1 -3q-2 -2 -6.5 -5t-11.5 -3q-14 0 -24.5 13t-10.5 31q0 23 12.5 37.5t36.5 14.5zM32 58q9 22 9 24q0 3 -2 3q-6 0 -11.5 -12t-7 -22t1.5 -12q4 0 10 19zM132 58q9 22 9 24q0 3 -2 3q-6 0 -11.5 -12t-7 -22t1.5 -12q4 0 10 19z" />
    <glyph glyph-name="dagger" unicode="&#x2020;" horiz-adv-x="377" 
d="M179 -75q-23 0 -37 22q-6 12 -6 238l3 241q-3 0 -22 -1t-31.5 -0.5t-29 3t-25.5 11.5t-9 23q0 17 7 27.5t23 14.5t26.5 5t32.5 0t26 -1q0 5 1 27.5t2.5 42t6 41.5t14 35t23.5 13q50 0 50 -98v-63q6 0 24 0.5t30.5 -0.5t27 -4.5t22 -13.5t7.5 -27q0 -15 -9 -23.5t-24 -11
t-29 -2.5t-30.5 1t-22.5 1q0 -470 -8 -482q-13 -19 -43 -19zM159 594q3 0 6 9t3 13q0 7 9 20l9 14l-5 1q-13 0 -18.5 -17.5t-5.5 -34.5q0 -5 2 -5zM164 578q0 9 -4 9q-7 0 -7 -10q0 -7 5 -7q6 0 6 8z" />
    <glyph glyph-name="daggerdbl" unicode="&#x2021;" horiz-adv-x="370" 
d="M139 426q-3 0 -22 -1t-31.5 -0.5t-29 3t-25.5 11.5t-9 23q0 47 70 47q30 0 45 -1q0 4 1 27t3 42.5t6 41.5t14 35t25 13q53 0 53 -98v-63q7 0 22.5 0.5t23.5 0.5q73 0 73 -46q0 -15 -9.5 -23.5t-26 -11t-32 -2.5t-32.5 1t-23 1q0 -222 -1 -284h13l25 1h13q73 0 73 -46
q0 -15 -9.5 -23.5t-26 -11t-32 -2.5t-32.5 1t-23 1h-2q-1 -33 -0.5 -55t-1 -38t-6.5 -24q-12 -20 -40 -20q-37 0 -43 22q-2 11 -4 115q-3 0 -22 -1t-31.5 -0.5t-29 3.5t-25 11.5t-8.5 22.5q0 47 70 47h44v40zM159 594q3 0 6 9t3 13q0 7 9 20l9 14l-5 1q-13 0 -18.5 -17.5
t-5.5 -34.5q0 -5 2 -5zM164 578q0 9 -4 9q-7 0 -7 -10q0 -7 5 -7q6 0 6 8z" />
    <glyph glyph-name="bullet" unicode="&#x2022;" horiz-adv-x="197" 
d="M103 244q-35 0 -58.5 21.5t-23.5 55.5t21 64t57 30q37 0 61.5 -19.5t24.5 -62.5q0 -39 -22 -64t-60 -25zM55 288q3 0 4 3t1.5 8t0.5 9.5t-0.5 9.5t-0.5 6q0 19 13.5 40t13.5 24q0 6 -8 6q-14 0 -26 -23.5t-12 -52.5q0 -9 3.5 -19.5t10.5 -10.5z" />
    <glyph glyph-name="ellipsis" unicode="&#x2026;" horiz-adv-x="438" 
d="M66 -6q-26 0 -43 16t-17 42q0 27 18 48t45 21q59 0 59 -60q0 -25 -18 -46t-44 -21zM212 -6q-26 0 -43 16t-17 42q0 27 18 48t45 21q59 0 59 -60q0 -25 -18 -46t-44 -21zM358 -6q-26 0 -43 16t-17 42q0 27 18 48t45 21q59 0 59 -60q0 -25 -18 -46t-44 -21zM32 41
q3 0 4.5 3t2 8.5t1.5 6.5q3 8 12 20.5t12 17.5q1 2 -0.5 5t-3.5 3q-10 1 -22 -19.5t-12 -32.5t6 -12zM178 41q3 0 4.5 3t2 8.5t1.5 6.5q3 8 12 20.5t12 17.5q1 2 -0.5 5t-3.5 3q-10 1 -22 -19.5t-12 -32.5t6 -12zM324 41q3 0 4.5 3t2 8.5t1.5 6.5q3 8 12 20.5t12 17.5
q1 2 -0.5 5t-3.5 3q-10 1 -22 -19.5t-12 -32.5t6 -12z" />
    <glyph glyph-name="perthousand" unicode="&#x2030;" horiz-adv-x="704" 
d="M105 -6q-11 0 -27 9t-16 20q0 33 93 221.5t159 311.5q33 63 69 63q16 0 23 -12t5.5 -30t-6 -35.5t-11.5 -31.5q-39 -82 -138.5 -277.5t-109.5 -210.5q-18 -28 -41 -28zM111 393q-44 0 -69 33.5t-25 83.5q0 41 26 74.5t66 33.5q90 0 90 -101q0 -52 -26 -88t-62 -36z
M111 460q12 0 19 18.5t7 38.5q0 18 -7 29.5t-19 11.5q-11 0 -19 -14t-8 -32q0 -19 7.5 -35.5t19.5 -16.5zM43 512q0 31 -3 31q-10 0 -10 -29q0 -34 13 -34q2 0 2 3t-1 12t-1 17zM68 453q0 11 -9 11q-6 0 -6 -8q0 -3 2.5 -6.5t5.5 -3.5q7 0 7 7zM380 -6q-44 0 -69 33.5
t-25 83.5q0 41 26 74.5t66 33.5q90 0 90 -101q0 -52 -26 -88t-62 -36zM580 -6q-44 0 -69 33.5t-25 83.5q0 41 26 74.5t66 33.5q90 0 90 -101q0 -52 -26 -88t-62 -36zM380 61q12 0 19 18.5t7 38.5q0 18 -7 29.5t-19 11.5q-11 0 -19 -14t-8 -32q0 -19 7.5 -35.5t19.5 -16.5z
M580 61q12 0 19 18.5t7 38.5q0 18 -7 29.5t-19 11.5q-11 0 -19 -14t-8 -32q0 -19 7.5 -35.5t19.5 -16.5zM312 113q0 31 -3 31q-10 0 -10 -29q0 -34 13 -34q2 0 2 3t-1 12t-1 17zM512 113q0 31 -3 31q-10 0 -10 -29q0 -34 13 -34q2 0 2 3t-1 12t-1 17zM103 82q-4 4 -10 -0.5
t-9 -12.5q-9 -23 -9 -35q2 -24 13 2l2 4q15 40 13 42zM337 54q0 11 -9 11q-6 0 -6 -8q0 -3 2.5 -6.5t5.5 -3.5q7 0 7 7zM537 54q0 11 -9 11q-6 0 -6 -8q0 -3 2.5 -6.5t5.5 -3.5q7 0 7 7z" />
    <glyph glyph-name="guilsinglleft" unicode="&#x2039;" horiz-adv-x="247" 
d="M173 186q-30 14 -91 60.5t-61 62.5q0 18 69 79.5t90 61.5q9 0 17 -8t8 -17q0 -7 -14 -25.5t-29 -35t-33 -34.5l-18 -19q3 -2 13 -9t17 -12.5t17.5 -14t18.5 -15.5t15 -14.5t11 -14.5t4 -12q0 -13 -12 -25t-22 -8zM75 347q0 5 -3 5q-6 0 -19.5 -15.5t-10.5 -20.5
q2 -3 12 4q21 18 21 27z" />
    <glyph glyph-name="guilsinglright" unicode="&#x203a;" horiz-adv-x="251" 
d="M66 180q-12 0 -22.5 11t-10.5 23q0 16 19.5 35t48.5 39.5t35 26.5q-4 4 -23 22t-33 32t-26.5 32.5t-12.5 29.5q0 21 27 21q26 0 89 -57t63 -80q0 -25 -67 -80t-87 -55zM73 437h-5q-10 0 -10 -11q0 -13 5 -13q3 0 5 7l3.5 7t3 7t-1.5 3zM69 220q0 16 -6 16q-3 0 -5.5 -7
t-2.5 -12q0 -4 2.5 -9.5t5.5 -5.5q6 0 6 18z" />
    <glyph glyph-name="fraction" unicode="&#x2044;" horiz-adv-x="399" 
d="M75 -6q-11 0 -27 9t-16 20q0 33 93 221.5t159 311.5q33 63 69 63q16 0 23 -12t5.5 -30t-6 -35.5t-11.5 -31.5q-39 -82 -138.5 -277.5t-109.5 -210.5q-18 -28 -41 -28zM73 82q-4 4 -10 -0.5t-9 -12.5q-9 -23 -9 -35q2 -24 13 2l2 4q15 40 13 42z" />
    <glyph glyph-name="Euro" unicode="&#x20ac;" horiz-adv-x="454" 
d="M358 -13q-116 0 -175 49.5t-82 152.5h-9h-14t-13 0.5t-13.5 2.5t-10.5 4.5t-8.5 7t-2.5 10.5q0 7 2 12.5t6.5 8.5t7.5 5.5t11 3t11 0.5h12.5h11.5q-3 48 4 91h-8.5h-11t-10.5 0.5t-10.5 2t-8 4t-6.5 6.5t-2 9q0 29 70 29q30 93 97 154.5t161 61.5q17 0 38 -8t21 -22
t-6.5 -21t-12.5 -8.5t-23 -4.5q-117 -20 -172 -152h129q41 0 41 -24q0 -27 -50 -27h-135q-6 -35 -6 -68l1 -15v-7l131 2h5.5h5.5h5.5t5.5 -0.5t4.5 -1t4 -2t3.5 -3t3 -3.5t1.5 -5t0.5 -7q0 -21 -11 -27.5t-35 -6.5l-118 -1q16 -64 64.5 -100.5t110.5 -36.5q22 0 38 -8
t16 -24q0 -34 -69 -34zM194 491q4 0 48 38t44 43q0 2 -3 2q-14 0 -54.5 -33.5t-40.5 -46.5q0 -3 6 -3zM180 463q0 12 -9 12t-9 -10q0 -8 8 -11q3 0 6.5 3t3.5 6z" />
    <glyph glyph-name="trademark" unicode="&#x2122;" horiz-adv-x="578" 
d="M142 367q-10 0 -20.5 7t-10.5 17v288q-52 0 -60 17q-2 5 -2 10q0 27 29 27h137q8 0 13.5 -8t5.5 -17q0 -29 -48 -29h-5v-284q0 -12 -12.5 -20t-26.5 -8zM480 367q-33 0 -33 55l2 174q0 15 -6 15q-5 0 -28 -42.5t-36 -42.5q-9 0 -18.5 12t-23.5 38t-15 28q-3 4 -4 4
q-3 0 -3 -13v-176q0 -25 -11 -38.5t-28 -13.5q-25 0 -25 50v240q0 44 9 61q11 15 22 15q20 0 39.5 -23t34.5 -53t18 -33q3 -4 6 -4q2 0 5 4q2 4 14 25.5t21.5 38t24.5 31t29 14.5q15 0 25 -9.5t14 -24.5t5.5 -26t1.5 -21v-233q0 -21 -11 -36.5t-29 -15.5zM63 696q3 0 3 4
q0 12 7 22q1 3 -3 3q-5 0 -9 -6.5t-4 -13.5q0 -9 6 -9zM266 672q2 23 16 47q3 4 -4 4q-6 1 -12.5 -13.5t-7.5 -26.5q-2 -14 2 -15q6 0 6 4zM131 381q5 0 5 5q0 3 -2 3q-7 1 -7 17q0 21 -3 21q-6 0 -6 -19q0 -27 13 -27zM473 380q0 4 -4 14.5t-4 18.5t-6 8q-4 0 -4 -7
q0 -9 4.5 -23t11.5 -14q2 0 2 3zM273 378q0 5 -5 16t-9 11q-1 -1 -1 -8t4 -15t9 -8q2 0 2 4z" />
    <glyph glyph-name="minus" unicode="&#x2212;" horiz-adv-x="391" 
d="M293 247q-162 0 -194 1q-53 2 -53 45t62 43q3 0 60.5 1t92.5 -0.5t57 -5.5q11 -2 19 -15.5t8 -29.5q0 -19 -16.5 -29t-35.5 -10zM70 268q5 0 6.5 4t0.5 10.5t1 13.5q1 3 3 7.5t3 7.5t2 5.5t0 4t-3 1.5q-10 0 -16.5 -13t-6.5 -22q0 -19 10 -19z" />
    </font>
</defs>
</svg>
